<?xml version="1.0" standalone="no"?>
<!DOCTYPE svg PUBLIC "-//W3C//DTD SVG 1.1//EN" "http://www.w3.org/Graphics/SVG/1.1/DTD/svg11.dtd" >
<svg xmlns="http://www.w3.org/2000/svg" xmlns:xlink="http://www.w3.org/1999/xlink" version="1.1">
<metadata>
Created by FontForge 20161013 at Sun Oct  3 21:18:55 2010
 By ,,,
Copyright (c) 2009 by The Entente (AS &#38; EH). All rights reserved.
</metadata>
<defs>
<font id="Apercu-MediumItalic" horiz-adv-x="566" >
  <font-face 
    font-family="Apercu Medium"
    font-weight="500"
    font-style="italic"
    font-stretch="normal"
    units-per-em="1000"
    panose-1="2 0 6 6 0 0 0 2 0 4"
    ascent="800"
    descent="-200"
    x-height="504"
    cap-height="700"
    bbox="-142 -251 1247 951"
    underline-thickness="50"
    underline-position="-200"
    slope="-12"
    unicode-range="U+000D-FB02"
  />
<missing-glyph horiz-adv-x="645" 
d="M551 0h-457v700h457v-700zM448 94v512h-251v-512h251z" />
    <glyph glyph-name="fi" unicode="fi" horiz-adv-x="536" 
d="M102 412h-65l18 92h65l3 18q31 186 240 186q92 0 142 -29l-43 -88q-49 25 -105 25q-114 0 -129 -94l-3 -18h269l-98 -504h-105l80 412h-164l-80 -412h-105z" />
    <glyph glyph-name="fl" unicode="fl" horiz-adv-x="614" 
d="M102 412h-65l18 92h65l5 26q17 88 70.5 133t133.5 45h254l-137 -708h-105l119 616h-146q-68 0 -83 -79l-6 -33h111l-18 -92h-111l-80 -412h-105z" />
    <glyph glyph-name=".notdef" horiz-adv-x="645" 
d="M551 0h-457v700h457v-700zM448 94v512h-251v-512h251z" />
    <glyph glyph-name=".null" horiz-adv-x="0" 
 />
    <glyph glyph-name=".null" horiz-adv-x="0" 
 />
    <glyph glyph-name="nonmarkingreturn" horiz-adv-x="333" 
 />
    <glyph glyph-name="CR" unicode="&#xd;" horiz-adv-x="227" 
 />
    <glyph glyph-name="space" unicode=" " horiz-adv-x="227" 
 />
    <glyph glyph-name="exclam" unicode="!" horiz-adv-x="360" 
d="M119 221l66 479h142l-119 -479h-89zM79 17q-21 22 -21 54t21 53q22 22 55 22t54 -22q22 -21 22 -53t-22 -54q-21 -21 -54 -21t-55 21z" />
    <glyph glyph-name="quotedbl" unicode="&#x22;" horiz-adv-x="467" 
d="M194 469h-70l17 239h130zM365 469h-70l17 239h130z" />
    <glyph glyph-name="numbersign" unicode="#" horiz-adv-x="701" 
d="M222 417h-118l10 82h135l66 201h87l-66 -201h125l66 201h87l-66 -201h116l-10 -82h-133l-43 -134h119l-10 -82h-136l-65 -201h-87l65 201h-125l-65 -201h-87l65 201h-115l10 82h132zM434 417h-125l-43 -134h125z" />
    <glyph glyph-name="dollar" unicode="$" horiz-adv-x="533" 
d="M501 585l-97 -51q-26 74 -91 74q-38 0 -62.5 -24t-24.5 -64q0 -42 36 -71q32 -23 80 -46q68 -32 97.5 -72t29.5 -110q0 -111 -69 -169q-60 -51 -145 -58l-16 -84h-100l17 90q-61 18 -100 69.5t-40 117.5l95 53q5 -67 38.5 -105.5t87.5 -38.5q53 0 85.5 29.5t32.5 81.5
q0 40 -24.5 66.5t-80.5 54.5q-137 68 -137 184q0 83 48.5 134t131.5 60l17 84h100l-18 -93q39 -15 68.5 -45.5t40.5 -66.5z" />
    <glyph glyph-name="percent" unicode="%" horiz-adv-x="885" 
d="M60 524q0 82 55 134q53 50 138 50q61 0 98 -40q39 -39 39 -96q0 -78 -55 -134q-47 -50 -138 -50q-60 0 -99 39q-38 41 -38 97zM239 625q-39 0 -64 -25q-26 -26 -26 -66q0 -28 16.5 -45.5t45.5 -17.5q39 0 64 25q26 26 26 66q0 28 -16.5 45.5t-45.5 17.5zM465 128
q0 82 55 134q53 50 138 50q61 0 98 -40q39 -39 39 -96q0 -82 -55 -134q-53 -50 -138 -50q-60 0 -99 39q-38 41 -38 97zM644 229q-39 0 -64 -25q-26 -26 -26 -66q0 -28 16.5 -45.5t45.5 -17.5q39 0 64 25q26 26 26 66q0 28 -16.5 45.5t-45.5 17.5zM62 15l678 720l51 -49
l-678 -720z" />
    <glyph glyph-name="ampersand" unicode="&#x26;" horiz-adv-x="633" 
d="M177 534q0 79 53 129q50 45 133 45q65 0 103.5 -36.5t38.5 -94.5q0 -61 -42 -105.5t-125 -83.5l95 -156q32 47 66 119l57 -82q-37 -75 -75 -121l88 -148h-118l-38 67q-73 -75 -195 -75q-82 0 -135 51t-53 140q0 153 181 241q-34 61 -34 110zM365 153l-114 193
q-118 -58 -118 -154q0 -47 27.5 -75.5t70.5 -28.5q74 0 134 65zM350 616q-34 0 -55.5 -23t-21.5 -62q0 -32 21 -71q32 14 51 24q24 13 42.5 34.5t18.5 43.5q0 54 -56 54z" />
    <glyph glyph-name="quotesingle" unicode="'" horiz-adv-x="294" 
d="M192 469h-68l17 239h128z" />
    <glyph glyph-name="parenleft" unicode="(" horiz-adv-x="293" 
d="M249 750h103q-203 -248 -203 -544q0 -152 48 -256h-103q-48 116 -48 262q0 155 52.5 295.5t150.5 242.5z" />
    <glyph glyph-name="parenright" unicode=")" horiz-adv-x="293" 
d="M38 -50h-103q203 248 203 544q0 153 -47 256h103q47 -115 47 -262q0 -155 -52.5 -295.5t-150.5 -242.5z" />
    <glyph glyph-name="asterisk" unicode="*" horiz-adv-x="492" 
d="M259 708h88l-25 -124l127 39l17 -85l-134 -39l54 -101l-79 -51l-55 100l-92 -100l-67 51l99 101l-110 39l39 85l113 -39z" />
    <glyph glyph-name="plus" unicode="+" horiz-adv-x="579" 
d="M239 363l34 176h93l-34 -176h177l-18 -92h-177l-35 -177h-93l35 177h-176l18 92h176z" />
    <glyph glyph-name="comma" unicode="," horiz-adv-x="357" 
d="M71 -132h-77l119 260h143z" />
    <glyph glyph-name="hyphen" unicode="-" horiz-adv-x="488" 
d="M404 271h-353l17 92h353z" />
    <glyph glyph-name="period" unicode="." horiz-adv-x="291" 
d="M44 121q22 22 53 22t52 -22q22 -21 22 -52t-22 -53q-21 -21 -52 -21t-53 21q-21 22 -21 53t21 52z" />
    <glyph glyph-name="slash" unicode="/" horiz-adv-x="525" 
d="M-90 -50l586 800h113l-587 -800h-112z" />
    <glyph glyph-name="zero" unicode="0" horiz-adv-x="594" 
d="M365 708q94 0 145 -65.5t51 -187.5q0 -136 -47 -247q-39 -98 -110 -157t-175 -59q-94 0 -145 65.5t-51 187.5q0 131 46 247q90 216 286 216zM346 612q-52 0 -93.5 -35t-66.5 -93q-46 -111 -46 -226q0 -88 26 -129t82 -41q52 0 93.5 35t65.5 93q47 110 47 226
q0 88 -26 129t-82 41z" />
    <glyph glyph-name="one" unicode="1" horiz-adv-x="405" 
d="M92 584l217 116h44l-137 -700h-107l107 550l-146 -78z" />
    <glyph glyph-name="two" unicode="2" horiz-adv-x="549" 
d="M418 0h-429l8 44l324 340q43 45 59 72q17 29 17 72q0 39 -20.5 61.5t-57.5 22.5q-81 0 -113 -108l-104 19q22 86 81.5 135.5t147.5 49.5q83 0 129.5 -44.5t46.5 -122.5q0 -107 -88 -199l-232 -246h249z" />
    <glyph glyph-name="three" unicode="3" horiz-adv-x="551" 
d="M7 193l105 20q5 -57 34.5 -91t77.5 -34q64 0 98.5 41t34.5 111q0 56 -29.5 87.5t-77.5 31.5q-34 0 -63 -13l-47 59l180 199h-220l18 96h393l-7 -36l-215 -232q14 3 28 3q67 0 107 -48.5t40 -134.5q0 -112 -50 -176q-67 -84 -203 -84q-90 0 -145 58q-55 59 -59 143z" />
    <glyph glyph-name="four" unicode="4" horiz-adv-x="572" 
d="M382 0h-107l28 140h-297l9 48l385 512h119l-91 -464h79l-18 -96h-79zM378 529l-214 -293h157z" />
    <glyph glyph-name="five" unicode="5" horiz-adv-x="547" 
d="M18 184l102 18v-11q0 -48 28 -75.5t76 -27.5q61 0 100.5 47.5t39.5 124.5q0 52 -26 80t-75 28q-80 0 -148 -72l-66 14l110 390h355l-18 -96h-262l-55 -175q44 35 108 35q89 0 136.5 -49t47.5 -147q0 -124 -72 -200q-70 -76 -194 -76q-82 0 -135 50t-53 124q0 14 1 18z
" />
    <glyph glyph-name="six" unicode="6" horiz-adv-x="562" 
d="M302 448q84 0 134 -52.5t50 -141.5q0 -119 -70 -190q-70 -72 -186 -72q-91 0 -146 52t-55 137q0 88 65 174l269 353h125l-205 -262q10 2 19 2zM283 352q-63 0 -105 -46q-42 -45 -42 -110q0 -49 26.5 -78.5t69.5 -29.5q65 0 105 43q42 43 42 110q0 55 -26 83t-70 28z" />
    <glyph glyph-name="seven" unicode="7" horiz-adv-x="501" 
d="M124 700h410l-10 -48l-388 -652h-115l360 604h-276z" />
    <glyph glyph-name="eight" unicode="8" horiz-adv-x="553" 
d="M345 708q79 0 123.5 -45t44.5 -129q0 -55 -34 -99q-35 -45 -75 -60q32 -16 53 -54.5t21 -89.5q0 -103 -58 -165q-68 -74 -202 -74q-90 0 -143 50t-53 137q0 65 37.5 118t101.5 81q-52 46 -52 126q0 94 74 154q62 50 162 50zM272 320q-59 0 -101 -36q-42 -34 -42 -94
q0 -45 27.5 -73.5t70.5 -28.5q62 0 102 34q42 36 42 101q0 46 -26.5 71.5t-72.5 25.5zM329 616q-48 0 -83 -32q-34 -31 -34 -78q0 -40 22 -63.5t57 -23.5q52 0 85.5 32t33.5 81q0 39 -22.5 61.5t-58.5 22.5z" />
    <glyph glyph-name="nine" unicode="9" horiz-adv-x="562" 
d="M263 252q-84 0 -134 52.5t-50 141.5q0 119 70 190q71 72 186 72q90 0 146 -53q55 -52 55 -136q0 -88 -65 -174l-269 -353h-125l205 262q-10 -2 -19 -2zM282 348q63 0 105 45q42 47 42 111q0 49 -26.5 78.5t-69.5 29.5q-64 0 -106 -44q-41 -44 -41 -109q0 -55 26 -83
t70 -28z" />
    <glyph glyph-name="colon" unicode=":" horiz-adv-x="309" 
d="M57 121q22 22 53 22t52 -22q22 -21 22 -52t-22 -53q-21 -21 -52 -21t-53 21q-21 22 -21 53t21 52zM120 444q22 22 53 22t52 -22q22 -21 22 -52t-22 -53q-21 -21 -52 -21t-53 21q-21 22 -21 53t21 52z" />
    <glyph glyph-name="semicolon" unicode=";" horiz-adv-x="309" 
d="M120 444q22 22 53 22t52 -22q22 -21 22 -52t-22 -53q-21 -21 -52 -21t-53 21q-21 22 -21 53t21 52zM12 -132h-77l119 260h143z" />
    <glyph glyph-name="less" unicode="&#x3c;" horiz-adv-x="465" 
d="M399 66l-364 192v104l364 192v-111l-253 -133l253 -133v-111z" />
    <glyph glyph-name="equal" unicode="=" horiz-adv-x="591" 
d="M494 347h-415v92h415v-92zM494 181h-415v92h415v-92z" />
    <glyph glyph-name="greater" unicode="&#x3e;" horiz-adv-x="465" 
d="M66 554l364 -192v-104l-364 -192v111l253 133l-253 133v111z" />
    <glyph glyph-name="question" unicode="?" horiz-adv-x="452" 
d="M268 345l79 -26q-27 -63 -63 -87.5t-96 -24.5q-51 0 -83 30t-32 81q0 90 112 136l95 40q31 13 44 30t13 46q0 25 -16.5 39.5t-43.5 14.5q-75 0 -112 -91l-94 24q25 71 81 111t132 40q74 0 115 -35t41 -95q0 -96 -103 -142l-117 -53q-25 -11 -38.5 -23.5t-15.5 -36.5
q0 -17 10.5 -27t25.5 -10q21 0 35.5 14t30.5 45zM104 17q-21 22 -21 54t21 53q22 22 55 22t54 -22q22 -21 22 -53t-22 -54q-21 -21 -54 -21t-55 21z" />
    <glyph glyph-name="at" unicode="@" horiz-adv-x="910" 
d="M590 466l17 43h76l-53 -246q-6 -24 -6 -35q0 -28 39 -28q93 0 93 172q0 123 -68 188.5t-192 65.5q-145 0 -240 -95q-94 -94 -94 -256q0 -132 78 -205q78 -72 197 -72q72 0 133 14q54 13 140 53l29 -90q-93 -40 -155 -54q-63 -15 -154 -15q-162 0 -268 97
q-105 97 -105 261q0 210 126 332q128 122 330 122q148 0 245 -88q98 -87 98 -241q0 -128 -52 -204q-51 -77 -161 -77q-34 0 -63.5 19t-40.5 48q-52 -67 -141 -67q-75 0 -117 45.5t-42 124.5q0 108 64 172q65 66 170 66q40 0 72.5 -13.5t44.5 -36.5zM468 424q-54 0 -92 -41
t-38 -97q0 -40 20.5 -63t58.5 -23q57 0 94 40t37 99q0 41 -21.5 63t-58.5 22z" />
    <glyph glyph-name="A" unicode="A" horiz-adv-x="594" 
d="M-61 0l377 700h107l107 -700h-114l-23 174h-248l-91 -174h-115zM381 278l-37 283l-145 -283h182z" />
    <glyph glyph-name="B" unicode="B" horiz-adv-x="617" 
d="M30 0l137 700h231q83 0 132.5 -42.5t49.5 -116.5q0 -111 -102 -161q35 -15 56.5 -51.5t21.5 -89.5q0 -119 -69 -179q-67 -60 -177 -60h-280zM385 596h-128l-33 -172h128q51 0 83 26.5t32 73.5q0 72 -82 72zM342 320h-138l-42 -216h135q70 0 108.5 31.5t38.5 92.5
q0 92 -102 92z" />
    <glyph glyph-name="C" unicode="C" horiz-adv-x="675" 
d="M669 491l-109 -26q-11 72 -45.5 105.5t-100.5 33.5q-80 0 -143 -48q-62 -47 -94 -118t-32 -151q0 -95 43.5 -143t126.5 -48q64 0 109 32.5t87 105.5l99 -30q-49 -108 -126 -160t-189 -52q-114 0 -189 77q-75 76 -75 208q0 170 106 297q51 62 129 98t168 36
q104 0 165.5 -59t69.5 -158z" />
    <glyph glyph-name="D" unicode="D" horiz-adv-x="672" 
d="M30 0l137 700h187q126 0 202 -76q77 -75 77 -221q0 -173 -111 -289q-111 -114 -284 -114h-208zM323 596h-67l-95 -492h69q130 0 209 81q80 83 80 208q0 203 -196 203z" />
    <glyph glyph-name="E" unicode="E" horiz-adv-x="567" 
d="M30 0l137 700h409l-21 -104h-298l-33 -172h239l-20 -104h-239l-42 -216h308l-21 -104h-419z" />
    <glyph glyph-name="F" unicode="F" horiz-adv-x="554" 
d="M30 0l136 700h415l-21 -104h-304l-35 -181h243l-20 -104h-243l-61 -311h-110z" />
    <glyph glyph-name="G" unicode="G" horiz-adv-x="700" 
d="M572 0h-93l6 87q-71 -95 -196 -95q-111 0 -184 75q-74 76 -74 205q0 123 46 219q47 100 138.5 158.5t209.5 58.5q106 0 169 -60q63 -59 68 -154l-107 -31q-14 75 -50 108t-100 33q-119 0 -190 -92q-70 -91 -70 -223q0 -90 45 -141.5t125 -51.5q70 0 121.5 43t76.5 117
h-137l19 97h246z" />
    <glyph glyph-name="H" unicode="H" horiz-adv-x="696" 
d="M141 0h-111l137 700h111l-54 -274h277l54 274h111l-137 -700h-111l63 322h-277z" />
    <glyph glyph-name="I" unicode="I" horiz-adv-x="308" 
d="M141 0h-111l137 700h111z" />
    <glyph glyph-name="J" unicode="J" horiz-adv-x="549" 
d="M320 222l93 478h111l-100 -504q-22 -112 -91 -161q-58 -43 -155 -43q-82 0 -131 57q-49 56 -49 136l110 22q0 -52 21.5 -81.5t62.5 -29.5q102 0 128 126z" />
    <glyph glyph-name="K" unicode="K" horiz-adv-x="614" 
d="M30 0l137 700h111l-52 -265l278 265h143l-336 -315l229 -385h-136l-196 343l-67 -343h-111z" />
    <glyph glyph-name="L" unicode="L" horiz-adv-x="511" 
d="M30 0l136 700h111l-116 -596h296l-21 -104h-406z" />
    <glyph glyph-name="M" unicode="M" horiz-adv-x="792" 
d="M141 0h-111l137 700h131l77 -466l246 466h141l-137 -700h-111l88 456l-215 -392h-84l-70 408z" />
    <glyph glyph-name="N" unicode="N" horiz-adv-x="708" 
d="M469 196l98 504h111l-137 -700h-119l-183 502l-98 -502h-111l137 700h119z" />
    <glyph glyph-name="O" unicode="O" horiz-adv-x="727" 
d="M429 708q109 0 184 -75q75 -73 75 -210q0 -216 -142 -340q-103 -91 -256 -91q-108 0 -184 74q-75 75 -75 211q0 216 142 340q103 91 256 91zM409 604q-112 0 -186 -89q-77 -95 -77 -228q0 -91 43.5 -141t120.5 -50q112 0 186 89q77 95 77 228q0 91 -43.5 141t-120.5 50z
" />
    <glyph glyph-name="P" unicode="P" horiz-adv-x="591" 
d="M324 286h-127l-56 -286h-111l137 700h233q91 0 142.5 -45.5t51.5 -128.5q0 -115 -72 -177.5t-198 -62.5zM257 596l-40 -206h135q55 0 91.5 34t36.5 87q0 85 -90 85h-133z" />
    <glyph glyph-name="Q" unicode="Q" horiz-adv-x="727" 
d="M428 708q109 0 184 -75q75 -73 75 -210q0 -173 -96 -292l53 -65l-88 -74l-50 61q-88 -61 -217 -61q-108 0 -184 74q-75 75 -75 211q0 216 142 340q103 91 256 91zM440 135l-69 84l89 74l59 -74q53 86 53 194q0 91 -43.5 141t-120.5 50q-112 0 -186 -89q-77 -95 -77 -228
q0 -91 43.5 -141t120.5 -50q73 0 131 39z" />
    <glyph glyph-name="R" unicode="R" horiz-adv-x="607" 
d="M587 539q0 -90 -52 -145q-53 -56 -127 -72l138 -322h-126l-134 314h-83l-62 -314h-111l137 700h235q89 0 137 -42.5t48 -118.5zM257 596l-34 -178h125q54 0 89 28t35 76q0 35 -21.5 54.5t-60.5 19.5h-133z" />
    <glyph glyph-name="S" unicode="S" horiz-adv-x="533" 
d="M501 585l-97 -51q-26 74 -91 74q-38 0 -62.5 -24t-24.5 -64q0 -42 36 -71q32 -23 80 -46q68 -32 97.5 -72t29.5 -110q0 -111 -69 -169q-70 -60 -185 -60q-82 0 -140 55q-57 56 -59 140l95 53q5 -67 38.5 -105.5t87.5 -38.5q53 0 85.5 29.5t32.5 81.5q0 40 -24.5 66.5
t-80.5 54.5q-137 68 -137 184q0 92 59.5 144t157.5 52q62 0 108 -37q47 -38 63 -86z" />
    <glyph glyph-name="T" unicode="T" horiz-adv-x="513" 
d="M247 596h-191l21 104h493l-21 -104h-191l-116 -596h-111z" />
    <glyph glyph-name="U" unicode="U" horiz-adv-x="675" 
d="M73 262l85 438h111l-88 -453q-5 -32 -5 -47q0 -104 113 -104q66 0 108.5 38.5t56.5 112.5l88 453h111l-87 -448q-27 -140 -99 -200t-198 -60q-97 0 -151 51t-54 148q0 22 9 71z" />
    <glyph glyph-name="V" unicode="V" horiz-adv-x="576" 
d="M643 700l-372 -700h-112l-102 700h116l67 -546l283 546h120z" />
    <glyph glyph-name="W" unicode="W" horiz-adv-x="898" 
d="M587 162l235 538h116l-320 -700h-113l-49 435l-211 -435h-113l-48 700h116l20 -538l218 464h103z" />
    <glyph glyph-name="X" unicode="X" horiz-adv-x="560" 
d="M314 481l164 219h128l-251 -327l141 -373h-119l-103 273l-203 -273h-128l292 382l-120 318h118z" />
    <glyph glyph-name="Y" unicode="Y" horiz-adv-x="500" 
d="M177 300l-125 400h118l81 -291l195 291h123l-281 -400l-59 -300h-111z" />
    <glyph glyph-name="Z" unicode="Z" horiz-adv-x="567" 
d="M401 596h-300l21 104h452l-11 -54l-412 -542h324l-21 -104h-479l11 54z" />
    <glyph glyph-name="bracketleft" unicode="[" horiz-adv-x="336" 
d="M228 -50h-208l154 800h209l-18 -94h-108l-119 -612h108z" />
    <glyph glyph-name="backslash" unicode="\" horiz-adv-x="479" 
d="M329 -50l-281 800h105l281 -800h-105z" />
    <glyph glyph-name="bracketright" unicode="]" horiz-adv-x="336" 
d="M134 750h209l-155 -800h-208l17 94h108l119 612h-108z" />
    <glyph glyph-name="asciicircum" unicode="^" horiz-adv-x="591" 
d="M67 413l191 287h88l191 -287h-103l-132 195l-132 -195h-103z" />
    <glyph glyph-name="underscore" unicode="_" horiz-adv-x="494" 
d="M398 -92h-445l17 92h445z" />
    <glyph glyph-name="grave" unicode="`" horiz-adv-x="215" 
d="M52 708h143l41 -148h-82z" />
    <glyph glyph-name="a" unicode="a" horiz-adv-x="596" 
d="M308 512q41 0 74 -17.5t48 -46.5l10 56h105l-97 -504h-105l11 58q-56 -66 -146 -66q-85 0 -135 59q-48 59 -48 145q0 138 75 227q77 89 208 89zM138 221q0 -65 27 -101t75 -36q75 0 119 62q44 64 44 148q0 126 -105 126q-74 0 -117 -61q-43 -59 -43 -138z" />
    <glyph glyph-name="b" unicode="b" horiz-adv-x="604" 
d="M544 298q0 -130 -72 -218t-202 -88q-41 0 -79 19.5t-51 46.5l-12 -58h-105l138 708h105l-50 -260q57 64 144 64q83 0 133.5 -57t50.5 -157zM265 84q75 0 120 63q46 64 46 144q0 63 -26.5 96t-74.5 33q-72 0 -118 -63q-46 -61 -46 -149q0 -54 28.5 -89t70.5 -35z" />
    <glyph glyph-name="c" unicode="c" horiz-adv-x="547" 
d="M376 176l86 -39q-50 -78 -106.5 -111.5t-137.5 -33.5q-89 0 -141 58t-52 157q0 81 34 148q35 71 104 114t156 43q77 0 125 -36.5t63 -103.5l-98 -39q-27 87 -108 87q-72 0 -119 -62q-46 -61 -46 -145q0 -62 26 -95.5t74 -33.5q81 0 140 92z" />
    <glyph glyph-name="d" unicode="d" horiz-adv-x="617" 
d="M306 512q90 0 129 -61l49 257h105l-138 -708h-105l12 58q-24 -29 -64 -47.5t-86 -18.5q-86 0 -134.5 54.5t-48.5 146.5q0 138 75 228q75 91 206 91zM138 212q0 -57 28 -92.5t74 -35.5q54 0 93 36q73 66 73 174q0 60 -26.5 93t-74.5 33q-76 0 -122 -64q-45 -64 -45 -144z
" />
    <glyph glyph-name="e" unicode="e" horiz-adv-x="561" 
d="M299 420q-50 0 -89.5 -30t-57.5 -80h251q0 51 -26 80.5t-78 29.5zM505 268l-9 -45h-363q-3 -17 -3 -33q0 -49 27.5 -77.5t80.5 -28.5q85 0 150 92l80 -42q-51 -76 -108.5 -109t-143.5 -33q-91 0 -142 60t-51 155q0 121 82 212q83 93 212 93q91 0 142 -52.5t51 -140.5
q0 -19 -5 -51z" />
    <glyph glyph-name="f" unicode="f" horiz-adv-x="345" 
d="M102 412h-65l18 92h65l7 37q32 167 195 167q48 0 82 -18l-38 -88q-26 14 -52 14q-69 0 -82 -73l-7 -39h110l-18 -92h-110l-80 -412h-105z" />
    <glyph glyph-name="g" unicode="g" horiz-adv-x="522" 
d="M84 312q0 86 57 143t150 57q61 0 98 -22l98 50l34 -73l-79 -39q10 -24 10 -58q0 -92 -57.5 -144t-152.5 -52q-42 0 -85 17q-36 -19 -36 -49q0 -36 45 -36h111q68 0 105.5 -32.5t37.5 -96.5q0 -96 -70 -142q-71 -47 -181 -47q-90 0 -142.5 38.5t-52.5 104.5q0 77 64 126
q-20 29 -20 65q0 66 87 116q-21 33 -21 74zM238 18h-81q-27 0 -50 3q-30 -23 -30 -68q0 -73 102 -73q131 0 131 81q0 57 -72 57zM284 424q-42 0 -69.5 -26t-27.5 -67q0 -33 17.5 -51.5t47.5 -18.5q41 0 69 27t28 68q0 33 -17.5 50.5t-47.5 17.5z" />
    <glyph glyph-name="h" unicode="h" horiz-adv-x="588" 
d="M24 0l137 708h105l-56 -290q76 94 182 94q57 0 91 -30t34 -82q0 -15 -5 -45l-69 -355h-105l63 328q4 17 4 36q0 56 -61 56q-51 0 -104 -56q-52 -55 -70 -151l-41 -213h-105z" />
    <glyph glyph-name="i" unicode="i" horiz-adv-x="287" 
d="M24 0l98 504h105l-98 -504h-105zM151 595q-20 21 -20 51t21 51q21 22 51 22t51 -22q21 -21 21 -51t-21 -51q-20 -20 -51 -20t-52 20z" />
    <glyph glyph-name="j" unicode="j" horiz-adv-x="287" 
d="M-81 -212l-9 101q60 15 90 42t41 82l95 491h105l-104 -536q-15 -81 -69 -124t-149 -56zM165 595q-20 21 -20 51t21 51q21 22 51 22t51 -22q21 -21 21 -51t-21 -51q-20 -20 -51 -20t-52 20z" />
    <glyph glyph-name="k" unicode="k" horiz-adv-x="520" 
d="M24 0l137 708h105l-76 -400l194 196h137l-240 -234l160 -270h-129l-136 241l-47 -241h-105z" />
    <glyph glyph-name="l" unicode="l" horiz-adv-x="305" 
d="M32 0l137 708h105l-137 -708h-105z" />
    <glyph glyph-name="m" unicode="m" horiz-adv-x="854" 
d="M24 0l98 504h105l-16 -81q28 41 71 65t91 24q103 0 119 -97q67 97 171 97q62 0 91 -28t29 -86q0 -18 -4 -37l-70 -361h-105l65 338q3 18 3 24q0 58 -61 58q-49 0 -91 -59t-62 -159l-39 -202h-105l65 338q3 18 3 24q0 58 -55 58q-45 0 -91 -54q-46 -55 -62 -138l-45 -228
h-105z" />
    <glyph glyph-name="n" unicode="n" horiz-adv-x="579" 
d="M24 0l98 504h105l-15 -80q67 88 172 88q57 0 90.5 -30.5t33.5 -81.5q0 -22 -6 -51l-68 -349h-105l63 328q4 17 4 32q0 60 -58 60q-50 0 -100 -54q-48 -52 -65 -137l-44 -229h-105z" />
    <glyph glyph-name="o" unicode="o" horiz-adv-x="588" 
d="M25 209q0 139 79 218q84 85 216 85q94 0 151 -62q57 -61 57 -155q0 -139 -79 -218q-84 -85 -216 -85q-94 0 -151 62t-57 155zM306 420q-74 0 -123 -63q-46 -58 -46 -138q0 -63 29.5 -99t80.5 -36q73 0 123 63q46 58 46 138q0 63 -29.5 99t-80.5 36z" />
    <glyph glyph-name="p" unicode="p" horiz-adv-x="610" 
d="M269 -8q-90 0 -129 61l-49 -257h-105l138 708h105l-12 -58q24 29 64 47.5t86 18.5q86 0 134.5 -54.5t48.5 -146.5q0 -138 -75 -229q-75 -90 -206 -90zM437 292q0 57 -28 92.5t-74 35.5q-53 0 -94 -36q-72 -66 -72 -174q0 -60 26.5 -93t74.5 -33q76 0 121 64q46 64 46 144
z" />
    <glyph glyph-name="q" unicode="q" horiz-adv-x="593" 
d="M25 206q0 130 72 218t202 88q41 0 79 -19.5t51 -46.5l12 58h105l-138 -708h-105l50 260q-57 -64 -144 -64q-83 0 -133.5 57t-50.5 157zM304 420q-75 0 -121 -64q-45 -63 -45 -143q0 -63 26.5 -96t74.5 -33q71 0 118 62q46 62 46 150q0 54 -28.5 89t-70.5 35z" />
    <glyph glyph-name="r" unicode="r" horiz-adv-x="443" 
d="M170 213l-41 -213h-105l98 504h105l-16 -81q66 89 166 89q33 0 62 -12l-37 -95q-25 15 -56 15q-52 0 -105 -54q-51 -53 -71 -153z" />
    <glyph glyph-name="s" unicode="s" horiz-adv-x="458" 
d="M263 512q50 0 89.5 -22.5t57.5 -61.5l-77 -58q-33 50 -81 50q-27 0 -43 -13.5t-16 -38.5q0 -21 16 -34.5t59 -33.5q50 -23 78 -50q37 -31 37 -90q0 -82 -49 -125t-135 -43q-81 0 -130 43q-51 44 -58 101l89 40q9 -42 35.5 -67t66.5 -25q37 0 57.5 17t20.5 49
q0 23 -21.5 41t-67.5 38q-101 44 -101 131q0 72 46 112t127 40z" />
    <glyph glyph-name="t" unicode="t" horiz-adv-x="363" 
d="M110 412h-85l17 92h85l26 139l117 65l-40 -204h126l-17 -92h-126l-48 -246q-3 -16 -3 -31q0 -51 54 -51q23 0 51 14l9 -88q-40 -18 -95 -18q-59 0 -91.5 33.5t-32.5 94.5q0 25 5 52z" />
    <glyph glyph-name="u" unicode="u" horiz-adv-x="582" 
d="M531 504l-98 -504h-105l15 80q-67 -88 -172 -88q-57 0 -90.5 30.5t-33.5 81.5q0 22 6 51l68 349h105l-63 -328q-4 -17 -4 -32q0 -60 58 -60q51 0 100 54q48 52 65 137l44 229h105z" />
    <glyph glyph-name="v" unicode="v" horiz-adv-x="446" 
d="M98 0l-73 504h105l39 -370l181 370h111l-260 -504h-103z" />
    <glyph glyph-name="w" unicode="w" horiz-adv-x="737" 
d="M461 136l162 368h112l-251 -504h-99l-18 354l-159 -354h-98l-59 504h110l21 -364l160 364h103z" />
    <glyph glyph-name="x" unicode="x" horiz-adv-x="476" 
d="M249 354l113 150h121l-194 -241l109 -263h-110l-68 174l-137 -174h-122l218 273l-100 231h112z" />
    <glyph glyph-name="y" unicode="y" horiz-adv-x="479" 
d="M117 29l-83 475h111l53 -339l176 339h115l-391 -708h-105z" />
    <glyph glyph-name="z" unicode="z" horiz-adv-x="462" 
d="M274 412h-202l17 92h353l-8 -42l-275 -370h221l-17 -92h-374l7 42z" />
    <glyph glyph-name="braceleft" unicode="{" horiz-adv-x="332" 
d="M65 46l34 181q4 17 4 32q0 25 -15.5 34.5t-57.5 9.5l19 94q50 0 69 15.5t28 60.5l36 181q9 44 38 70t74 26h72l-18 -94h-25q-22 0 -33 -9.5t-15 -32.5l-34 -174q-8 -45 -29.5 -64t-60.5 -26q57 -10 57 -66q0 -18 -4 -33l-32 -165q0 -3 -0.5 -5.5t-1 -4.5t-0.5 -3.5v-2.5
q0 -14 7.5 -20t26.5 -6h25l-18 -94h-73q-36 0 -55.5 20.5t-19.5 56.5q0 1 2 19z" />
    <glyph glyph-name="bar" unicode="|" horiz-adv-x="287" 
d="M95 -50v800h100v-800h-100z" />
    <glyph glyph-name="braceright" unicode="}" horiz-adv-x="332" 
d="M265 654l-34 -181q-4 -17 -4 -32q0 -25 15.5 -34.5t57.5 -9.5l-19 -94q-50 0 -69 -15.5t-28 -60.5l-36 -181q-9 -44 -38 -70t-74 -26h-72l18 94h25q22 0 33 9.5t15 32.5l34 174q8 45 29.5 64t60.5 26q-57 10 -57 66q0 18 4 33l32 165q0 3 0.5 5.5t1 4.5t0.5 3.5v2.5
q0 14 -7.5 20t-26.5 6h-25l18 94h73q36 0 55.5 -20.5t19.5 -56.5q0 -1 -2 -19z" />
    <glyph glyph-name="asciitilde" unicode="~" horiz-adv-x="644" 
d="M105 257l-46 60q66 101 162 101q43 0 100 -26t88 -26q49 0 99 47l46 -60q-66 -101 -162 -101q-43 0 -100 26t-88 26q-49 0 -99 -47z" />
    <glyph glyph-name="nbspace" unicode="&#xa0;" horiz-adv-x="227" 
 />
    <glyph glyph-name="exclamdown" unicode="&#xa1;" horiz-adv-x="269" 
d="M92 275l-66 -479h-142l119 479h89zM131 478q22 -21 22 -53t-22 -54q-21 -21 -54 -21t-55 21q-21 22 -21 54t21 53q22 22 55 22t54 -22z" />
    <glyph glyph-name="cent" unicode="&#xa2;" horiz-adv-x="558" 
d="M406 276l86 -39q-42 -67 -88 -100.5t-107 -41.5l-28 -144h-100l28 146q-67 16 -104.5 71.5t-37.5 138.5q0 110 65 196t176 104l28 144h100l-28 -143q116 -21 141 -136l-98 -39q-27 87 -108 87q-72 0 -119 -62q-46 -61 -46 -145q0 -62 26 -95.5t74 -33.5q81 0 140 92z" />
    <glyph glyph-name="sterling" unicode="&#xa3;" horiz-adv-x="562" 
d="M135 314h-80l20 100h45q-2 38 -2 49q0 116 64 180.5t177 64.5q73 0 119.5 -36t60.5 -102l-95 -41q-21 79 -98 79q-61 0 -93 -44t-32 -115q0 -1 0.5 -5t1 -12.5t0.5 -17.5h167l-19 -100h-138q0 -72 -26.5 -122t-86.5 -93q49 28 89 28q25 0 57 -18q32 -17 51 -17
q27 0 46 13t54 54l62 -61q-44 -60 -83.5 -83t-93.5 -23q-42 0 -85 17q-41 18 -62 18q-60 0 -122 -35l-48 69q78 61 114.5 114t36.5 120q0 15 -1 19z" />
    <glyph glyph-name="currency" unicode="&#xa4;" horiz-adv-x="575" 
d="M443 199l88 -67l-83 -83l-67 87q-46 -31 -108 -31t-108 31l-67 -87l-83 83l88 67q-30 49 -30 108t30 108l-88 67l83 83l67 -87q46 31 108 31t108 -31l67 87l83 -83l-88 -67q30 -49 30 -108t-30 -108zM343 231q27 29 27 76t-27 76q-26 29 -70 29t-71 -29q-26 -29 -26 -76
t26 -76q27 -29 71 -29t70 29z" />
    <glyph glyph-name="yen" unicode="&#xa5;" horiz-adv-x="571" 
d="M206 392l-91 308h119l72 -290l194 290h120l-214 -308h105l-18 -92h-150l-13 -67h150l-18 -92h-150l-28 -141h-110l28 141h-150l18 92h150l13 67h-150l18 92h105z" />
    <glyph glyph-name="brokenbar" unicode="&#xa6;" horiz-adv-x="257" 
d="M95 -50v349h100v-349h-100zM195 750v-349h-100v349h100z" />
    <glyph glyph-name="section" unicode="&#xa7;" horiz-adv-x="584" 
d="M484 236q0 -56 -25.5 -90.5t-77.5 -63.5q25 -47 25 -98q0 -90 -55.5 -143t-147.5 -53q-76 0 -124 42t-57 112l98 30q20 -84 93 -84q39 0 63.5 24t24.5 69q-3 31 -12 48.5t-31 33.5q-16 12 -27 18q-6 4 -34 20q-9 5 -21 12t-13 7q-93 54 -93 140q0 55 25.5 90t77.5 64
q-25 47 -25 98q0 90 55.5 143t147.5 53q76 0 124 -42t57 -112l-98 -30q-20 84 -93 84q-39 0 -63.5 -24t-24.5 -69q4 -53 42 -82l27 -19q1 0 13 -7t21 -12l35 -19q93 -54 93 -140zM321 138q21 9 32.5 16.5t22 25.5t12.5 45q0 33 -35 61q-18 15 -33 23q-17 11 -44 25
q-24 13 -43 24q-21 -9 -32.5 -16.5t-22 -25.5t-12.5 -45q0 -33 34 -61q21 -16 34 -24l44 -24q24 -13 43 -24z" />
    <glyph glyph-name="dieresis" unicode="&#xa8;" horiz-adv-x="328" 
d="M73 606q-18 18 -18 45t18 45t45 18t45 -18t18 -45t-18 -45t-45 -18t-45 18zM258 606q-18 18 -18 45t18 45t45 18t45 -18t18 -45t-18 -45t-45 -18t-45 18z" />
    <glyph glyph-name="copyright" unicode="&#xa9;" horiz-adv-x="900" 
d="M176 72q-109 112 -109 278t109 278t274 112q164 0 273 -112q110 -113 110 -278t-110 -278q-109 -112 -273 -112q-165 0 -274 112zM243 563q-80 -86 -80 -213t80 -213q79 -85 207 -85t207 85q80 86 80 213t-80 213q-79 85 -207 85t-207 -85zM543 288l85 -19
q-10 -62 -59.5 -98.5t-118.5 -36.5q-82 0 -141 56q-58 57 -58 160q0 104 58 159q59 57 141 57q69 0 118.5 -36.5t59.5 -98.5l-85 -19q-22 70 -93 70q-48 0 -76.5 -35t-28.5 -97t28.5 -97t76.5 -35q71 0 93 70z" />
    <glyph glyph-name="ordfeminine" unicode="&#xaa;" horiz-adv-x="421" 
d="M56 416q0 60 46.5 95t124.5 35h68v17q0 69 -79 69q-59 0 -75 -52l-69 15q11 51 49 80t95 29q161 0 161 -156v-248h-68l-9 54q-42 -58 -122 -58q-55 0 -88.5 31t-33.5 89zM142 416q0 -48 50 -48q43 0 73 27.5t30 73.5v11h-71q-37 0 -59.5 -17.5t-22.5 -46.5z" />
    <glyph glyph-name="guillemotleft" unicode="&#xab;" horiz-adv-x="679" 
d="M284 68l-252 208l15 74l332 202l-24 -121l-210 -124l160 -132zM564 68l-252 208l15 74l332 202l-24 -121l-210 -124l160 -132z" />
    <glyph glyph-name="logicalnot" unicode="&#xac;" horiz-adv-x="551" 
d="M384 305h-345v92h449v-255h-104v163z" />
    <glyph glyph-name="uni00AD" unicode="&#xad;" horiz-adv-x="488" 
d="M404 271h-353l17 92h353z" />
    <glyph glyph-name="registered" unicode="&#xae;" horiz-adv-x="900" 
d="M176 72q-109 112 -109 278t109 278t274 112q164 0 273 -112q110 -113 110 -278t-110 -278q-109 -112 -273 -112q-165 0 -274 112zM243 563q-80 -86 -80 -213t80 -213q79 -85 207 -85t207 85q80 86 80 213t-80 213q-79 85 -207 85t-207 -85zM636 137h-98l-122 182h-25
v-182h-86v426h158q67 0 102.5 -31.5t35.5 -90.5q0 -48 -24.5 -78.5t-67.5 -39.5zM462 483h-71v-84h71q54 0 54 42t-54 42z" />
    <glyph glyph-name="overscore" unicode="&#xaf;" horiz-adv-x="291" 
d="M321 626h-257l19 94h257z" />
    <glyph glyph-name="degree" unicode="&#xb0;" horiz-adv-x="350" 
d="M130 513q-32 32 -32 80q0 47 32 79t82 32t82 -32t32 -79q0 -48 -32 -80q-31 -31 -82 -31t-82 31zM182 623q-11 -11 -11 -30t11 -31q11 -11 30 -11t30 11q11 12 11 31t-11 30q-11 12 -30 12t-30 -12z" />
    <glyph glyph-name="plusminus" unicode="&#xb1;" horiz-adv-x="659" 
d="M326 445l34 176h93l-34 -176h177l-18 -92h-177l-35 -177h-93l35 177h-176l18 92h176zM508 0h-445l17 92h445z" />
    <glyph glyph-name="twosuperior" unicode="&#xb2;" horiz-adv-x="386" 
d="M339 300h-265l6 30l184 186q39 39 39 74q0 42 -38 42q-19 0 -36.5 -16t-26.5 -44l-72 20q12 50 52 81t94 31q49 0 79.5 -27.5t30.5 -71.5q0 -38 -11 -63t-39 -53l-117 -117h134z" />
    <glyph glyph-name="threesuperior" unicode="&#xb3;" horiz-adv-x="428" 
d="M90 417l72 10q5 -59 60 -59q30 0 49.5 20t19.5 53q0 38 -27.5 50.5t-58.5 -7.5l-27 47l90 97h-123l14 72h238l-6 -29l-114 -120q42 0 68.5 -28.5t26.5 -73.5q0 -69 -42 -111t-113 -42q-60 0 -93.5 33.5t-33.5 87.5z" />
    <glyph glyph-name="acute" unicode="&#xb4;" horiz-adv-x="225" 
d="M127 560h-83l98 148h143z" />
    <glyph glyph-name="mu" unicode="&#xb5;" horiz-adv-x="583" 
d="M483 504v-504h-104v86q-58 -94 -163 -94q-19 0 -44 5v-201h-104v708h104v-328q0 -92 78 -92q53 0 90 58q39 58 39 158v204h104z" />
    <glyph glyph-name="paragraph" unicode="&#xb6;" horiz-adv-x="715" 
d="M76 471q0 106 73 167q74 62 181 62h367l-18 -92h-64l-157 -812h-103l157 812h-97l-157 -812h-103l94 484q-75 0 -125 53q-48 54 -48 138z" />
    <glyph glyph-name="middot" unicode="&#xb7;" horiz-adv-x="290" 
d="M97 421q22 22 53 22t52 -22q22 -21 22 -52t-22 -53q-21 -21 -52 -21t-53 21q-21 22 -21 53t21 52z" />
    <glyph glyph-name="cedilla" unicode="&#xb8;" horiz-adv-x="207" 
d="M81 -60h81l-115 -191l-110 56z" />
    <glyph glyph-name="onesuperior" unicode="&#xb9;" horiz-adv-x="335" 
d="M106 637l143 63h31l-77 -400h-78l56 292l-91 -40z" />
    <glyph glyph-name="ordmasculine" unicode="&#xba;" horiz-adv-x="441" 
d="M109 355q-53 59 -53 145t53 145t142 59q88 0 141 -59t53 -145t-53 -145t-141 -59q-89 0 -142 59zM171 593q-29 -40 -29 -93t29 -93q29 -39 80 -39t79 39q29 40 29 93t-29 93q-28 39 -79 39t-80 -39z" />
    <glyph glyph-name="guillemotright" unicode="&#xbb;" horiz-adv-x="679" 
d="M394 552l252 -208l-15 -74l-332 -202l24 121l210 124l-160 132zM114 552l252 -208l-15 -74l-332 -202l24 121l210 124l-160 132z" />
    <glyph glyph-name="onequarter" unicode="&#xbc;" horiz-adv-x="899" 
d="M117 637l143 63h31l-77 -400h-78l56 292l-91 -40zM74 15l678 720l51 -49l-678 -720zM673 0h-78l13 71h-174l7 35l217 294h92l-50 -257h48l-14 -72h-48zM650 286l-102 -143h74z" />
    <glyph glyph-name="onehalf" unicode="&#xbd;" horiz-adv-x="939" 
d="M128 637l143 63h31l-77 -400h-78l56 292l-91 -40zM74 15l678 720l51 -49l-678 -720zM788 0h-265l6 30l184 186q39 39 39 74q0 42 -38 42q-19 0 -36.5 -16t-26.5 -44l-72 20q12 50 52 81t94 31q49 0 79.5 -27.5t30.5 -71.5q0 -38 -11 -63t-39 -53l-117 -117h134z" />
    <glyph glyph-name="threequarters" unicode="&#xbe;" horiz-adv-x="963" 
d="M138 15l678 720l51 -49l-678 -720zM90 417l72 10q5 -59 60 -59q30 0 49.5 20t19.5 53q0 38 -27.5 50.5t-58.5 -7.5l-27 47l90 97h-123l14 72h238l-6 -29l-114 -120q42 0 68.5 -28.5t26.5 -73.5q0 -69 -42 -111t-113 -42q-60 0 -93.5 33.5t-33.5 87.5zM727 0h-78l13 71
h-174l7 35l217 294h92l-50 -257h48l-14 -72h-48zM704 286l-102 -143h74z" />
    <glyph glyph-name="questiondown" unicode="&#xbf;" horiz-adv-x="369" 
d="M30 151l-79 26q27 63 63 87.5t96 24.5q51 0 83 -30t32 -81q0 -90 -112 -136l-95 -40q-31 -13 -44 -30t-13 -46q0 -25 16.5 -39.5t43.5 -14.5q75 0 112 91l94 -24q-25 -71 -81 -111t-132 -40q-74 0 -115 35t-41 95q0 96 103 142l117 53q25 11 38.5 23.5t15.5 36.5
q0 17 -10.5 27t-25.5 10q-21 0 -35.5 -14t-30.5 -45zM193 478q22 -21 22 -53t-22 -54q-21 -21 -54 -21t-55 21q-21 22 -21 54t21 53q22 22 55 22t54 -22z" />
    <glyph glyph-name="Agrave" unicode="&#xc0;" horiz-adv-x="594" 
d="M-61 0l377 700h107l107 -700h-114l-23 174h-248l-91 -174h-115zM381 278l-37 283l-145 -283h182zM243 904h143l41 -148h-82z" />
    <glyph glyph-name="Aacute" unicode="&#xc1;" horiz-adv-x="594" 
d="M-61 0l377 700h107l107 -700h-114l-23 174h-248l-91 -174h-115zM381 278l-37 283l-145 -283h182zM376 756h-83l98 148h143z" />
    <glyph glyph-name="Acircumflex" unicode="&#xc2;" horiz-adv-x="594" 
d="M-61 0l377 700h107l107 -700h-114l-23 174h-248l-91 -174h-115zM381 278l-37 283l-145 -283h182zM298 762h-111l193 176h30l125 -176h-100l-55 76z" />
    <glyph glyph-name="Atilde" unicode="&#xc3;" horiz-adv-x="594" 
d="M-61 0l377 700h107l107 -700h-114l-23 174h-248l-91 -174h-115zM381 278l-37 283l-145 -283h182zM238 773l-56 47q24 36 59 58.5t71 22.5q38 0 70 -21q34 -20 57 -20q29 0 69 40l56 -47q-24 -36 -59 -58.5t-71 -22.5q-37 0 -71 20q-31 21 -56 21q-29 0 -69 -40z" />
    <glyph glyph-name="Adieresis" unicode="&#xc4;" horiz-adv-x="594" 
d="M-61 0l377 700h107l107 -700h-114l-23 174h-248l-91 -174h-115zM381 278l-37 283l-145 -283h182zM249 802q-18 18 -18 45t18 45t45 18t45 -18t18 -45t-18 -45t-45 -18t-45 18zM434 802q-18 18 -18 45t18 45t45 18t45 -18t18 -45t-18 -45t-45 -18t-45 18z" />
    <glyph glyph-name="Aring" unicode="&#xc5;" horiz-adv-x="594" 
d="M-61 0l377 700h107l107 -700h-114l-23 174h-248l-91 -174h-115zM381 278l-37 283l-145 -283h182zM294 849q0 43 29 72.5t72 29.5q44 0 72.5 -29.5t28.5 -72.5q0 -42 -28.5 -70t-72.5 -28q-43 0 -72 28.5t-29 69.5zM359 850q0 -23 18 -32t36 0t18 32q2 24 -17 34t-38 0
t-17 -34z" />
    <glyph glyph-name="AE" unicode="&#xc6;" horiz-adv-x="851" 
d="M-61 0l439 700h482l-21 -104h-298l-33 -172h239l-20 -104h-239l-42 -216h308l-21 -104h-419l34 174h-179l-106 -174h-124zM424 561h-17l-173 -283h135z" />
    <glyph glyph-name="Ccedilla" unicode="&#xc7;" horiz-adv-x="675" 
d="M669 491l-109 -26q-11 72 -45.5 105.5t-100.5 33.5q-80 0 -143 -48q-62 -47 -94 -118t-32 -151q0 -95 43.5 -143t126.5 -48q64 0 109 32.5t87 105.5l99 -30q-49 -108 -126 -160t-189 -52q-114 0 -189 77q-75 76 -75 208q0 170 106 297q51 62 129 98t168 36
q104 0 165.5 -59t69.5 -158zM288 -60h81l-115 -191l-110 56z" />
    <glyph glyph-name="Egrave" unicode="&#xc8;" horiz-adv-x="567" 
d="M30 0l137 700h409l-21 -104h-298l-33 -172h239l-20 -104h-239l-42 -216h308l-21 -104h-419zM275 904h143l41 -148h-82z" />
    <glyph glyph-name="Eacute" unicode="&#xc9;" horiz-adv-x="567" 
d="M30 0l137 700h409l-21 -104h-298l-33 -172h239l-20 -104h-239l-42 -216h308l-21 -104h-419zM369 756h-83l98 148h143z" />
    <glyph glyph-name="Ecircumflex" unicode="&#xca;" horiz-adv-x="567" 
d="M30 0l137 700h409l-21 -104h-298l-33 -172h239l-20 -104h-239l-42 -216h308l-21 -104h-419zM307 762h-111l193 176h30l125 -176h-100l-55 76z" />
    <glyph glyph-name="Edieresis" unicode="&#xcb;" horiz-adv-x="567" 
d="M30 0l137 700h409l-21 -104h-298l-33 -172h239l-20 -104h-239l-42 -216h308l-21 -104h-419zM248 802q-18 18 -18 45t18 45t45 18t45 -18t18 -45t-18 -45t-45 -18t-45 18zM433 802q-18 18 -18 45t18 45t45 18t45 -18t18 -45t-18 -45t-45 -18t-45 18z" />
    <glyph glyph-name="Igrave" unicode="&#xcc;" horiz-adv-x="308" 
d="M141 0h-111l137 700h111zM108 904h143l41 -148h-82z" />
    <glyph glyph-name="Iacute" unicode="&#xcd;" horiz-adv-x="308" 
d="M141 0h-111l137 700h111zM233 756h-83l98 148h143z" />
    <glyph glyph-name="Icircumflex" unicode="&#xce;" horiz-adv-x="308" 
d="M141 0h-111l137 700h111zM163 762h-111l193 176h30l125 -176h-100l-55 76z" />
    <glyph glyph-name="Idieresis" unicode="&#xcf;" horiz-adv-x="308" 
d="M141 0h-111l137 700h111zM108 802q-18 18 -18 45t18 45t45 18t45 -18t18 -45t-18 -45t-45 -18t-45 18zM293 802q-18 18 -18 45t18 45t45 18t45 -18t18 -45t-18 -45t-45 -18t-45 18z" />
    <glyph glyph-name="Eth" unicode="&#xd0;" horiz-adv-x="668" 
d="M103 396l60 304h187q126 0 202 -76q77 -75 77 -221q0 -173 -111 -289q-111 -114 -284 -114h-208l59 304h-61l17 92h62zM319 596h-67l-39 -200h118l-17 -92h-119l-38 -200h69q130 0 209 81q80 83 80 208q0 203 -196 203z" />
    <glyph glyph-name="Ntilde" unicode="&#xd1;" horiz-adv-x="708" 
d="M469 196l98 504h111l-137 -700h-119l-183 502l-98 -502h-111l137 700h119zM294 773l-56 47q24 36 59 58.5t71 22.5q38 0 70 -21q34 -20 57 -20q29 0 69 40l56 -47q-24 -36 -59 -58.5t-71 -22.5q-37 0 -71 20q-32 21 -56 21q-29 0 -69 -40z" />
    <glyph glyph-name="Ograve" unicode="&#xd2;" horiz-adv-x="727" 
d="M429 708q109 0 184 -75q75 -73 75 -210q0 -216 -142 -340q-103 -91 -256 -91q-108 0 -184 74q-75 75 -75 211q0 216 142 340q103 91 256 91zM409 604q-112 0 -186 -89q-77 -95 -77 -228q0 -91 43.5 -141t120.5 -50q112 0 186 89q77 95 77 228q0 91 -43.5 141t-120.5 50z
M319 904h143l41 -148h-82z" />
    <glyph glyph-name="Oacute" unicode="&#xd3;" horiz-adv-x="727" 
d="M429 708q109 0 184 -75q75 -73 75 -210q0 -216 -142 -340q-103 -91 -256 -91q-108 0 -184 74q-75 75 -75 211q0 216 142 340q103 91 256 91zM409 604q-112 0 -186 -89q-77 -95 -77 -228q0 -91 43.5 -141t120.5 -50q112 0 186 89q77 95 77 228q0 91 -43.5 141t-120.5 50z
M450 756h-83l98 148h143z" />
    <glyph glyph-name="Ocircumflex" unicode="&#xd4;" horiz-adv-x="727" 
d="M429 708q109 0 184 -75q75 -73 75 -210q0 -216 -142 -340q-103 -91 -256 -91q-108 0 -184 74q-75 75 -75 211q0 216 142 340q103 91 256 91zM409 604q-112 0 -186 -89q-77 -95 -77 -228q0 -91 43.5 -141t120.5 -50q112 0 186 89q77 95 77 228q0 91 -43.5 141t-120.5 50z
M371 762h-111l193 176h30l125 -176h-100l-55 76z" />
    <glyph glyph-name="Otilde" unicode="&#xd5;" horiz-adv-x="727" 
d="M429 708q109 0 184 -75q75 -73 75 -210q0 -216 -142 -340q-103 -91 -256 -91q-108 0 -184 74q-75 75 -75 211q0 216 142 340q103 91 256 91zM409 604q-112 0 -186 -89q-77 -95 -77 -228q0 -91 43.5 -141t120.5 -50q112 0 186 89q77 95 77 228q0 91 -43.5 141t-120.5 50z
M308 773l-56 47q24 36 59 58.5t71 22.5q38 0 70 -21q34 -20 57 -20q29 0 69 40l56 -47q-24 -36 -59 -58.5t-71 -22.5q-37 0 -71 20q-32 21 -56 21q-29 0 -69 -40z" />
    <glyph glyph-name="Odieresis" unicode="&#xd6;" horiz-adv-x="727" 
d="M429 708q109 0 184 -75q75 -73 75 -210q0 -216 -142 -340q-103 -91 -256 -91q-108 0 -184 74q-75 75 -75 211q0 216 142 340q103 91 256 91zM409 604q-112 0 -186 -89q-77 -95 -77 -228q0 -91 43.5 -141t120.5 -50q112 0 186 89q77 95 77 228q0 91 -43.5 141t-120.5 50z
M313 802q-18 18 -18 45t18 45t45 18t45 -18t18 -45t-18 -45t-45 -18t-45 18zM498 802q-18 18 -18 45t18 45t45 18t45 -18t18 -45t-18 -45t-45 -18t-45 18z" />
    <glyph glyph-name="multiply" unicode="&#xd7;" horiz-adv-x="538" 
d="M334 316l153 -154l-65 -65l-153 153l-153 -153l-65 65l153 154l-153 154l65 65l153 -153l153 153l65 -65z" />
    <glyph glyph-name="Oslash" unicode="&#xd8;" horiz-adv-x="727" 
d="M429 708q93 0 164 -56l81 83l62 -59l-87 -90q39 -67 39 -163q0 -216 -142 -340q-103 -91 -256 -91q-97 0 -164 56l-81 -83l-62 59l87 90q-39 68 -39 163q0 216 142 340q103 91 256 91zM409 604q-112 0 -186 -89q-77 -95 -77 -228q0 -47 12 -83l355 366q-41 34 -104 34z
M573 413q0 47 -12 83l-356 -366q40 -34 105 -34q112 0 186 89q77 95 77 228z" />
    <glyph glyph-name="Ugrave" unicode="&#xd9;" horiz-adv-x="675" 
d="M73 262l85 438h111l-88 -453q-5 -32 -5 -47q0 -104 113 -104q66 0 108.5 38.5t56.5 112.5l88 453h111l-87 -448q-27 -140 -99 -200t-198 -60q-97 0 -151 51t-54 148q0 22 9 71zM291 904h143l41 -148h-82z" />
    <glyph glyph-name="Uacute" unicode="&#xda;" horiz-adv-x="675" 
d="M73 262l85 438h111l-88 -453q-5 -32 -5 -47q0 -104 113 -104q66 0 108.5 38.5t56.5 112.5l88 453h111l-87 -448q-27 -140 -99 -200t-198 -60q-97 0 -151 51t-54 148q0 22 9 71zM407 756h-83l98 148h143z" />
    <glyph glyph-name="Ucircumflex" unicode="&#xdb;" horiz-adv-x="675" 
d="M73 262l85 438h111l-88 -453q-5 -32 -5 -47q0 -104 113 -104q66 0 108.5 38.5t56.5 112.5l88 453h111l-87 -448q-27 -140 -99 -200t-198 -60q-97 0 -151 51t-54 148q0 22 9 71zM347 762h-111l193 176h30l125 -176h-100l-55 76z" />
    <glyph glyph-name="Udieresis" unicode="&#xdc;" horiz-adv-x="675" 
d="M73 262l85 438h111l-88 -453q-5 -32 -5 -47q0 -104 113 -104q66 0 108.5 38.5t56.5 112.5l88 453h111l-87 -448q-27 -140 -99 -200t-198 -60q-97 0 -151 51t-54 148q0 22 9 71zM288 802q-18 18 -18 45t18 45t45 18t45 -18t18 -45t-18 -45t-45 -18t-45 18zM473 802
q-18 18 -18 45t18 45t45 18t45 -18t18 -45t-18 -45t-45 -18t-45 18z" />
    <glyph glyph-name="Yacute" unicode="&#xdd;" horiz-adv-x="500" 
d="M177 300l-125 400h118l81 -291l195 291h123l-281 -400l-59 -300h-111zM314 756h-83l98 148h143z" />
    <glyph glyph-name="Thorn" unicode="&#xde;" horiz-adv-x="587" 
d="M141 0h-111l136 700h111l-27 -143h122q91 0 142.5 -45.5t51.5 -128.5q0 -115 -72 -177.5t-198 -62.5h-127zM229 453l-40 -206h135q55 0 91.5 34t36.5 87q0 85 -90 85h-133z" />
    <glyph glyph-name="germandbls" unicode="&#xdf;" horiz-adv-x="581" 
d="M101 337h-48l18 92h48l12 64q20 106 82 160.5t156 54.5q75 0 116 -41t41 -110q0 -120 -111 -164q43 -9 72.5 -52t29.5 -107q0 -118 -66 -180t-183 -62q-53 0 -85 8l18 92q43 -8 68 -8q145 0 145 144q0 51 -31 80t-84 29h-30l19 92h27q49 0 80.5 29.5t31.5 77.5
q0 39 -20 59.5t-56 20.5q-45 0 -74 -28t-39 -81l-99 -507h-103z" />
    <glyph glyph-name="agrave" unicode="&#xe0;" horiz-adv-x="596" 
d="M308 512q41 0 74 -17.5t48 -46.5l10 56h105l-97 -504h-105l11 58q-56 -66 -146 -66q-85 0 -135 59q-48 59 -48 145q0 138 75 227q77 89 208 89zM138 221q0 -65 27 -101t75 -36q75 0 119 62q44 64 44 148q0 126 -105 126q-74 0 -117 -61q-43 -59 -43 -138zM205 708h143
l41 -148h-82z" />
    <glyph glyph-name="aacute" unicode="&#xe1;" horiz-adv-x="596" 
d="M308 512q41 0 74 -17.5t48 -46.5l10 56h105l-97 -504h-105l11 58q-56 -66 -146 -66q-85 0 -135 59q-48 59 -48 145q0 138 75 227q77 89 208 89zM138 221q0 -65 27 -101t75 -36q75 0 119 62q44 64 44 148q0 126 -105 126q-74 0 -117 -61q-43 -59 -43 -138zM334 560h-83
l98 148h143z" />
    <glyph glyph-name="acircumflex" unicode="&#xe2;" horiz-adv-x="596" 
d="M308 512q41 0 74 -17.5t48 -46.5l10 56h105l-97 -504h-105l11 58q-56 -66 -146 -66q-85 0 -135 59q-48 59 -48 145q0 138 75 227q77 89 208 89zM138 221q0 -65 27 -101t75 -36q75 0 119 62q44 64 44 148q0 126 -105 126q-74 0 -117 -61q-43 -59 -43 -138zM279 566h-111
l193 176h30l125 -176h-100l-55 76z" />
    <glyph glyph-name="atilde" unicode="&#xe3;" horiz-adv-x="596" 
d="M308 512q41 0 74 -17.5t48 -46.5l10 56h105l-97 -504h-105l11 58q-56 -66 -146 -66q-85 0 -135 59q-48 59 -48 145q0 138 75 227q77 89 208 89zM138 221q0 -65 27 -101t75 -36q75 0 119 62q44 64 44 148q0 126 -105 126q-74 0 -117 -61q-43 -59 -43 -138zM207 577l-56 47
q24 36 59 58.5t71 22.5q39 0 70 -21q34 -20 57 -20q29 0 69 40l56 -47q-24 -36 -59 -58.5t-71 -22.5q-37 0 -71 20q-32 21 -56 21q-29 0 -69 -40z" />
    <glyph glyph-name="adieresis" unicode="&#xe4;" horiz-adv-x="596" 
d="M308 512q41 0 74 -17.5t48 -46.5l10 56h105l-97 -504h-105l11 58q-56 -66 -146 -66q-85 0 -135 59q-48 59 -48 145q0 138 75 227q77 89 208 89zM138 221q0 -65 27 -101t75 -36q75 0 119 62q44 64 44 148q0 126 -105 126q-74 0 -117 -61q-43 -59 -43 -138zM221 606
q-18 18 -18 45t18 45t45 18t45 -18t18 -45t-18 -45t-45 -18t-45 18zM406 606q-18 18 -18 45t18 45t45 18t45 -18t18 -45t-18 -45t-45 -18t-45 18z" />
    <glyph glyph-name="aring" unicode="&#xe5;" horiz-adv-x="596" 
d="M308 512q41 0 74 -17.5t48 -46.5l10 56h105l-97 -504h-105l11 58q-56 -66 -146 -66q-85 0 -135 59q-48 59 -48 145q0 138 75 227q77 89 208 89zM138 221q0 -65 27 -101t75 -36q75 0 119 62q44 64 44 148q0 126 -105 126q-74 0 -117 -61q-43 -59 -43 -138zM264 653
q0 43 29 72.5t72 29.5q44 0 72.5 -29.5t28.5 -72.5q0 -42 -28.5 -70t-72.5 -28q-43 0 -72 28.5t-29 69.5zM329 654q0 -23 18 -32t36 0t18 32q2 24 -17 34t-38 0t-17 -34z" />
    <glyph glyph-name="ae" unicode="&#xe6;" horiz-adv-x="892" 
d="M836 268l-9 -45h-363q-3 -17 -3 -33q0 -49 27.5 -77.5t80.5 -28.5q85 0 150 92l80 -42q-51 -76 -108.5 -109t-143.5 -33q-118 0 -167 97q-47 -55 -92 -76t-104 -21q-70 0 -114.5 38t-44.5 104q1 91 67 134.5t167 41.5h111l3 17q3 15 3 22q0 71 -86 71q-69 0 -102 -70
l-93 22q53 140 205 140q115 0 162 -68q80 68 186 68q91 0 142 -52.5t51 -140.5q0 -19 -5 -51zM353 223h-106q-50 0 -80 -20.5t-30 -60.5q0 -25 18 -41.5t48 -16.5q54 0 94.5 33t52.5 93zM630 420q-50 0 -89.5 -30t-57.5 -80h251q0 51 -26 80.5t-78 29.5z" />
    <glyph glyph-name="ccedilla" unicode="&#xe7;" horiz-adv-x="547" 
d="M376 176l86 -39q-50 -78 -106.5 -111.5t-137.5 -33.5q-89 0 -141 58t-52 157q0 81 34 148q35 71 104 114t156 43q77 0 125 -36.5t63 -103.5l-98 -39q-27 87 -108 87q-72 0 -119 -62q-46 -61 -46 -145q0 -62 26 -95.5t74 -33.5q81 0 140 92zM218 -60h81l-115 -191l-110 56
z" />
    <glyph glyph-name="egrave" unicode="&#xe8;" horiz-adv-x="561" 
d="M301 420q-50 0 -89.5 -30t-57.5 -80h251q0 51 -26 80.5t-78 29.5zM507 268l-9 -45h-363q-3 -17 -3 -33q0 -49 27.5 -77.5t80.5 -28.5q85 0 150 92l80 -42q-51 -76 -108.5 -109t-143.5 -33q-91 0 -142 60t-51 155q0 121 82 212q83 93 212 93q91 0 142 -52.5t51 -140.5
q0 -19 -5 -51zM205 708h143l41 -148h-82z" />
    <glyph glyph-name="eacute" unicode="&#xe9;" horiz-adv-x="561" 
d="M301 420q-50 0 -89.5 -30t-57.5 -80h251q0 51 -26 80.5t-78 29.5zM507 268l-9 -45h-363q-3 -17 -3 -33q0 -49 27.5 -77.5t80.5 -28.5q85 0 150 92l80 -42q-51 -76 -108.5 -109t-143.5 -33q-91 0 -142 60t-51 155q0 121 82 212q83 93 212 93q91 0 142 -52.5t51 -140.5
q0 -19 -5 -51zM346 560h-83l98 148h143z" />
    <glyph glyph-name="ecircumflex" unicode="&#xea;" horiz-adv-x="561" 
d="M301 420q-50 0 -89.5 -30t-57.5 -80h251q0 51 -26 80.5t-78 29.5zM507 268l-9 -45h-363q-3 -17 -3 -33q0 -49 27.5 -77.5t80.5 -28.5q85 0 150 92l80 -42q-51 -76 -108.5 -109t-143.5 -33q-91 0 -142 60t-51 155q0 121 82 212q83 93 212 93q91 0 142 -52.5t51 -140.5
q0 -19 -5 -51zM259 566h-111l193 176h30l125 -176h-100l-55 76z" />
    <glyph glyph-name="edieresis" unicode="&#xeb;" horiz-adv-x="561" 
d="M301 420q-50 0 -89.5 -30t-57.5 -80h251q0 51 -26 80.5t-78 29.5zM507 268l-9 -45h-363q-3 -17 -3 -33q0 -49 27.5 -77.5t80.5 -28.5q85 0 150 92l80 -42q-51 -76 -108.5 -109t-143.5 -33q-91 0 -142 60t-51 155q0 121 82 212q83 93 212 93q91 0 142 -52.5t51 -140.5
q0 -19 -5 -51zM208 606q-18 18 -18 45t18 45t45 18t45 -18t18 -45t-18 -45t-45 -18t-45 18zM393 606q-18 18 -18 45t18 45t45 18t45 -18t18 -45t-18 -45t-45 -18t-45 18z" />
    <glyph glyph-name="igrave" unicode="&#xec;" horiz-adv-x="287" 
d="M24 0l98 504h105l-98 -504h-105zM62 708h143l41 -148h-82z" />
    <glyph glyph-name="iacute" unicode="&#xed;" horiz-adv-x="287" 
d="M24 0l98 504h105l-98 -504h-105zM193 560h-83l98 148h143z" />
    <glyph glyph-name="icircumflex" unicode="&#xee;" horiz-adv-x="287" 
d="M24 0l98 504h105l-98 -504h-105zM118 566h-111l193 176h30l125 -176h-100l-55 76z" />
    <glyph glyph-name="idieresis" unicode="&#xef;" horiz-adv-x="287" 
d="M24 0l98 504h105l-98 -504h-105zM60 606q-18 18 -18 45t18 45t45 18t45 -18t18 -45t-18 -45t-45 -18t-45 18zM245 606q-18 18 -18 45t18 45t45 18t45 -18t18 -45t-18 -45t-45 -18t-45 18z" />
    <glyph glyph-name="eth" unicode="&#xf0;" horiz-adv-x="585" 
d="M336 590l-45 -52l-59 48l43 48q-28 17 -75 40l66 76q46 -22 74 -41l45 52l59 -48l-44 -49q125 -107 125 -304q0 -75 -16.5 -138.5t-50.5 -116.5t-93.5 -83t-139.5 -30q-91 0 -146 61q-54 61 -54 149q0 134 81 222q82 88 214 88q57 0 87 -27q-17 60 -71 105zM302 420
q-74 0 -121 -62q-45 -62 -45 -140q0 -62 26 -98t75 -36q77 0 123 60q46 61 46 144q0 132 -104 132z" />
    <glyph glyph-name="ntilde" unicode="&#xf1;" horiz-adv-x="579" 
d="M24 0l98 504h105l-15 -80q67 88 172 88q57 0 90.5 -30.5t33.5 -81.5q0 -22 -6 -51l-68 -349h-105l63 328q4 17 4 32q0 60 -58 60q-50 0 -100 -54q-48 -52 -65 -137l-44 -229h-105zM214 577l-56 47q24 36 59 58.5t71 22.5q38 0 70 -21q34 -20 57 -20q29 0 69 40l56 -47
q-24 -36 -59 -58.5t-71 -22.5q-37 0 -71 20q-31 21 -56 21q-29 0 -69 -40z" />
    <glyph glyph-name="ograve" unicode="&#xf2;" horiz-adv-x="588" 
d="M25 209q0 139 79 218q84 85 216 85q94 0 151 -62q57 -61 57 -155q0 -139 -79 -218q-84 -85 -216 -85q-94 0 -151 62t-57 155zM306 420q-74 0 -123 -63q-46 -58 -46 -138q0 -63 29.5 -99t80.5 -36q73 0 123 63q46 58 46 138q0 63 -29.5 99t-80.5 36zM199 708h143l41 -148
h-82z" />
    <glyph glyph-name="oacute" unicode="&#xf3;" horiz-adv-x="588" 
d="M25 209q0 139 79 218q84 85 216 85q94 0 151 -62q57 -61 57 -155q0 -139 -79 -218q-84 -85 -216 -85q-94 0 -151 62t-57 155zM306 420q-74 0 -123 -63q-46 -58 -46 -138q0 -63 29.5 -99t80.5 -36q73 0 123 63q46 58 46 138q0 63 -29.5 99t-80.5 36zM319 560h-83l98 148
h143z" />
    <glyph glyph-name="ocircumflex" unicode="&#xf4;" horiz-adv-x="588" 
d="M25 209q0 139 79 218q84 85 216 85q94 0 151 -62q57 -61 57 -155q0 -139 -79 -218q-84 -85 -216 -85q-94 0 -151 62t-57 155zM306 420q-74 0 -123 -63q-46 -58 -46 -138q0 -63 29.5 -99t80.5 -36q73 0 123 63q46 58 46 138q0 63 -29.5 99t-80.5 36zM262 566h-111l193 176
h30l125 -176h-100l-55 76z" />
    <glyph glyph-name="otilde" unicode="&#xf5;" horiz-adv-x="588" 
d="M25 209q0 139 79 218q84 85 216 85q94 0 151 -62q57 -61 57 -155q0 -139 -79 -218q-84 -85 -216 -85q-94 0 -151 62t-57 155zM306 420q-74 0 -123 -63q-46 -58 -46 -138q0 -63 29.5 -99t80.5 -36q73 0 123 63q46 58 46 138q0 63 -29.5 99t-80.5 36zM198 577l-56 47
q24 36 59 58.5t71 22.5q38 0 70 -21q34 -20 57 -20q29 0 69 40l56 -47q-24 -36 -59 -58.5t-71 -22.5q-37 0 -71 20q-32 21 -56 21q-29 0 -69 -40z" />
    <glyph glyph-name="odieresis" unicode="&#xf6;" horiz-adv-x="588" 
d="M25 209q0 139 79 218q84 85 216 85q94 0 151 -62q57 -61 57 -155q0 -139 -79 -218q-84 -85 -216 -85q-94 0 -151 62t-57 155zM306 420q-74 0 -123 -63q-46 -58 -46 -138q0 -63 29.5 -99t80.5 -36q73 0 123 63q46 58 46 138q0 63 -29.5 99t-80.5 36zM206 606
q-18 18 -18 45t18 45t45 18t45 -18t18 -45t-18 -45t-45 -18t-45 18zM391 606q-18 18 -18 45t18 45t45 18t45 -18t18 -45t-18 -45t-45 -18t-45 18z" />
    <glyph glyph-name="divide" unicode="&#xf7;" horiz-adv-x="576" 
d="M237 180q22 22 53 22t52 -22q22 -21 22 -52t-22 -53q-21 -21 -52 -21t-53 21q-21 22 -21 53t21 52zM237 552q22 22 53 22t52 -22q22 -21 22 -52t-22 -53q-21 -21 -52 -21t-53 21q-21 22 -21 53t21 52zM513 271h-445v92h445v-92z" />
    <glyph glyph-name="oslash" unicode="&#xf8;" horiz-adv-x="588" 
d="M25 209q0 139 79 218q84 85 216 85q68 0 121 -36l77 78l59 -59l-80 -80q31 -52 31 -120q0 -139 -79 -218q-84 -85 -216 -85q-69 0 -121 35l-77 -77l-59 59l79 80q-30 51 -30 120zM416 285q0 18 -5 43l-225 -226q26 -18 61 -18q73 0 123 63q46 58 46 138zM306 420
q-74 0 -123 -63q-46 -58 -46 -138q0 -29 4 -44l226 227q-26 18 -61 18z" />
    <glyph glyph-name="ugrave" unicode="&#xf9;" horiz-adv-x="582" 
d="M531 504l-98 -504h-105l15 80q-67 -88 -172 -88q-57 0 -90.5 30.5t-33.5 81.5q0 22 6 51l68 349h105l-63 -328q-4 -17 -4 -32q0 -60 58 -60q51 0 100 54q48 52 65 137l44 229h105zM210 708h143l41 -148h-82z" />
    <glyph glyph-name="uacute" unicode="&#xfa;" horiz-adv-x="582" 
d="M531 504l-98 -504h-105l15 80q-67 -88 -172 -88q-57 0 -90.5 30.5t-33.5 81.5q0 22 6 51l68 349h105l-63 -328q-4 -17 -4 -32q0 -60 58 -60q51 0 100 54q48 52 65 137l44 229h105zM329 560h-83l98 148h143z" />
    <glyph glyph-name="ucircumflex" unicode="&#xfb;" horiz-adv-x="582" 
d="M531 504l-98 -504h-105l15 80q-67 -88 -172 -88q-57 0 -90.5 30.5t-33.5 81.5q0 22 6 51l68 349h105l-63 -328q-4 -17 -4 -32q0 -60 58 -60q51 0 100 54q48 52 65 137l44 229h105zM267 566h-111l193 176h30l125 -176h-100l-55 76z" />
    <glyph glyph-name="udieresis" unicode="&#xfc;" horiz-adv-x="582" 
d="M531 504l-98 -504h-105l15 80q-67 -88 -172 -88q-57 0 -90.5 30.5t-33.5 81.5q0 22 6 51l68 349h105l-63 -328q-4 -17 -4 -32q0 -60 58 -60q51 0 100 54q48 52 65 137l44 229h105zM208 606q-18 18 -18 45t18 45t45 18t45 -18t18 -45t-18 -45t-45 -18t-45 18zM393 606
q-18 18 -18 45t18 45t45 18t45 -18t18 -45t-18 -45t-45 -18t-45 18z" />
    <glyph glyph-name="yacute" unicode="&#xfd;" horiz-adv-x="479" 
d="M117 29l-83 475h111l53 -339l176 339h115l-391 -708h-105zM264 560h-83l98 148h143z" />
    <glyph glyph-name="thorn" unicode="&#xfe;" horiz-adv-x="605" 
d="M545 298q0 -130 -72 -218t-202 -88q-41 0 -79 19.5t-51 46.5l-51 -262h-105l177 912h105l-50 -260q57 64 144 64q83 0 133.5 -57t50.5 -157zM266 84q75 0 120 63q46 64 46 144q0 63 -26.5 96t-74.5 33q-71 0 -118 -63q-46 -61 -46 -149q0 -54 28.5 -89t70.5 -35z" />
    <glyph glyph-name="ydieresis" unicode="&#xff;" horiz-adv-x="479" 
d="M117 29l-83 475h111l53 -339l176 339h115l-391 -708h-105zM120 606q-18 18 -18 45t18 45t45 18t45 -18t18 -45t-18 -45t-45 -18t-45 18zM305 606q-18 18 -18 45t18 45t45 18t45 -18t18 -45t-18 -45t-45 -18t-45 18z" />
    <glyph glyph-name="dotlessi" unicode="&#x131;" horiz-adv-x="287" 
d="M24 0l98 504h105l-98 -504h-105z" />
    <glyph glyph-name="Lslash" unicode="&#x141;" horiz-adv-x="518" 
d="M106 356l67 344h111l-55 -282l118 60l30 -81l-169 -85l-40 -208h296l-21 -104h-406l48 250l-66 -33l-30 80z" />
    <glyph glyph-name="lslash" unicode="&#x142;" horiz-adv-x="339" 
d="M128 386l62 322h105l-51 -265l66 33l27 -81l-113 -56l-66 -339h-105l55 282l-66 -33l-27 81z" />
    <glyph glyph-name="OE" unicode="&#x152;" horiz-adv-x="1041" 
d="M625 620l16 80h409l-21 -104h-298l-33 -172h239l-20 -104h-239l-42 -216h308l-21 -104h-419l11 58q-89 -66 -225 -66q-108 0 -184 74q-75 75 -75 211q0 216 142 340q103 91 256 91q124 0 196 -88zM409 604q-112 0 -186 -89q-77 -95 -77 -228q0 -91 43.5 -141t120.5 -50
q112 0 186 89q77 95 77 228q0 91 -43.5 141t-120.5 50z" />
    <glyph glyph-name="oe" unicode="&#x153;" horiz-adv-x="950" 
d="M894 268l-9 -45h-363q-3 -17 -3 -33q0 -49 27.5 -77.5t80.5 -28.5q85 0 150 92l80 -42q-51 -76 -108.5 -109t-143.5 -33q-108 0 -159 82q-82 -82 -213 -82q-94 0 -151 62t-57 155q0 139 79 218q84 85 216 85q116 0 174 -93q86 93 212 93q91 0 142 -52.5t51 -140.5
q0 -19 -5 -51zM306 420q-74 0 -123 -63q-46 -58 -46 -138q0 -63 29.5 -99t80.5 -36q73 0 123 63q46 58 46 138q0 63 -29.5 99t-80.5 36zM688 420q-50 0 -89.5 -30t-57.5 -80h251q0 51 -26 80.5t-78 29.5z" />
    <glyph glyph-name="Scaron" unicode="&#x160;" horiz-adv-x="533" 
d="M501 585l-97 -51q-26 74 -91 74q-38 0 -62.5 -24t-24.5 -64q0 -42 36 -71q32 -23 80 -46q68 -32 97.5 -72t29.5 -110q0 -111 -69 -169q-70 -60 -185 -60q-82 0 -140 55q-57 56 -59 140l95 53q5 -67 38.5 -105.5t87.5 -38.5q53 0 85.5 29.5t32.5 81.5q0 40 -24.5 66.5
t-80.5 54.5q-137 68 -137 184q0 92 59.5 144t157.5 52q62 0 108 -37q47 -38 63 -86zM434 938h111l-193 -176h-30l-125 176h100l55 -76z" />
    <glyph glyph-name="scaron" unicode="&#x161;" horiz-adv-x="458" 
d="M263 512q50 0 89.5 -22.5t57.5 -61.5l-77 -58q-33 50 -81 50q-27 0 -43 -13.5t-16 -38.5q0 -21 16 -34.5t59 -33.5q50 -23 78 -50q37 -31 37 -90q0 -82 -49 -125t-135 -43q-81 0 -130 43q-51 44 -58 101l89 40q9 -42 35.5 -67t66.5 -25q37 0 57.5 17t20.5 49
q0 23 -21.5 41t-67.5 38q-101 44 -101 131q0 72 46 112t127 40zM378 742h111l-193 -176h-30l-125 176h100l55 -76z" />
    <glyph glyph-name="Ydieresis" unicode="&#x178;" horiz-adv-x="500" 
d="M177 300l-125 400h118l81 -291l195 291h123l-281 -400l-59 -300h-111zM191 802q-18 18 -18 45t18 45t45 18t45 -18t18 -45t-18 -45t-45 -18t-45 18zM376 802q-18 18 -18 45t18 45t45 18t45 -18t18 -45t-18 -45t-45 -18t-45 18z" />
    <glyph glyph-name="Zcaron" unicode="&#x17d;" horiz-adv-x="567" 
d="M401 596h-300l21 104h452l-11 -54l-412 -542h324l-21 -104h-479l11 54zM445 938h111l-193 -176h-30l-125 176h100l55 -76z" />
    <glyph glyph-name="zcaron" unicode="&#x17e;" horiz-adv-x="462" 
d="M274 412h-202l17 92h353l-8 -42l-275 -370h221l-17 -92h-374l7 42zM367 742h111l-193 -176h-30l-125 176h100l55 -76z" />
    <glyph glyph-name="florin" unicode="&#x192;" horiz-adv-x="437" 
d="M199 412h-85l18 92h85l5 26q34 178 203 178q55 0 80 -18l-38 -88q-25 14 -57 14q-70 0 -83 -79l-6 -33h111l-18 -92h-111l-88 -446q-34 -178 -203 -178q-54 0 -80 18l38 88q25 -14 57 -14q67 0 83 79z" />
    <glyph glyph-name="circumflex" unicode="&#x2c6;" horiz-adv-x="404" 
d="M176 566h-111l193 176h30l125 -176h-100l-55 76z" />
    <glyph glyph-name="caron" unicode="&#x2c7;" horiz-adv-x="380" 
d="M318 742h111l-193 -176h-30l-125 176h100l55 -76z" />
    <glyph glyph-name="breve" unicode="&#x2d8;" horiz-adv-x="247" 
d="M217 700h81q-9 -49 -46 -79t-90 -30q-44 0 -70 24.5t-26 64.5q0 6 2 20h81q-1 -3 -1 -8q0 -27 28 -27q33 0 41 35z" />
    <glyph glyph-name="dotaccent" unicode="&#x2d9;" horiz-adv-x="287" 
d="M151 595q-20 21 -20 51t21 51q21 22 51 22t51 -22q21 -21 21 -51t-21 -51q-20 -20 -51 -20t-52 20z" />
    <glyph glyph-name="ring" unicode="&#x2da;" horiz-adv-x="206" 
d="M55 653q0 43 29 72.5t72 29.5q44 0 72.5 -29.5t28.5 -72.5q0 -42 -28.5 -70t-72.5 -28q-43 0 -72 28.5t-29 69.5zM120 654q0 -23 18 -32t36 0t18 32q2 24 -17 34t-38 0t-17 -34z" />
    <glyph glyph-name="ogonek" unicode="&#x2db;" horiz-adv-x="230" 
d="M45 -60h69q-72 -50 -72 -84q0 -23 23 -23q14 0 24.5 8t33.5 34l42 -41q-31 -40 -60 -57t-67 -17q-34 0 -55 19.5t-21 52.5q0 60 83 108z" />
    <glyph glyph-name="tilde" unicode="&#x2dc;" horiz-adv-x="408" 
d="M120 577l-56 47q24 36 59 58.5t71 22.5q38 0 70 -21q34 -20 57 -20q29 0 69 40l56 -47q-24 -36 -59 -58.5t-71 -22.5q-37 0 -71 20q-32 21 -56 21q-29 0 -69 -40z" />
    <glyph glyph-name="hungarumlaut" unicode="&#x2dd;" horiz-adv-x="431" 
d="M129 560h-83l98 148h143zM329 560h-83l98 148h143z" />
    <glyph glyph-name="Omega" unicode="&#x3a9;" horiz-adv-x="688" 
d="M303 0h-233v94h128q-23 41 -36 68q-20 46 -31 77q-35 107 -35 201q0 114 68 191q69 77 180 77t179 -77q69 -77 69 -191q0 -159 -89 -323l-13 -23h128v-94h-233v36q23 50 35 82q16 40 31 90q36 116 36 232q0 174 -143 174t-143 -174q0 -94 25 -193q24 -96 52 -156l25 -55
v-36z" />
    <glyph glyph-name="pi" unicode="&#x3c0;" horiz-adv-x="562" 
d="M121 410h-85v94h501v-94h-85v-410h-104v410h-123v-410h-104v410z" />
    <glyph glyph-name="endash" unicode="&#x2013;" horiz-adv-x="560" 
d="M483 271h-433l17 92h433z" />
    <glyph glyph-name="emdash" unicode="&#x2014;" horiz-adv-x="747" 
d="M670 271h-620l17 92h620z" />
    <glyph glyph-name="quoteleft" unicode="&#x2018;" horiz-adv-x="285" 
d="M79 708h142l31 -222h-77z" />
    <glyph glyph-name="quoteright" unicode="&#x2019;" horiz-adv-x="252" 
d="M127 486h-77l116 222h143z" />
    <glyph glyph-name="quotesinglbase" unicode="&#x201a;" horiz-adv-x="340" 
d="M72 -14h-77l116 222h143z" />
    <glyph glyph-name="quotedblleft" unicode="&#x201c;" horiz-adv-x="485" 
d="M79 708h142l31 -222h-77zM279 708h142l31 -222h-77z" />
    <glyph glyph-name="quotedblright" unicode="&#x201d;" horiz-adv-x="452" 
d="M127 486h-77l116 222h143zM327 486h-77l116 222h143z" />
    <glyph glyph-name="quotedblbase" unicode="&#x201e;" horiz-adv-x="540" 
d="M72 -14h-77l116 222h143zM272 -14h-77l116 222h143z" />
    <glyph glyph-name="dagger" unicode="&#x2020;" horiz-adv-x="461" 
d="M191 412h-126l16 92h127l48 246h101l-48 -246h127l-17 -92h-127l-90 -462h-101z" />
    <glyph glyph-name="daggerdbl" unicode="&#x2021;" horiz-adv-x="461" 
d="M191 412h-126l16 92h127l48 246h101l-48 -246h127l-17 -92h-127l-25 -124h127l-17 -92h-127l-48 -246h-101l48 246h-126l17 92h126z" />
    <glyph glyph-name="bullet" unicode="&#x2022;" horiz-adv-x="369" 
d="M100 255q-30 31 -30 75t30 74q31 31 75 31t74 -31q31 -30 31 -74t-31 -75q-30 -30 -74 -30q-43 0 -75 30z" />
    <glyph glyph-name="ellipsis" unicode="&#x2026;" horiz-adv-x="827" 
d="M44 121q22 22 53 22t52 -22q22 -21 22 -52t-22 -53q-21 -21 -52 -21t-53 21q-21 22 -21 53t21 52zM312 121q22 22 53 22t52 -22q22 -21 22 -52t-22 -53q-21 -21 -52 -21t-53 21q-21 22 -21 53t21 52zM580 121q22 22 53 22t52 -22q22 -21 22 -52t-22 -53q-21 -21 -52 -21
t-53 21q-21 22 -21 53t21 52z" />
    <glyph glyph-name="perthousand" unicode="&#x2030;" horiz-adv-x="1268" 
d="M62 524q0 82 55 134q53 50 138 50q61 0 98 -40q39 -39 39 -96q0 -78 -55 -134q-47 -50 -138 -50q-60 0 -99 39q-38 41 -38 97zM241 625q-39 0 -64 -25q-26 -26 -26 -66q0 -28 16.5 -45.5t45.5 -17.5q39 0 64 25q26 26 26 66q0 28 -16.5 45.5t-45.5 17.5zM467 128
q0 82 55 134q53 50 138 50q61 0 98 -40q39 -39 39 -96q0 -82 -55 -134q-53 -50 -138 -50q-60 0 -99 39q-38 41 -38 97zM646 229q-39 0 -64 -25q-26 -26 -26 -66q0 -28 16.5 -45.5t45.5 -17.5q39 0 64 25q26 26 26 66q0 28 -16.5 45.5t-45.5 17.5zM857 128q0 82 55 134
q53 50 138 50q61 0 98 -40q39 -39 39 -96q0 -82 -55 -134q-53 -50 -138 -50q-60 0 -99 39q-38 41 -38 97zM1036 229q-39 0 -64 -25q-26 -26 -26 -66q0 -28 16.5 -45.5t45.5 -17.5q39 0 64 25q26 26 26 66q0 28 -16.5 45.5t-45.5 17.5zM60 15l678 720l51 -49l-678 -720z" />
    <glyph glyph-name="guilsinglleft" unicode="&#x2039;" horiz-adv-x="399" 
d="M284 68l-252 208l15 74l332 202l-24 -121l-210 -124l160 -132z" />
    <glyph glyph-name="guilsinglright" unicode="&#x203a;" horiz-adv-x="399" 
d="M114 552l252 -208l-15 -74l-332 -202l24 121l210 124l-160 132z" />
    <glyph glyph-name="fraction" unicode="&#x2044;" horiz-adv-x="741" 
d="M6 15l678 720l51 -49l-678 -720z" />
    <glyph glyph-name="zerosuperior" unicode="&#x2070;" horiz-adv-x="378" 
d="M244 704q58 0 93 -41.5t35 -113.5q0 -101 -54 -177q-52 -76 -151 -76q-58 0 -93 41.5t-35 113.5q0 99 53 176q54 77 152 77zM230 632q-53 0 -82 -56q-28 -55 -28 -118q0 -90 61 -90q53 0 82 56q28 55 28 118q0 90 -61 90z" />
    <glyph glyph-name="foursuperior" unicode="&#x2074;" horiz-adv-x="395" 
d="M274 300h-78l13 71h-174l7 35l217 294h92l-50 -257h48l-14 -72h-48zM251 586l-102 -143h74z" />
    <glyph glyph-name="fivesuperior" unicode="&#x2075;" horiz-adv-x="370" 
d="M49 410l73 8q0 -23 13.5 -36.5t36.5 -13.5q36 0 56 20t20 57q0 25 -13 40t-37 15q-35 0 -70 -29l-58 13l64 216h217l-14 -72h-152l-28 -82q28 19 70 19q47 0 74.5 -29.5t27.5 -77.5q0 -75 -43 -118.5t-117 -43.5q-53 0 -86.5 32.5t-33.5 81.5z" />
    <glyph glyph-name="sixsuperior" unicode="&#x2076;" horiz-adv-x="358" 
d="M234 559q45 0 72 -29.5t27 -79.5q0 -70 -43 -112t-118 -42q-55 0 -87.5 32t-32.5 82t39 102l147 192h89l-118 -149q11 4 25 4zM204 487q-30 0 -50 -19.5t-20 -49.5q0 -23 13 -36.5t34 -13.5q31 0 51 20t20 51q0 22 -13 35t-35 13z" />
    <glyph glyph-name="sevensuperior" unicode="&#x2077;" horiz-adv-x="321" 
d="M95 700h255l-5 -30l-224 -370h-82l198 328h-156z" />
    <glyph glyph-name="eightsuperior" unicode="&#x2078;" horiz-adv-x="313" 
d="M230 704q47 0 74 -25t27 -69q0 -59 -62 -94q41 -26 41 -81q0 -63 -43 -101t-110 -38q-55 0 -85.5 28t-30.5 76q0 41 22 72t56 44q-32 20 -32 67q0 60 50 95q38 26 93 26zM186 478q-29 0 -47.5 -18.5t-18.5 -45.5q0 -21 12.5 -33.5t34.5 -12.5q28 0 46 18t18 45
q0 47 -45 47zM219 646q-24 0 -42 -16.5t-18 -40.5q0 -43 40 -43q26 0 43 17t17 42q0 41 -40 41z" />
    <glyph glyph-name="ninesuperior" unicode="&#x2079;" horiz-adv-x="358" 
d="M161 441q-45 0 -72 29.5t-27 79.5q0 70 43 112t118 42q55 0 87.5 -32t32.5 -82t-39 -102l-147 -192h-89l118 149q-11 -4 -25 -4zM191 513q30 0 50 19.5t20 49.5q0 23 -13 36.5t-34 13.5q-32 0 -51.5 -20t-19.5 -51q0 -22 13 -35t35 -13z" />
    <glyph glyph-name="Euro" unicode="&#x20ac;" horiz-adv-x="615" 
d="M124 380h-89l63 92h52q44 115 125 175.5t184 60.5q70 0 118 -32.5t67 -88.5l-98 -50q-29 77 -106 77q-128 0 -183 -142h236l-64 -92h-200l-11 -60h246l-64 -92h-190q0 -68 34 -105t95 -37q39 0 67.5 17.5t62.5 58.5l78 -50q-81 -120 -227 -120q-100 0 -158 64
q-59 65 -59 172h-97l64 92h43z" />
    <glyph glyph-name="trademark" unicode="&#x2122;" horiz-adv-x="831" 
d="M182 624h-105l14 76h295l-14 -76h-105l-63 -324h-85zM456 300h-85l77 400h86l49 -244l148 244h91l-77 -400h-85l44 226l-112 -189h-54l-38 189z" />
    <glyph glyph-name="partialdiff" unicode="&#x2202;" horiz-adv-x="614" 
d="M46 213q0 128 79 213q80 86 214 86q63 0 98 -30q-20 134 -132 134q-35 0 -64 -21.5t-43 -59.5l-103 31q19 62 78 102q58 40 131 40q130 0 187.5 -83t57.5 -263q0 -150 -66 -256q-72 -114 -235 -114q-94 0 -148 61t-54 160zM327 420q-75 0 -123 -62q-47 -62 -47 -140
q0 -63 26.5 -98.5t78.5 -35.5q76 0 122 63q47 65 47 144q0 129 -104 129z" />
    <glyph glyph-name="Delta" unicode="&#x2206;" horiz-adv-x="660" 
d="M576 0h-578v26l244 674h90l244 -674v-26zM449 94l-162 466l-162 -466h324z" />
    <glyph glyph-name="product" unicode="&#x220f;" horiz-adv-x="531" 
d="M176 0h-104v700h387v-700h-104v606h-179v-606z" />
    <glyph glyph-name="summation" unicode="&#x2211;" horiz-adv-x="552" 
d="M482 94v-94h-430v45l192 305l-192 305v45h430v-94h-288l154 -244v-24l-154 -244h288z" />
    <glyph glyph-name="minus" unicode="&#x2212;" horiz-adv-x="578" 
d="M489 271h-445l17 92h445z" />
    <glyph glyph-name="radical" unicode="&#x221a;" horiz-adv-x="546" 
d="M284 148l162 560h98l-217 -708h-83l-98 295h-110v94h168z" />
    <glyph glyph-name="infinity" unicode="&#x221e;" horiz-adv-x="877" 
d="M640 168q-57 0 -110.5 26t-87.5 73q-34 -47 -87.5 -73t-110.5 -26q-88 0 -138.5 52t-50.5 139t50.5 139t138.5 52q57 0 110.5 -26t87.5 -73q34 47 87.5 73t110.5 26q88 0 138.5 -52t50.5 -139t-50.5 -139t-138.5 -52zM259 260q35 0 71 25t61 74q-25 49 -61 74t-71 25
q-46 0 -73.5 -26t-27.5 -73t27.5 -73t73.5 -26zM625 260q46 0 73.5 26t27.5 73t-27.5 73t-73.5 26q-35 0 -70.5 -25t-60.5 -74q25 -49 60.5 -74t70.5 -25z" />
    <glyph glyph-name="integral" unicode="&#x222b;" horiz-adv-x="437" 
d="M110 -41l112 571q34 178 203 178q55 0 80 -18l-38 -88q-25 14 -57 14q-67 0 -83 -79l-112 -571q-34 -178 -203 -178q-54 0 -80 18l38 88q25 -14 57 -14q67 0 83 79z" />
    <glyph glyph-name="approxequal" unicode="&#x2248;" horiz-adv-x="573" 
d="M77 357l-46 60q66 101 162 101q43 0 100 -26t88 -26q49 0 99 47l46 -60q-66 -101 -162 -101q-43 0 -100 26t-88 26q-49 0 -99 -47zM76 157l-46 60q66 101 162 101q43 0 100 -26t88 -26q49 0 99 47l46 -60q-66 -101 -162 -101q-43 0 -100 26t-88 26q-49 0 -99 -47z" />
    <glyph glyph-name="notequal" unicode="&#x2260;" horiz-adv-x="605" 
d="M271 347h-176v92h228l61 107l80 -46l-36 -61h82v-92h-134l-42 -74h176v-92h-228l-61 -107l-80 46l36 61h-82v92h134z" />
    <glyph glyph-name="lessequal" unicode="&#x2264;" horiz-adv-x="573" 
d="M454 158l-364 192v104l364 192v-111l-253 -133l253 -133v-111zM501 0h-457v92h457v-92z" />
    <glyph glyph-name="greaterequal" unicode="&#x2265;" horiz-adv-x="573" 
d="M98 646l364 -192v-104l-364 -192v111l253 133l-253 133v111zM51 92h457v-92h-457v92z" />
    <glyph glyph-name="lozenge" unicode="&#x25ca;" horiz-adv-x="524" 
d="M313 0h-102l-179 350l179 350h102l179 -350zM135 350l127 -258l127 258l-127 257z" />
    <glyph glyph-name="apple" unicode="&#xf8ff;" horiz-adv-x="780" 
d="M686 617v-595q0 -9 -6.5 -15.5t-15.5 -6.5q-4 0 -7 1l-267 77l-267 -77q-3 -1 -7 -1q-9 0 -15.5 6.5t-6.5 15.5v595q0 18 16 22l270 78q10 4 20 0l270 -78q16 -4 16 -22zM368 366v303l-230 -67q6 -93 71 -161q66 -67 159 -75zM642 602l-230 67v-303q94 8 158 75
q66 68 72 161zM137 463v-412l231 67v204q-73 6 -134 43.5t-97 97.5zM412 118l231 -67v412q-37 -60 -98 -97.5t-133 -43.5v-204z" />
    <glyph glyph-name="No" horiz-adv-x="1307" 
d="M469 196l98 504h111l-137 -700h-119l-183 502l-98 -502h-111l137 700h119zM744 405q0 139 79 218q84 85 216 85q94 0 151 -62t57 -155q0 -139 -79 -218q-84 -85 -216 -85q-94 0 -151 62t-57 155zM1025 616q-73 0 -123 -63q-46 -58 -46 -138q0 -63 29.5 -99t80.5 -36
q74 0 123 63q46 58 46 138q0 63 -29.5 99t-80.5 36zM1132 0h-445l17 92h445z" />
    <glyph glyph-name="zero.tn" 
d="M361 708q94 0 145 -65.5t51 -187.5q0 -136 -47 -247q-39 -98 -110 -157t-175 -59q-94 0 -145 65.5t-51 187.5q0 131 46 247q90 216 286 216zM342 612q-52 0 -93.5 -35t-66.5 -93q-46 -111 -46 -226q0 -88 26 -129t82 -41q52 0 93.5 35t65.5 93q47 110 47 226
q0 88 -26 129t-82 41z" />
    <glyph glyph-name="one.tn" 
d="M171 584l217 116h44l-137 -700h-107l107 550l-146 -78z" />
    <glyph glyph-name="two.tn" 
d="M440 0h-429l8 44l324 340q43 45 59 72q17 29 17 72q0 39 -20.5 61.5t-57.5 22.5q-81 0 -113 -108l-104 19q22 86 81.5 135.5t147.5 49.5q83 0 129.5 -44.5t46.5 -122.5q0 -107 -88 -199l-232 -246h249z" />
    <glyph glyph-name="three.tn" 
d="M40 193l105 20q5 -57 34.5 -91t77.5 -34q64 0 98.5 41t34.5 111q0 56 -29.5 87.5t-77.5 31.5q-34 0 -63 -13l-47 59l180 199h-220l18 96h393l-7 -36l-215 -232q13 3 28 3q67 0 107 -48.5t40 -134.5q0 -112 -50 -176q-67 -84 -203 -84q-90 0 -145 58q-55 59 -59 143z" />
    <glyph glyph-name="four.tn" 
d="M375 0h-107l28 140h-297l9 48l385 512h119l-91 -464h79l-18 -96h-79zM371 529l-214 -293h157z" />
    <glyph glyph-name="five.tn" 
d="M42 184l102 18v-11q0 -48 28 -75.5t76 -27.5q61 0 100.5 47.5t39.5 124.5q0 52 -26 80t-75 28q-81 0 -148 -72l-66 14l110 390h355l-18 -96h-262l-55 -175q44 35 108 35q89 0 136.5 -49t47.5 -147q0 -124 -72 -200q-70 -76 -194 -76q-82 0 -135 50t-53 124q0 14 1 18z
" />
    <glyph glyph-name="six.tn" 
d="M313 448q84 0 134 -52.5t50 -141.5q0 -119 -70 -190q-71 -72 -186 -72q-91 0 -146 52t-55 137q0 88 65 174l269 353h125l-205 -262q10 2 19 2zM294 352q-63 0 -105 -46q-42 -45 -42 -110q0 -49 26.5 -78.5t69.5 -29.5q65 0 105 43q42 43 42 110q0 55 -26 83t-70 28z" />
    <glyph glyph-name="seven.tn" 
d="M173 700h410l-10 -48l-393 -652h-110l366 604h-282z" />
    <glyph glyph-name="eight.tn" 
d="M362 708q79 0 123.5 -45t44.5 -129q0 -55 -34 -99q-34 -45 -75 -60q32 -16 53 -54.5t21 -89.5q0 -103 -58 -165q-68 -74 -202 -74q-90 0 -143 50t-53 137q0 65 37.5 118t101.5 81q-52 46 -52 126q0 94 74 154q62 50 162 50zM289 320q-59 0 -101 -36q-42 -34 -42 -94
q0 -45 27.5 -73.5t70.5 -28.5q62 0 102 34q42 36 42 101q0 46 -26.5 71.5t-72.5 25.5zM346 616q-48 0 -83 -32q-34 -31 -34 -78q0 -40 22 -63.5t57 -23.5q52 0 85.5 32t33.5 81q0 39 -22.5 61.5t-58.5 22.5z" />
    <glyph glyph-name="nine.tn" 
d="M266 252q-84 0 -134 52.5t-50 141.5q0 119 70 190q70 72 186 72q90 0 146 -53q55 -52 55 -136q0 -88 -65 -174l-269 -353h-125l205 262q-10 -2 -19 -2zM285 348q63 0 105 45q42 47 42 111q0 49 -26.5 78.5t-69.5 29.5q-64 0 -106 -44q-41 -44 -41 -109q0 -55 26 -83
t70 -28z" />
    </font>
</defs>
</svg>
