<?xml version="1.0" standalone="no"?>
<!DOCTYPE svg PUBLIC "-//W3C//DTD SVG 1.1//EN" "http://www.w3.org/Graphics/SVG/1.1/DTD/svg11.dtd" >
<svg xmlns="http://www.w3.org/2000/svg" xmlns:xlink="http://www.w3.org/1999/xlink" version="1.1">
<metadata>
Created by FontForge 20161013 at Sun Oct  3 21:18:32 2010
 By ,,,
Copyright (c) 2009 by The Entente (AS &#38; EH). All rights reserved.
</metadata>
<defs>
<font id="Apercu-Italic" horiz-adv-x="577" >
  <font-face 
    font-family="Apercu"
    font-weight="400"
    font-style="italic"
    font-stretch="normal"
    units-per-em="1000"
    panose-1="2 0 5 6 0 0 0 9 0 4"
    ascent="800"
    descent="-200"
    x-height="504"
    cap-height="700"
    bbox="-113 -285 1930 1153"
    underline-thickness="50"
    underline-position="-200"
    slope="-12"
    unicode-range="U+000D-FB02"
  />
<missing-glyph horiz-adv-x="621" 
d="M524 0h-427v700h427v-700zM440 76v548h-259v-548h259z" />
    <glyph glyph-name="fi" unicode="fi" horiz-adv-x="521" 
d="M113 428h-76l15 76h76l3 16q17 89 80 138.5t152 49.5q81 0 123 -33l-32 -72q-43 29 -106 29q-110 0 -132 -111l-3 -17h258l-98 -504h-85l83 428h-173l-83 -428h-85z" />
    <glyph glyph-name="fl" unicode="fl" horiz-adv-x="590" 
d="M113 428h-77l15 76h77l5 26q34 178 220 178h202l-137 -708h-85l123 632h-118q-100 0 -120 -101l-5 -27h116l-15 -76h-116l-83 -428h-85z" />
    <glyph glyph-name=".notdef" horiz-adv-x="621" 
d="M524 0h-427v700h427v-700zM440 76v548h-259v-548h259z" />
    <glyph glyph-name=".null" horiz-adv-x="0" 
 />
    <glyph glyph-name=".null" horiz-adv-x="0" 
 />
    <glyph glyph-name="nonmarkingreturn" horiz-adv-x="333" 
 />
    <glyph glyph-name="CR" unicode="&#xd;" horiz-adv-x="232" 
 />
    <glyph glyph-name="space" unicode=" " horiz-adv-x="232" 
 />
    <glyph glyph-name="exclam" unicode="!" horiz-adv-x="347" 
d="M122 200l73 500h114l-121 -500h-66zM60 65q0 30 20 50.5t50 20.5t50 -20.5t20 -50.5q0 -29 -20 -48.5t-50 -19.5t-50 19.5t-20 48.5z" />
    <glyph glyph-name="quotedbl" unicode="&#x22;" horiz-adv-x="443" 
d="M192 476h-62l20 232h112zM345 476h-62l20 232h112z" />
    <glyph glyph-name="numbersign" unicode="#" horiz-adv-x="691" 
d="M225 424h-120l8 68h134l68 208h76l-68 -208h137l68 208h75l-68 -208h117l-8 -68h-131l-49 -148h121l-8 -68h-135l-67 -208h-75l67 208h-137l-66 -208h-77l67 208h-116l8 68h130zM438 424h-137l-49 -148h137z" />
    <glyph glyph-name="dollar" unicode="$" horiz-adv-x="523" 
d="M487 584l-76 -42q-30 83 -96 83q-45 0 -71 -26.5t-26 -71.5q0 -41 24.5 -67t86.5 -58q69 -37 101 -73q31 -35 31 -106q0 -107 -65 -166q-61 -58 -152 -64l-16 -83h-80l17 88q-62 17 -102 68q-41 53 -41 118l80 43q5 -69 38 -110t90 -41q62 0 101 35t39 96
q0 46 -23.5 72.5t-83.5 55.5q-137 68 -137 179q0 82 48 133t128 59l17 84h80l-18 -90q40 -14 68 -45t38 -71z" />
    <glyph glyph-name="percent" unicode="%" horiz-adv-x="878" 
d="M77 526q0 82 58 134q53 48 131 48q57 0 95.5 -38.5t38.5 -99.5q0 -82 -58 -134q-52 -48 -131 -48q-57 0 -95.5 38.5t-38.5 99.5zM254 638q-41 0 -70 -26q-33 -30 -33 -76q0 -37 19.5 -57.5t52.5 -20.5q41 0 70 26q33 30 33 76q0 37 -19.5 57.5t-52.5 20.5zM447 130
q0 82 58 134q53 48 131 48q57 0 95.5 -38.5t38.5 -99.5q0 -82 -58 -134q-52 -48 -131 -48q-57 0 -95.5 38.5t-38.5 99.5zM624 242q-41 0 -70 -26q-33 -30 -33 -76q0 -37 19.5 -57.5t52.5 -20.5q41 0 70 26q33 30 33 76q0 37 -19.5 57.5t-52.5 20.5zM64 15l676 718l46 -43
l-677 -719z" />
    <glyph glyph-name="ampersand" unicode="&#x26;" horiz-adv-x="621" 
d="M210 -8q-78 0 -128 49q-51 50 -51 130q0 160 185 247q-39 62 -39 119q0 80 48 125.5t132 45.5q65 0 102 -37t37 -95t-43.5 -101t-130.5 -85l107 -182q29 42 72 122l47 -70q-41 -74 -77 -123l81 -137h-94l-43 74q-88 -82 -205 -82zM225 68q81 0 150 73l-124 214
q-136 -70 -136 -173q0 -55 30 -84.5t80 -29.5zM350 636q-40 0 -66 -25.5t-26 -69.5q0 -45 27 -91q129 58 129 120q0 66 -64 66z" />
    <glyph glyph-name="quotesingle" unicode="'" horiz-adv-x="290" 
d="M192 476h-62l20 232h112z" />
    <glyph glyph-name="parenleft" unicode="(" horiz-adv-x="285" 
d="M252 750h89q-202 -247 -202 -556q0 -136 47 -244h-89q-47 108 -47 243q0 327 202 557z" />
    <glyph glyph-name="parenright" unicode=")" horiz-adv-x="285" 
d="M24 -50h-89q201 247 201 556q0 136 -47 244h89q47 -108 47 -243q0 -327 -201 -557z" />
    <glyph glyph-name="asterisk" unicode="*" horiz-adv-x="489" 
d="M268 708h68l-27 -138l139 43l13 -64l-143 -44l59 -111l-63 -39l-59 111l-99 -111l-51 39l101 111l-121 43l33 65l123 -43z" />
    <glyph glyph-name="plus" unicode="+" 
d="M245 356l35 183h75l-35 -183h182l-15 -74h-182l-35 -183h-75l35 183h-182l15 74h182z" />
    <glyph glyph-name="comma" unicode="," horiz-adv-x="329" 
d="M59 -107h-63l102 217h117z" />
    <glyph glyph-name="hyphen" unicode="-" horiz-adv-x="479" 
d="M394 280h-339l15 74h339z" />
    <glyph glyph-name="period" unicode="." horiz-adv-x="275" 
d="M25 59q0 26 18 44.5t45 18.5q26 0 44.5 -18.5t18.5 -44.5q0 -27 -18.5 -45t-44.5 -18q-27 0 -45 18t-18 45z" />
    <glyph glyph-name="slash" unicode="/" horiz-adv-x="495" 
d="M-95 -50l589 800h89l-589 -800h-89z" />
    <glyph glyph-name="zero" unicode="0" horiz-adv-x="582" 
d="M356 708q91 0 141 -64.5t50 -186.5q0 -225 -105 -358q-84 -107 -216 -107q-91 0 -141 65t-50 186q0 225 105 358q84 107 216 107zM344 628q-56 0 -101.5 -38t-70.5 -100q-48 -120 -48 -236q0 -94 28 -138t86 -44t103.5 38.5t69.5 98.5t36 121t11 116q0 94 -28 138t-86 44
z" />
    <glyph glyph-name="one" unicode="1" horiz-adv-x="375" 
d="M90 592l199 108h32l-137 -700h-83l112 574l-141 -74z" />
    <glyph glyph-name="two" unicode="2" horiz-adv-x="542" 
d="M408 0h-415l7 39l322 342q6 7 43 47q43 52 43 103q0 97 -90 97q-44 0 -79 -32.5t-51 -87.5l-85 16q22 84 79.5 134t142.5 50q77 0 124.5 -43.5t47.5 -111.5q0 -57 -20.5 -100t-70.5 -96l-260 -277h277z" />
    <glyph glyph-name="three" unicode="3" horiz-adv-x="542" 
d="M10 184v8l84 11v-6q0 -56 33.5 -90.5t90.5 -34.5q145 0 145 173q0 59 -30 91t-85 32q-36 0 -65 -13l-26 47l189 218h-243l15 80h381l-5 -27l-222 -241q11 3 26 3q73 0 113.5 -49t40.5 -139q0 -114 -65 -185q-64 -70 -179 -70q-87 0 -143 57q-55 56 -55 135z" />
    <glyph glyph-name="four" unicode="4" horiz-adv-x="556" 
d="M363 0h-89l29 149h-293l7 35l386 516h97l-92 -471h83l-16 -80h-83zM381 554l-241 -325h179z" />
    <glyph glyph-name="five" unicode="5" horiz-adv-x="542" 
d="M21 173v11l82 15v-8q0 -54 28.5 -86.5t79.5 -32.5q72 0 117 51q46 52 46 135q0 126 -107 126q-39 0 -81 -21t-75 -57l-53 12l105 382h343l-15 -80h-267l-60 -203q53 47 124 47q83 0 129 -49t46 -144q0 -126 -71 -203q-70 -76 -192 -76q-75 0 -128 50q-51 51 -51 131z" />
    <glyph glyph-name="six" unicode="6" horiz-adv-x="554" 
d="M300 448q81 0 128 -49t47 -139q0 -116 -73 -192t-188 -76q-84 0 -132 50.5t-48 135.5q0 95 66 182l266 348h102l-204 -267q15 7 36 7zM278 369q-68 0 -112 -53q-43 -52 -43 -125q0 -119 103 -119q69 0 114 51q46 52 46 125q0 59 -28.5 90t-79.5 31z" />
    <glyph glyph-name="seven" unicode="7" horiz-adv-x="497" 
d="M519 663l-398 -663h-96l376 620h-320l16 80h430z" />
    <glyph glyph-name="eight" unicode="8" horiz-adv-x="550" 
d="M344 708q76 0 119.5 -43.5t43.5 -117.5q0 -59 -31.5 -103.5t-86.5 -68.5q35 -18 56.5 -55.5t21.5 -88.5q0 -108 -63 -171q-68 -68 -194 -68q-79 0 -132 50t-53 129q0 69 36.5 122.5t105.5 83.5q-55 40 -55 121q0 96 72 157q65 53 160 53zM271 330q-65 0 -111 -42
q-46 -40 -46 -103q0 -52 29.5 -82.5t80.5 -30.5q67 0 110.5 41t43.5 107q0 52 -28 81t-79 29zM329 632q-56 0 -94 -37q-38 -38 -38 -92q0 -43 24 -68t65 -25q54 0 95 35t41 90q0 46 -24 71.5t-69 25.5z" />
    <glyph glyph-name="nine" unicode="9" horiz-adv-x="554" 
d="M256 252q-81 0 -128 49t-47 139q0 116 73 192t188 76q84 0 132 -50.5t48 -135.5q0 -95 -66 -182l-266 -348h-102l204 267q-15 -7 -36 -7zM278 331q68 0 112 53q43 52 43 125q0 119 -103 119q-69 0 -115 -52q-45 -51 -45 -124q0 -59 28.5 -90t79.5 -31z" />
    <glyph glyph-name="colon" unicode=":" horiz-adv-x="297" 
d="M40 59q0 26 18 44.5t45 18.5q26 0 44.5 -18.5t18.5 -44.5q0 -27 -18.5 -45t-44.5 -18q-27 0 -45 18t-18 45zM106 403q0 26 18 44.5t45 18.5q26 0 44.5 -18.5t18.5 -44.5q0 -27 -18.5 -45t-44.5 -18q-27 0 -45 18t-18 45z" />
    <glyph glyph-name="semicolon" unicode=";" horiz-adv-x="297" 
d="M29 -107h-63l102 217h117zM106 403q0 26 18 44.5t45 18.5q26 0 44.5 -18.5t18.5 -44.5q0 -27 -18.5 -45t-44.5 -18q-27 0 -45 18t-18 45z" />
    <glyph glyph-name="less" unicode="&#x3c;" horiz-adv-x="457" 
d="M387 80l-349 186v88l349 186v-87l-267 -143l267 -143v-87z" />
    <glyph glyph-name="equal" unicode="=" horiz-adv-x="581" 
d="M481 356h-399v74h399v-74zM481 190h-399v74h399v-74z" />
    <glyph glyph-name="greater" unicode="&#x3e;" horiz-adv-x="457" 
d="M70 540l349 -186v-88l-349 -186v87l267 143l-267 143v87z" />
    <glyph glyph-name="question" unicode="?" horiz-adv-x="445" 
d="M276 336l65 -29q-31 -60 -62.5 -83t-82.5 -23q-54 0 -87 31.5t-33 82.5q0 50 27 81.5t85 56.5l98 43q61 28 61 77q0 30 -20.5 47.5t-53.5 17.5q-76 0 -116 -97l-77 21q24 67 77 106.5t126 39.5q68 0 107.5 -35t39.5 -95q0 -48 -24 -79.5t-74 -55.5l-119 -57
q-32 -16 -46.5 -31.5t-14.5 -38.5q0 -20 13 -32.5t32 -12.5q25 0 42 15t37 50zM91 63q0 29 19 48.5t47 19.5q29 0 48.5 -19.5t19.5 -48.5q0 -28 -19.5 -47t-48.5 -19q-28 0 -47 19t-19 47z" />
    <glyph glyph-name="at" unicode="@" horiz-adv-x="906" 
d="M588 459l17 50h65l-54 -252q-6 -30 -6 -33q0 -44 42 -44q39 1 65.5 32t37 76.5t9.5 100.5q0 125 -67.5 191t-196.5 66q-158 0 -256 -104t-98 -274q0 -135 81 -213q82 -77 207 -77q130 0 262 65l21 -70q-89 -39 -148 -52q-61 -15 -143 -15q-161 0 -264 98
q-102 98 -102 258q0 209 124 332q124 124 329 124q149 0 241 -85q93 -84 93 -235q0 -79 -18 -142q-19 -65 -67 -106.5t-115 -41.5q-38 0 -67 19t-39 49q-53 -68 -146 -68q-73 0 -114.5 46.5t-41.5 122.5q0 105 62 172q61 67 171 67q40 0 71 -15.5t45 -41.5zM465 444
q-62 0 -103 -47q-40 -46 -40 -114q0 -47 23.5 -75t66.5 -28q60 0 101 48q40 49 40 112q0 104 -88 104z" />
    <glyph glyph-name="A" unicode="A" horiz-adv-x="574" 
d="M-57 0l372 700h85l106 -700h-89l-25 187h-261l-99 -187h-89zM380 271l-45 315l-160 -315h205z" />
    <glyph glyph-name="B" unicode="B" horiz-adv-x="609" 
d="M35 0l137 700h222q84 0 128.5 -40.5t44.5 -115.5q0 -57 -30 -99.5t-81 -63.5q40 -18 64.5 -54.5t24.5 -87.5q0 -116 -73 -177q-74 -62 -190 -62h-247zM334 331h-145l-48 -247h145q77 0 122 35.5t45 102.5q0 53 -31 81t-88 28zM382 616h-138l-39 -201h140q58 0 95.5 29.5
t37.5 83.5q0 88 -96 88z" />
    <glyph glyph-name="C" unicode="C" horiz-adv-x="662" 
d="M517 229l78 -25q-98 -212 -302 -212q-114 0 -184 73t-70 207q0 114 45 211q45 98 135 161q89 64 208 64q98 0 160 -62q61 -61 67 -150l-85 -23q-24 151 -158 151q-89 0 -154 -52q-126 -98 -126 -290q0 -100 44 -153t129 -53q69 0 119.5 36t93.5 117z" />
    <glyph glyph-name="D" unicode="D" horiz-adv-x="669" 
d="M35 0l137 700h180q128 0 202 -72.5t74 -206.5q0 -179 -112 -300q-111 -121 -287 -121h-194zM333 616h-89l-103 -532h89q138 0 220 93q83 95 83 235q0 101 -51 152.5t-149 51.5z" />
    <glyph glyph-name="E" unicode="E" horiz-adv-x="563" 
d="M35 0l137 700h396l-17 -84h-307l-39 -201h250l-16 -84h-250l-48 -247h317l-17 -84h-406z" />
    <glyph glyph-name="F" unicode="F" horiz-adv-x="551" 
d="M35 0l137 700h399l-17 -84h-310l-40 -209h250l-17 -84h-250l-63 -323h-89z" />
    <glyph glyph-name="G" unicode="G" horiz-adv-x="698" 
d="M527 269h-144l16 84h236l-69 -353h-76l9 96q-42 -55 -92 -79.5t-121 -24.5q-103 0 -175 73t-72 212q0 112 44 211q44 96 135 158t208 62q100 0 162 -59q63 -59 68 -152l-88 -23q-20 150 -158 150q-123 0 -201 -99t-78 -235q0 -104 44.5 -159t127.5 -55q81 0 140 51.5
t84 141.5z" />
    <glyph glyph-name="H" unicode="H" horiz-adv-x="695" 
d="M515 414l56 286h89l-137 -700h-89l65 330h-310l-65 -330h-89l137 700h89l-56 -286h310z" />
    <glyph glyph-name="I" unicode="I" horiz-adv-x="296" 
d="M35 0l137 700h89l-137 -700h-89z" />
    <glyph glyph-name="J" unicode="J" horiz-adv-x="541" 
d="M329 219l93 481h89l-100 -515q-18 -94 -77.5 -143.5t-150.5 -49.5q-80 0 -129 55t-49 128l89 19q0 -118 99 -118q107 0 136 143z" />
    <glyph glyph-name="K" unicode="K" horiz-adv-x="597" 
d="M283 382l224 -382h-108l-206 353l-69 -353h-89l137 700h89l-55 -281l298 281h120z" />
    <glyph glyph-name="L" unicode="L" horiz-adv-x="506" 
d="M35 0l137 700h89l-120 -616h308l-17 -84h-397z" />
    <glyph glyph-name="M" unicode="M" horiz-adv-x="790" 
d="M35 0l137 700h104l92 -493l279 493h108l-137 -700h-89l100 510l-254 -446h-66l-85 446l-100 -510h-89z" />
    <glyph glyph-name="N" unicode="N" horiz-adv-x="706" 
d="M475 153l107 547h89l-137 -700h-99l-205 545l-106 -545h-89l137 700h99z" />
    <glyph glyph-name="O" unicode="O" horiz-adv-x="713" 
d="M425 708q111 0 178 -76q69 -75 69 -207q0 -219 -151 -348q-98 -85 -235 -85q-110 0 -179 75q-68 77 -68 208q0 219 151 348q98 85 235 85zM410 624q-105 0 -181 -82q-98 -104 -98 -259q0 -100 43.5 -153.5t126.5 -53.5q105 0 181 82q98 104 98 259q0 100 -43.5 153.5
t-126.5 53.5z" />
    <glyph glyph-name="P" unicode="P" horiz-adv-x="584" 
d="M325 300h-142l-59 -300h-89l137 700h224q85 0 136 -45t51 -121q0 -113 -68.5 -173.5t-189.5 -60.5zM199 384h153q63 0 100.5 35.5t37.5 98.5q0 47 -25.5 72.5t-74.5 25.5h-146z" />
    <glyph glyph-name="Q" unicode="Q" horiz-adv-x="713" 
d="M425 708q111 0 178 -76q69 -75 69 -207q0 -186 -112 -310l52 -64l-71 -59l-50 61q-86 -61 -205 -61q-110 0 -179 75q-68 77 -68 208q0 219 151 348q98 85 235 85zM410 624q-105 0 -181 -82q-98 -104 -98 -259q0 -100 43.5 -153.5t126.5 -53.5q76 0 137 43l-65 81l72 59
l59 -74q76 100 76 232q0 100 -43.5 153.5t-126.5 53.5z" />
    <glyph glyph-name="R" unicode="R" horiz-adv-x="596" 
d="M530 0h-99l-139 330h-103l-65 -330h-89l137 700h222q83 0 130.5 -42t47.5 -115q0 -87 -49 -141.5t-136 -65.5zM380 616h-136l-39 -202h139q65 0 100.5 29t35.5 84q0 89 -100 89z" />
    <glyph glyph-name="S" unicode="S" horiz-adv-x="523" 
d="M487 584l-76 -42q-30 82 -96 82q-46 0 -71.5 -26t-25.5 -71q0 -41 24.5 -67t86.5 -58t96 -67q37 -38 37 -112q0 -106 -66 -166q-39 -36 -81.5 -50.5t-103.5 -14.5q-74 0 -132 56q-57 57 -57 136l80 43q5 -69 38 -110t90 -41q62 0 101 35t39 96q0 46 -23.5 72.5
t-83.5 55.5q-137 68 -137 179q0 91 56.5 142.5t148.5 51.5q58 0 100.5 -35.5t55.5 -88.5z" />
    <glyph glyph-name="T" unicode="T" horiz-adv-x="507" 
d="M258 616h-197l17 84h483l-17 -84h-197l-120 -616h-89z" />
    <glyph glyph-name="U" unicode="U" horiz-adv-x="672" 
d="M76 238l89 462h89l-91 -468q-4 -23 -4 -40q0 -116 122 -116q75 0 123.5 40.5t62.5 115.5l91 468h89l-89 -462q-46 -246 -288 -246q-90 0 -145 49t-55 130q0 35 6 67z" />
    <glyph glyph-name="V" unicode="V" horiz-adv-x="558" 
d="M226 125l300 575h95l-374 -700h-89l-97 700h93z" />
    <glyph glyph-name="W" unicode="W" horiz-adv-x="886" 
d="M577 130l249 570h94l-319 -700h-89l-55 480l-226 -480h-89l-52 700h93l28 -570l233 496h83z" />
    <glyph glyph-name="X" unicode="X" horiz-adv-x="531" 
d="M237 384l-118 316h94l86 -234l177 234h98l-243 -321l142 -379h-92l-112 297l-222 -297h-101z" />
    <glyph glyph-name="Y" unicode="Y" horiz-adv-x="484" 
d="M123 0l59 302l-126 398h94l91 -310l210 310h99l-279 -398l-59 -302h-89z" />
    <glyph glyph-name="Z" unicode="Z" horiz-adv-x="550" 
d="M411 616h-310l17 84h435l-9 -42l-424 -574h331l-17 -84h-455l8 42z" />
    <glyph glyph-name="bracketleft" unicode="[" horiz-adv-x="321" 
d="M210 -50h-188l154 800h189l-15 -76h-108l-125 -648h108z" />
    <glyph glyph-name="backslash" unicode="\" horiz-adv-x="495" 
d="M350 -50l-281 800h84l281 -800h-84z" />
    <glyph glyph-name="bracketright" unicode="]" horiz-adv-x="321" 
d="M96 674l15 76h189l-155 -800h-188l14 76h108l125 648h-108z" />
    <glyph glyph-name="asciicircum" unicode="^" horiz-adv-x="568" 
d="M70 421l186 279h68l186 -279h-83l-137 203l-137 -203h-83z" />
    <glyph glyph-name="underscore" unicode="_" horiz-adv-x="453" 
d="M355 -74h-399l15 74h399z" />
    <glyph glyph-name="grave" unicode="`" horiz-adv-x="206" 
d="M55 704h121l48 -144h-68z" />
    <glyph glyph-name="a" unicode="a" horiz-adv-x="586" 
d="M530 504l-97 -504h-85l12 62q-63 -70 -149 -70q-89 0 -136.5 56t-47.5 149q0 131 72 223t201 92q47 0 85.5 -21t48.5 -47l11 60h85zM235 68q57 0 98 38q76 71 76 198q0 62 -30 97t-86 35q-85 0 -131 -66q-46 -65 -46 -150q0 -70 31.5 -111t87.5 -41z" />
    <glyph glyph-name="b" unicode="b" horiz-adv-x="596" 
d="M531 300q0 -131 -70 -219q-71 -89 -201 -89q-40 0 -81 21q-39 23 -51 49l-13 -62h-85l138 708h85l-51 -264q25 29 66 48.5t84 19.5q83 0 131 -54.5t48 -157.5zM267 68q81 0 128 66q47 67 47 154q0 148 -113 148q-75 0 -126 -69t-51 -156q0 -68 31 -105.5t84 -37.5z" />
    <glyph glyph-name="c" unicode="c" horiz-adv-x="540" 
d="M380 170l71 -37q-53 -79 -105 -111q-52 -30 -132 -30q-85 0 -136 58t-51 153q0 121 77 215q78 94 210 94q146 0 181 -140l-76 -29q-25 93 -120 93q-81 0 -132 -67q-51 -66 -51 -157q0 -67 30.5 -105.5t82.5 -38.5q48 0 83 24t68 78z" />
    <glyph glyph-name="d" unicode="d" horiz-adv-x="612" 
d="M302 512q46 0 83.5 -18.5t55.5 -49.5l51 264h85l-138 -708h-85l13 62q-64 -70 -158 -70q-86 0 -134 52t-48 142q0 134 75 230t200 96zM116 208q0 -65 30.5 -102.5t85.5 -37.5q58 0 102 39q82 74 82 199q0 63 -32.5 96.5t-88.5 33.5q-57 0 -100 -37q-79 -69 -79 -191z" />
    <glyph glyph-name="e" unicode="e" horiz-adv-x="562" 
d="M498 273l-8 -39h-373q-3 -20 -3 -36q0 -61 30.5 -95.5t86.5 -34.5q52 0 88 23.5t69 75.5l72 -35q-50 -75 -107 -107.5t-137 -32.5q-87 0 -139 58t-52 154q0 118 84 213t208 95q86 0 136 -51t50 -138q0 -18 -5 -50zM302 436q-54 0 -99 -34.5t-67 -91.5h278q0 126 -112 126
z" />
    <glyph glyph-name="f" unicode="f" horiz-adv-x="339" 
d="M113 428h-72l15 76h72l6 33q16 89 61 130t126 41q35 0 72 -18l-31 -72q-26 14 -53 14q-37 0 -57.5 -20t-30.5 -68l-8 -40h112l-15 -76h-112l-83 -428h-85z" />
    <glyph glyph-name="g" unicode="g" horiz-adv-x="510" 
d="M84 311q0 88 56 144q57 57 149 57q50 0 91 -23l94 48l30 -66l-75 -38q11 -27 11 -64q0 -84 -59 -140q-58 -55 -147 -55q-43 0 -81 20q-47 -18 -47 -55q0 -16 12.5 -27t32.5 -11h115q141 0 141 -121q0 -94 -73 -143q-71 -49 -177 -49q-79 0 -129 40q-51 39 -51 104
q0 74 66 127q-21 23 -21 63q0 70 84 113q-22 32 -22 76zM241 29h-97q-10 0 -36 2q-46 -24 -46 -81q0 -41 27.5 -65.5t82.5 -24.5q59 0 102 25q44 26 44 80q0 64 -77 64zM279 440q-48 0 -79.5 -32t-31.5 -82q0 -38 20.5 -59t56.5 -21q48 0 79.5 30.5t31.5 80.5
q0 40 -20.5 61.5t-56.5 21.5z" />
    <glyph glyph-name="h" unicode="h" horiz-adv-x="584" 
d="M502 350l-68 -350h-85l64 333q3 18 3 36q0 67 -69 67q-56 0 -115 -62q-56 -61 -76 -160l-41 -214h-85l137 708h85l-58 -298q74 102 190 102q57 0 90 -29.5t33 -82.5q0 -18 -5 -50z" />
    <glyph glyph-name="i" unicode="i" horiz-adv-x="276" 
d="M30 0l98 504h85l-98 -504h-85zM132 644q0 27 18 45.5t45 18.5t45 -18.5t18 -45.5q0 -26 -18 -44t-45 -18t-45 18t-18 44z" />
    <glyph glyph-name="j" unicode="j" horiz-adv-x="276" 
d="M-80 -212l-8 82q54 13 80 37t35 75l101 522h85l-103 -530q-17 -87 -61.5 -130t-128.5 -56zM132 644q0 27 18 45.5t45 18.5t45 -18.5t18 -45.5q0 -26 -18 -44t-45 -18t-45 18t-18 44z" />
    <glyph glyph-name="k" unicode="k" horiz-adv-x="508" 
d="M30 0l137 708h85l-80 -415l216 211h115l-249 -236l171 -268h-103l-158 253l-49 -253h-85z" />
    <glyph glyph-name="l" unicode="l" horiz-adv-x="306" 
d="M49 0l137 708h85l-137 -708h-85z" />
    <glyph glyph-name="m" unicode="m" horiz-adv-x="856" 
d="M774 355l-69 -355h-85l65 337q4 21 4 38q0 61 -64 61q-52 0 -103 -62q-51 -61 -72 -167l-40 -207h-85l65 337q3 18 3 38q0 61 -63 61q-52 0 -103 -62q-51 -61 -72 -167l-40 -207h-85l98 504h85l-18 -93q71 101 171 101q52 0 82.5 -28t33.5 -77q76 105 179 105
q117 0 117 -113q0 -25 -4 -44z" />
    <glyph glyph-name="n" unicode="n" 
d="M496 355l-69 -355h-85l64 333q4 21 4 35q0 68 -67 68q-54 0 -111 -63q-56 -62 -76 -162l-41 -211h-85l98 504h85l-18 -93q77 101 182 101q58 0 90 -29t32 -81q0 -24 -3 -47z" />
    <glyph glyph-name="o" unicode="o" horiz-adv-x="573" 
d="M27 204q0 124 69 210q80 98 213 98q93 0 146 -56t53 -156q0 -124 -69 -210q-80 -98 -213 -98q-93 0 -146 56t-53 156zM301 436q-84 0 -140 -71q-45 -57 -45 -149q0 -70 30.5 -109t87.5 -39q84 0 140 71q45 57 45 149q0 70 -30.5 109t-87.5 39z" />
    <glyph glyph-name="p" unicode="p" horiz-adv-x="605" 
d="M265 -8q-94 0 -139 68l-51 -264h-85l138 708h85l-13 -62q28 32 70 51t88 19q86 0 134 -52t48 -142q0 -134 -75 -230t-200 -96zM451 296q0 65 -30.5 102.5t-85.5 37.5q-59 0 -102 -40q-82 -72 -82 -198q0 -63 31 -96.5t90 -33.5q58 0 99 37q80 69 80 191z" />
    <glyph glyph-name="q" unicode="q" horiz-adv-x="578" 
d="M27 204q0 131 70 219q71 89 201 89q42 0 80 -22q40 -21 52 -48l13 62h85l-138 -708h-85l51 264q-25 -29 -66 -48.5t-84 -19.5q-83 0 -131 54.5t-48 157.5zM291 436q-83 0 -129 -66q-46 -65 -46 -154q0 -148 113 -148q75 0 126 69t51 156q0 68 -31 105.5t-84 37.5z" />
    <glyph glyph-name="r" unicode="r" horiz-adv-x="437" 
d="M428 497l-31 -75q-26 14 -53 14q-56 0 -110 -51q-52 -51 -75 -162l-44 -223h-85l98 504h85l-17 -86q60 94 163 94q45 0 69 -15z" />
    <glyph glyph-name="s" unicode="s" horiz-adv-x="460" 
d="M259 512q47 0 86 -22.5t59 -61.5l-66 -49q-38 57 -89 57q-30 0 -49 -17t-19 -46q0 -25 17 -42t52 -33q52 -22 83 -48q43 -31 43 -92q0 -76 -50.5 -121t-131.5 -45q-74 0 -122 42q-49 44 -56 101l74 36q21 -103 114 -103q38 0 60.5 20.5t22.5 53.5q0 38 -26 57
q-19 14 -66 35q-99 44 -99 134q0 66 44 105t119 39z" />
    <glyph glyph-name="t" unicode="t" horiz-adv-x="350" 
d="M116 428h-87l14 76h87l30 151l94 53l-40 -204h127l-14 -76h-127l-52 -268q-5 -28 -5 -36q0 -56 54 -56q32 0 60 16l6 -73q-37 -19 -86 -19q-57 0 -88 30t-31 87q0 19 7 58z" />
    <glyph glyph-name="u" unicode="u" 
d="M55 149l69 355h85l-64 -333q-4 -21 -4 -35q0 -68 67 -68q54 0 111 63q56 62 76 162l41 211h85l-98 -504h-85l18 93q-77 -101 -182 -101q-58 0 -90 29t-32 81q0 24 3 47z" />
    <glyph glyph-name="v" unicode="v" horiz-adv-x="439" 
d="M160 107l200 397h89l-261 -504h-89l-71 504h85z" />
    <glyph glyph-name="w" unicode="w" horiz-adv-x="723" 
d="M450 113l176 391h89l-245 -504h-82l-22 381l-171 -381h-82l-58 504h86l31 -391l173 391h86z" />
    <glyph glyph-name="x" unicode="x" horiz-adv-x="462" 
d="M179 275l-98 229h92l67 -160l126 160h98l-192 -238l107 -266h-89l-76 190l-149 -190h-101z" />
    <glyph glyph-name="y" unicode="y" horiz-adv-x="466" 
d="M188 140l194 364h89l-385 -708h-89l125 236l-81 472h89z" />
    <glyph glyph-name="z" unicode="z" horiz-adv-x="468" 
d="M309 428h-227l14 76h347l-7 -36l-310 -392h248l-14 -76h-365l7 36z" />
    <glyph glyph-name="braceleft" unicode="{" horiz-adv-x="315" 
d="M62 50l36 182q4 21 4 31q0 27 -16 38t-53 11l15 76q45 0 65.5 17.5t29.5 62.5l36 182q9 46 40.5 73t79.5 27h48l-15 -76h-23q-45 0 -53 -45l-35 -181q-9 -45 -30 -66.5t-59 -31.5q53 -14 53 -66q0 -14 -3 -32l-35 -181q0 -3 -0.5 -6.5t-1 -5.5t-0.5 -3q0 -16 9 -23t30 -7
h23l-15 -76h-48q-41 0 -62.5 20.5t-21.5 57.5z" />
    <glyph glyph-name="bar" unicode="|" horiz-adv-x="245" 
d="M100 -50v800h80v-800h-80z" />
    <glyph glyph-name="braceright" unicode="}" horiz-adv-x="315" 
d="M170 232l-36 -182q-9 -47 -40 -73.5t-79 -26.5h-47l14 76h23q45 0 53 45l35 181q9 45 30.5 66.5t59.5 31.5q-54 14 -54 65q0 15 3 33l35 181q0 3 0.5 6.5t1 5.5t0.5 3q0 30 -39 30h-23l15 76h48q83 0 83 -77q0 -9 -2 -23l-36 -182q-4 -21 -4 -31q0 -27 16 -38t53 -11
l-15 -76q-45 0 -66 -17.5t-29 -62.5z" />
    <glyph glyph-name="asciitilde" unicode="~" horiz-adv-x="627" 
d="M100 268l-40 54q63 85 149 85q45 0 96 -25t87 -25q54 0 101 45l40 -55q-62 -84 -149 -84q-45 0 -96 25t-87 25q-55 0 -101 -45z" />
    <glyph glyph-name="nbspace" unicode="&#xa0;" horiz-adv-x="232" 
 />
    <glyph glyph-name="exclamdown" unicode="&#xa1;" horiz-adv-x="347" 
d="M197 294l-73 -500h-114l121 500h66zM259 429q0 -30 -20 -50.5t-50 -20.5t-50 20.5t-20 50.5q0 29 20 48.5t50 19.5t50 -19.5t20 -48.5z" />
    <glyph glyph-name="cent" unicode="&#xa2;" horiz-adv-x="553" 
d="M413 268l71 -37q-45 -71 -91 -102.5t-110 -37.5l-27 -141h-81l28 144q-67 14 -105.5 69.5t-38.5 137.5q0 109 65 200q66 90 178 106l28 143h81l-27 -143q112 -13 144 -137l-76 -29q-26 93 -120 93q-81 0 -133 -67q-51 -66 -51 -157q0 -66 31 -105t83 -39q48 0 83 24
t68 78z" />
    <glyph glyph-name="sterling" unicode="&#xa3;" horiz-adv-x="562" 
d="M142 324h-80l16 80h53q-4 27 -4 67q0 110 64 173.5t174 63.5q63 0 109 -39q48 -40 58 -99l-78 -31q-14 48 -38 68.5t-66 20.5q-66 0 -103 -45.5t-37 -126.5q0 -34 3 -52h169l-16 -80h-143v-20q0 -74 -28 -118q-26 -42 -86 -96q39 21 88 21q28 0 63 -20q34 -19 52 -19
q29 0 48 16q23 19 55 60l57 -52q-41 -56 -81 -80t-89 -24q-39 0 -79 20q-38 20 -67 20q-60 0 -121 -40l-44 62q65 55 102 102q50 62 50 141q0 21 -1 27z" />
    <glyph glyph-name="currency" unicode="&#xa4;" horiz-adv-x="569" 
d="M106 422l-88 67l69 69l67 -87q51 38 115 38t115 -38l67 87l69 -69l-88 -67q35 -51 35 -115t-35 -115l88 -67l-69 -69l-67 87q-51 -38 -115 -38t-115 38l-67 -87l-69 69l88 67q-35 51 -35 115t35 115zM184 398q-32 -35 -32 -91t32 -91t85 -35t85 35t32 91t-32 91t-85 35
t-85 -35z" />
    <glyph glyph-name="yen" unicode="&#xa5;" horiz-adv-x="561" 
d="M222 387l-97 313h96l82 -302l203 302h100l-218 -313h116l-16 -80h-156l-15 -80h156l-16 -80h-156l-29 -147h-89l29 147h-156l16 80h156l15 80h-156l16 80h119z" />
    <glyph glyph-name="brokenbar" unicode="&#xa6;" horiz-adv-x="245" 
d="M100 -50v349h80v-349h-80zM180 750v-349h-80v349h80z" />
    <glyph glyph-name="section" unicode="&#xa7;" horiz-adv-x="568" 
d="M63 260q0 103 114 154q-33 45 -33 95q0 88 58 143q59 56 153 56q67 0 110.5 -40t47.5 -108l-80 -23q-9 91 -94 91q-47 0 -76.5 -28t-29.5 -74q0 -33 13.5 -59t30.5 -37q16 -11 55 -30q32 -15 59 -32q43 -25 64 -55.5t21 -76.5q0 -101 -116 -154q33 -45 33 -95
q0 -88 -58 -143q-59 -56 -153 -56q-67 0 -110.5 40t-47.5 108l80 23q9 -91 94 -91q47 0 76.5 28t29.5 74q0 33 -13.5 59t-30.5 37q-16 11 -55 30q-32 15 -59 32q-42 25 -62.5 55.5t-20.5 76.5zM228 367q-85 -31 -85 -95q0 -46 38 -72q13 -9 37 -23q86 -45 91 -48
q85 31 85 95q0 46 -38 72q-17 11 -38 23q-1 1 -38.5 19.5t-51.5 28.5z" />
    <glyph glyph-name="dieresis" unicode="&#xa8;" horiz-adv-x="302" 
d="M114 708q25 0 41 -16.5t16 -40.5t-16 -40t-41 -16q-23 0 -39.5 16t-16.5 40t16.5 40.5t39.5 16.5zM280 708q25 0 41 -16.5t16 -40.5t-16 -40t-41 -16q-23 0 -39.5 16t-16.5 40t16.5 40.5t39.5 16.5z" />
    <glyph glyph-name="copyright" unicode="&#xa9;" horiz-adv-x="900" 
d="M178 71q-108 113 -108 279q0 167 108 278q109 112 272 112t271 -112q109 -110 109 -278q0 -167 -109 -279q-108 -111 -271 -111q-162 0 -272 111zM233 574q-83 -91 -83 -224t83 -224q83 -90 217 -90t217 90q83 91 83 224t-83 224q-83 90 -217 90t-217 -90zM553 282
l70 -17q-12 -60 -59.5 -95.5t-113.5 -35.5q-79 0 -137 55q-59 56 -59 161q0 104 59 160t137 56q66 0 113.5 -35.5t59.5 -95.5l-70 -17q-25 78 -103 78q-55 0 -87.5 -37t-32.5 -109t32.5 -109t87.5 -37q78 0 103 78z" />
    <glyph glyph-name="ordfeminine" unicode="&#xaa;" horiz-adv-x="420" 
d="M373 561v-261h-56l-11 54q-43 -58 -123 -58q-58 0 -91.5 30t-33.5 88q0 64 51 97t143 33h50v18q0 80 -84 80q-65 0 -81 -61l-65 16q13 51 50.5 79t95.5 28q155 0 155 -143zM131 414q0 -57 62 -57q45 0 77 29.5t32 81.5v18h-41q-130 0 -130 -72z" />
    <glyph glyph-name="guillemotleft" unicode="&#xab;" horiz-adv-x="616" 
d="M274 80l-239 199l13 62l316 204l-21 -107l-222 -135l170 -135zM504 80l-239 199l13 62l316 204l-21 -107l-222 -135l170 -135z" />
    <glyph glyph-name="logicalnot" unicode="&#xac;" horiz-adv-x="542" 
d="M391 313h-349v76h433v-247h-84v171z" />
    <glyph glyph-name="uni00AD" unicode="&#xad;" horiz-adv-x="479" 
d="M394 280h-339l15 74h339z" />
    <glyph glyph-name="registered" unicode="&#xae;" horiz-adv-x="900" 
d="M178 71q-108 113 -108 279q0 167 108 278q109 112 272 112t271 -112q109 -110 109 -278q0 -167 -109 -279q-108 -111 -271 -111q-162 0 -272 111zM233 574q-83 -91 -83 -224t83 -224q83 -90 217 -90t217 90q83 91 83 224t-83 224q-83 90 -217 90t-217 -90zM628 137h-82
l-126 182h-38v-182h-72v426h153q63 0 97.5 -32.5t34.5 -89.5q0 -45 -26 -77.5t-68 -40.5zM462 493h-80v-104h80q61 0 61 52t-61 52z" />
    <glyph glyph-name="overscore" unicode="&#xaf;" horiz-adv-x="286" 
d="M316 632h-249l15 76h249z" />
    <glyph glyph-name="degree" unicode="&#xb0;" horiz-adv-x="351" 
d="M131 513q-31 31 -31 80q0 48 31 79q32 32 81 32q48 0 80 -32t32 -79q0 -48 -32 -80q-31 -31 -80 -31q-50 0 -81 31zM177 628q-13 -13 -13 -35t13 -36q13 -13 35 -13t35 13q13 14 13 36t-13 35q-13 14 -35 14t-35 -14z" />
    <glyph glyph-name="plusminus" unicode="&#xb1;" horiz-adv-x="572" 
d="M249 436v183h74v-183h183v-74h-183v-183h-74v183h-183v74h183zM506 0h-440v74h440v-74z" />
    <glyph glyph-name="twosuperior" unicode="&#xb2;" horiz-adv-x="447" 
d="M197 575l-61 17q13 52 50.5 82t91.5 30q45 0 74 -25t29 -66q0 -40 -12.5 -68.5t-47.5 -63.5l-120 -121h146l-12 -60h-255l5 25l179 184q21 21 26 28q24 26 24 60q0 47 -45 47q-24 0 -43.5 -18.5t-28.5 -50.5z" />
    <glyph glyph-name="threesuperior" unicode="&#xb3;" horiz-adv-x="429" 
d="M96 415l66 9q0 -33 16 -50.5t43 -17.5q36 0 57.5 24.5t21.5 63.5q0 58 -54 58q-20 0 -39 -11l-23 41l99 108h-128l12 60h227l-5 -23l-118 -126q45 0 70.5 -26.5t25.5 -73.5q0 -69 -44 -112t-113 -43q-52 0 -83 32.5t-31 86.5z" />
    <glyph glyph-name="acute" unicode="&#xb4;" horiz-adv-x="210" 
d="M120 560h-72l97 144h123z" />
    <glyph glyph-name="mu" unicode="&#xb5;" horiz-adv-x="578" 
d="M159 3v-207h-84v708h84v-333q0 -103 87 -103q59 0 101 62q43 61 43 163v211h84v-504h-84v93q-57 -101 -167 -101q-34 0 -64 11z" />
    <glyph glyph-name="paragraph" unicode="&#xb6;" horiz-adv-x="686" 
d="M80 480q0 104 67 162t167 58h351l-14 -76h-62l-161 -828h-85l161 828h-119l-161 -828h-85l100 518q-66 0 -113 47q-46 47 -46 119z" />
    <glyph glyph-name="middot" unicode="&#xb7;" horiz-adv-x="275" 
d="M80 349q0 26 18 44.5t45 18.5q26 0 44.5 -18.5t18.5 -44.5q0 -27 -18.5 -45t-44.5 -18q-27 0 -45 18t-18 45z" />
    <glyph glyph-name="cedilla" unicode="&#xb8;" horiz-adv-x="188" 
d="M66 -60h74l-111 -175l-89 45z" />
    <glyph glyph-name="onesuperior" unicode="&#xb9;" horiz-adv-x="332" 
d="M110 639l137 61h25l-77 -400h-65l60 307l-94 -41z" />
    <glyph glyph-name="ordmasculine" unicode="&#xba;" horiz-adv-x="420" 
d="M422 500q0 -86 -52 -145q-53 -59 -140 -59q-88 0 -141 59q-51 60 -51 145q0 86 52 144q53 60 140 60q88 0 140 -60q52 -59 52 -144zM141 602q-30 -40 -30 -102t30 -102q31 -40 89 -40t88 40t30 102t-30 102q-30 41 -88 41q-57 0 -89 -41z" />
    <glyph glyph-name="guillemotright" unicode="&#xbb;" horiz-adv-x="616" 
d="M338 545l239 -199l-13 -62l-316 -204l21 107l222 135l-170 135zM108 545l239 -199l-13 -62l-316 -204l21 107l222 135l-170 135z" />
    <glyph glyph-name="onequarter" unicode="&#xbc;" horiz-adv-x="902" 
d="M149 639l137 61h25l-77 -400h-65l60 307l-94 -41zM80 15l676 718l46 -43l-677 -719zM667 0h-64l15 77h-177l5 26l217 297h81l-51 -263h51l-11 -60h-51zM662 307l-121 -170h88z" />
    <glyph glyph-name="onehalf" unicode="&#xbd;" horiz-adv-x="918" 
d="M149 639l137 61h25l-77 -400h-65l60 307l-94 -41zM626 275l-61 17q13 52 50.5 82t91.5 30q45 0 74 -25t29 -66q0 -40 -12.5 -68.5t-47.5 -63.5l-120 -121h146l-12 -60h-255l5 25l179 184q21 21 26 28q24 26 24 60q0 47 -45 47q-24 0 -43.5 -18.5t-28.5 -50.5zM80 15
l676 718l46 -43l-677 -719z" />
    <glyph glyph-name="threequarters" unicode="&#xbe;" horiz-adv-x="973" 
d="M151 15l676 718l46 -43l-677 -719zM96 415l66 9q0 -33 16 -50.5t43 -17.5q36 0 57.5 24.5t21.5 63.5q0 58 -54 58q-20 0 -39 -11l-23 41l99 108h-128l12 60h227l-5 -23l-118 -126q45 0 70.5 -26.5t25.5 -73.5q0 -69 -44 -112t-113 -43q-52 0 -83 32.5t-31 86.5zM735 0
h-64l15 77h-177l5 26l217 297h81l-51 -263h51l-11 -60h-51zM730 307l-121 -170h88z" />
    <glyph glyph-name="questiondown" unicode="&#xbf;" horiz-adv-x="445" 
d="M144 158l-65 29q31 60 62.5 83t82.5 23q54 0 87 -32t33 -82t-27 -81.5t-85 -56.5l-98 -43q-61 -28 -61 -77q0 -30 20.5 -47.5t53.5 -17.5q76 0 116 97l77 -21q-24 -67 -77 -106.5t-126 -39.5q-68 0 -107.5 35t-39.5 95q0 48 24 79.5t74 55.5l119 57q32 16 46.5 31.5
t14.5 38.5q0 20 -13 32.5t-32 12.5q-25 0 -42 -15t-37 -50zM329 431q0 -29 -19 -48.5t-47 -19.5q-29 0 -48.5 19.5t-19.5 48.5q0 28 19.5 47t48.5 19q28 0 47 -19t19 -47z" />
    <glyph glyph-name="Agrave" unicode="&#xc0;" horiz-adv-x="574" 
d="M-57 0l372 700h85l106 -700h-89l-25 187h-261l-99 -187h-89zM380 271l-45 315l-160 -315h205zM229 900h121l48 -144h-68z" />
    <glyph glyph-name="Aacute" unicode="&#xc1;" horiz-adv-x="574" 
d="M-57 0l372 700h85l106 -700h-89l-25 187h-261l-99 -187h-89zM380 271l-45 315l-160 -315h205zM371 756h-72l97 144h123z" />
    <glyph glyph-name="Acircumflex" unicode="&#xc2;" horiz-adv-x="574" 
d="M-57 0l372 700h85l106 -700h-89l-25 187h-261l-99 -187h-89zM380 271l-45 315l-160 -315h205zM295 762h-98l179 164h31l124 -164h-89l-61 80z" />
    <glyph glyph-name="Atilde" unicode="&#xc3;" horiz-adv-x="574" 
d="M-57 0l372 700h85l106 -700h-89l-25 187h-261l-99 -187h-89zM380 271l-45 315l-160 -315h205zM226 781l-41 42q54 73 121 73q35 0 66 -20q32 -20 54 -20q38 0 73 35l41 -43q-54 -72 -121 -72q-35 0 -67 20q-31 20 -53 20q-38 0 -73 -35z" />
    <glyph glyph-name="Adieresis" unicode="&#xc4;" horiz-adv-x="574" 
d="M-57 0l372 700h85l106 -700h-89l-25 187h-261l-99 -187h-89zM380 271l-45 315l-160 -315h205zM302 904q25 0 41 -16.5t16 -40.5t-16 -40t-41 -16q-23 0 -39.5 16t-16.5 40t16.5 40.5t39.5 16.5zM468 904q25 0 41 -16.5t16 -40.5t-16 -40t-41 -16q-23 0 -39.5 16t-16.5 40
t16.5 40.5t39.5 16.5z" />
    <glyph glyph-name="Aring" unicode="&#xc5;" horiz-adv-x="574" 
d="M-57 0l372 700h85l106 -700h-89l-25 187h-261l-99 -187h-89zM380 271l-45 315l-160 -315h205zM289 849q0 42 28.5 71t70.5 29t70.5 -29t28.5 -71q0 -41 -28 -68.5t-71 -27.5q-42 0 -70.5 27.5t-28.5 68.5zM345 850q-2 -27 20.5 -38t45 0t20.5 38q2 28 -20.5 40t-45 0
t-20.5 -40z" />
    <glyph glyph-name="AE" unicode="&#xc6;" horiz-adv-x="836" 
d="M-58 0l444 700h455l-17 -84h-307l-39 -201h250l-16 -84h-250l-48 -247h317l-17 -84h-406l37 187h-187l-117 -187h-99zM422 585h-16l-196 -314h151z" />
    <glyph glyph-name="Ccedilla" unicode="&#xc7;" horiz-adv-x="662" 
d="M517 229l78 -25q-98 -212 -302 -212q-114 0 -184 73t-70 207q0 114 45 211q45 98 135 161q89 64 208 64q98 0 160 -62q61 -61 67 -150l-85 -23q-24 151 -158 151q-89 0 -154 -52q-126 -98 -126 -290q0 -100 44 -153t129 -53q69 0 119.5 36t93.5 117zM248 -60h74
l-111 -175l-89 45z" />
    <glyph glyph-name="Egrave" unicode="&#xc8;" horiz-adv-x="563" 
d="M35 0l137 700h396l-17 -84h-307l-39 -201h250l-16 -84h-250l-48 -247h317l-17 -84h-406zM293 900h121l48 -144h-68z" />
    <glyph glyph-name="Eacute" unicode="&#xc9;" horiz-adv-x="563" 
d="M35 0l137 700h396l-17 -84h-307l-39 -201h250l-16 -84h-250l-48 -247h317l-17 -84h-406zM372 756h-72l97 144h123z" />
    <glyph glyph-name="Ecircumflex" unicode="&#xca;" horiz-adv-x="563" 
d="M35 0l137 700h396l-17 -84h-307l-39 -201h250l-16 -84h-250l-48 -247h317l-17 -84h-406zM310 762h-98l179 164h31l124 -164h-89l-61 80z" />
    <glyph glyph-name="Edieresis" unicode="&#xcb;" horiz-adv-x="563" 
d="M35 0l137 700h396l-17 -84h-307l-39 -201h250l-16 -84h-250l-48 -247h317l-17 -84h-406zM299 904q25 0 41 -16.5t16 -40.5t-16 -40t-41 -16q-23 0 -39.5 16t-16.5 40t16.5 40.5t39.5 16.5zM465 904q25 0 41 -16.5t16 -40.5t-16 -40t-41 -16q-23 0 -39.5 16t-16.5 40
t16.5 40.5t39.5 16.5z" />
    <glyph glyph-name="Igrave" unicode="&#xcc;" horiz-adv-x="296" 
d="M35 0l137 700h89l-137 -700h-89zM114 900h121l48 -144h-68z" />
    <glyph glyph-name="Iacute" unicode="&#xcd;" horiz-adv-x="296" 
d="M35 0l137 700h89l-137 -700h-89zM237 756h-72l97 144h123z" />
    <glyph glyph-name="Icircumflex" unicode="&#xce;" horiz-adv-x="296" 
d="M35 0l137 700h89l-137 -700h-89zM153 762h-98l179 164h31l124 -164h-89l-61 80z" />
    <glyph glyph-name="Idieresis" unicode="&#xcf;" horiz-adv-x="296" 
d="M35 0l137 700h89l-137 -700h-89zM156 904q25 0 41 -16.5t16 -40.5t-16 -40t-41 -16q-23 0 -39.5 16t-16.5 40t16.5 40.5t39.5 16.5zM322 904q25 0 41 -16.5t16 -40.5t-16 -40t-41 -16q-23 0 -39.5 16t-16.5 40t16.5 40.5t39.5 16.5z" />
    <glyph glyph-name="Eth" unicode="&#xd0;" horiz-adv-x="669" 
d="M95 308h-58l17 84h57l61 308h180q128 0 202 -72.5t74 -206.5q0 -179 -112 -300q-111 -121 -287 -121h-194zM333 616h-89l-44 -224h130l-17 -84h-129l-43 -224h89q138 0 220 93q83 95 83 235q0 101 -51 152.5t-149 51.5z" />
    <glyph glyph-name="Ntilde" unicode="&#xd1;" horiz-adv-x="706" 
d="M475 153l107 547h89l-137 -700h-99l-205 545l-106 -545h-89l137 700h99zM304 781l-41 42q54 73 121 73q35 0 66 -20q32 -20 54 -20q38 0 73 35l41 -43q-54 -72 -121 -72q-35 0 -67 20q-31 20 -53 20q-38 0 -73 -35z" />
    <glyph glyph-name="Ograve" unicode="&#xd2;" horiz-adv-x="713" 
d="M425 708q111 0 178 -76q69 -75 69 -207q0 -219 -151 -348q-98 -85 -235 -85q-110 0 -179 75q-68 77 -68 208q0 219 151 348q98 85 235 85zM410 624q-105 0 -181 -82q-98 -104 -98 -259q0 -100 43.5 -153.5t126.5 -53.5q105 0 181 82q98 104 98 259q0 100 -43.5 153.5
t-126.5 53.5zM314 900h121l48 -144h-68z" />
    <glyph glyph-name="Oacute" unicode="&#xd3;" horiz-adv-x="713" 
d="M425 708q111 0 178 -76q69 -75 69 -207q0 -219 -151 -348q-98 -85 -235 -85q-110 0 -179 75q-68 77 -68 208q0 219 151 348q98 85 235 85zM410 624q-105 0 -181 -82q-98 -104 -98 -259q0 -100 43.5 -153.5t126.5 -53.5q105 0 181 82q98 104 98 259q0 100 -43.5 153.5
t-126.5 53.5zM427 756h-72l97 144h123z" />
    <glyph glyph-name="Ocircumflex" unicode="&#xd4;" horiz-adv-x="713" 
d="M425 708q111 0 178 -76q69 -75 69 -207q0 -219 -151 -348q-98 -85 -235 -85q-110 0 -179 75q-68 77 -68 208q0 219 151 348q98 85 235 85zM410 624q-105 0 -181 -82q-98 -104 -98 -259q0 -100 43.5 -153.5t126.5 -53.5q105 0 181 82q98 104 98 259q0 100 -43.5 153.5
t-126.5 53.5zM357 762h-98l179 164h31l124 -164h-89l-61 80z" />
    <glyph glyph-name="Otilde" unicode="&#xd5;" horiz-adv-x="713" 
d="M425 708q111 0 178 -76q69 -75 69 -207q0 -219 -151 -348q-98 -85 -235 -85q-110 0 -179 75q-68 77 -68 208q0 219 151 348q98 85 235 85zM410 624q-105 0 -181 -82q-98 -104 -98 -259q0 -100 43.5 -153.5t126.5 -53.5q105 0 181 82q98 104 98 259q0 100 -43.5 153.5
t-126.5 53.5zM308 781l-41 42q54 73 121 73q35 0 66 -20q32 -20 54 -20q38 0 73 35l41 -43q-54 -72 -121 -72q-35 0 -67 20q-31 20 -53 20q-38 0 -73 -35z" />
    <glyph glyph-name="Odieresis" unicode="&#xd6;" horiz-adv-x="713" 
d="M425 708q111 0 178 -76q69 -75 69 -207q0 -219 -151 -348q-98 -85 -235 -85q-110 0 -179 75q-68 77 -68 208q0 219 151 348q98 85 235 85zM410 624q-105 0 -181 -82q-98 -104 -98 -259q0 -100 43.5 -153.5t126.5 -53.5q105 0 181 82q98 104 98 259q0 100 -43.5 153.5
t-126.5 53.5zM361 904q25 0 41 -16.5t16 -40.5t-16 -40t-41 -16q-23 0 -39.5 16t-16.5 40t16.5 40.5t39.5 16.5zM527 904q25 0 41 -16.5t16 -40.5t-16 -40t-41 -16q-23 0 -39.5 16t-16.5 40t16.5 40.5t39.5 16.5z" />
    <glyph glyph-name="multiply" unicode="&#xd7;" horiz-adv-x="552" 
d="M276 371l158 158l52 -52l-158 -158l158 -158l-52 -52l-158 158l-158 -158l-52 52l158 158l-158 158l52 52z" />
    <glyph glyph-name="Oslash" unicode="&#xd8;" horiz-adv-x="713" 
d="M426 708q101 0 167 -63l81 84l50 -48l-89 -92q38 -71 38 -164q0 -219 -151 -348q-98 -85 -235 -85q-101 0 -167 63l-81 -84l-50 48l88 92q-37 67 -37 164q0 219 151 348q98 85 235 85zM581 417q0 54 -15 100l-383 -397q44 -44 119 -44q105 0 181 82q98 104 98 259z
M411 624q-105 0 -181 -82q-98 -104 -98 -259q0 -59 15 -101l382 397q-42 45 -118 45z" />
    <glyph glyph-name="Ugrave" unicode="&#xd9;" horiz-adv-x="672" 
d="M76 238l89 462h89l-91 -468q-4 -23 -4 -40q0 -116 122 -116q75 0 123.5 40.5t62.5 115.5l91 468h89l-89 -462q-46 -246 -288 -246q-90 0 -145 49t-55 130q0 35 6 67zM306 900h121l48 -144h-68z" />
    <glyph glyph-name="Uacute" unicode="&#xda;" horiz-adv-x="672" 
d="M76 238l89 462h89l-91 -468q-4 -23 -4 -40q0 -116 122 -116q75 0 123.5 40.5t62.5 115.5l91 468h89l-89 -462q-46 -246 -288 -246q-90 0 -145 49t-55 130q0 35 6 67zM412 756h-72l97 144h123z" />
    <glyph glyph-name="Ucircumflex" unicode="&#xdb;" horiz-adv-x="672" 
d="M76 238l89 462h89l-91 -468q-4 -23 -4 -40q0 -116 122 -116q75 0 123.5 40.5t62.5 115.5l91 468h89l-89 -462q-46 -246 -288 -246q-90 0 -145 49t-55 130q0 35 6 67zM342 762h-98l179 164h31l124 -164h-89l-61 80z" />
    <glyph glyph-name="Udieresis" unicode="&#xdc;" horiz-adv-x="671" 
d="M76 238l89 462h89l-91 -468q-4 -23 -4 -40q0 -116 122 -116q75 0 123.5 40.5t62.5 115.5l91 468h89l-89 -462q-46 -246 -288 -246q-90 0 -145 49t-55 130q0 35 6 67zM344 904q25 0 41 -16.5t16 -40.5t-16 -40t-41 -16q-23 0 -39.5 16t-16.5 40t16.5 40.5t39.5 16.5z
M510 904q25 0 41 -16.5t16 -40.5t-16 -40t-41 -16q-23 0 -39.5 16t-16.5 40t16.5 40.5t39.5 16.5z" />
    <glyph glyph-name="Yacute" unicode="&#xdd;" horiz-adv-x="484" 
d="M123 0l59 302l-126 398h94l91 -310l210 310h99l-279 -398l-59 -302h-89zM309 756h-72l97 144h123z" />
    <glyph glyph-name="Thorn" unicode="&#xde;" horiz-adv-x="578" 
d="M124 0h-89l136 700h89l-29 -150h135q85 0 136 -45t51 -121q0 -113 -68.5 -173.5t-189.5 -60.5h-142zM169 234h153q63 0 100.5 35.5t37.5 98.5q0 47 -25.5 72.5t-74.5 25.5h-146z" />
    <glyph glyph-name="germandbls" unicode="&#xdf;" horiz-adv-x="578" 
d="M105 344h-50l14 76h50l17 85q20 98 82 150q64 53 146 53q72 0 113.5 -41t41.5 -111q0 -129 -116 -171q45 -14 73.5 -54.5t28.5 -103.5q0 -111 -71 -173t-178 -62q-56 0 -83 7l15 76q31 -7 70 -7q78 0 120 38t42 109q0 62 -33.5 95.5t-92.5 33.5h-27l14 76h35
q55 0 88.5 32t33.5 86q0 45 -23.5 69.5t-65.5 24.5q-49 0 -83.5 -34t-46.5 -96l-98 -502h-83z" />
    <glyph glyph-name="agrave" unicode="&#xe0;" horiz-adv-x="586" 
d="M348 0l12 62q-63 -70 -149 -70q-89 0 -136.5 56t-47.5 149q0 131 72 223t201 92q47 0 85.5 -21t48.5 -47l11 60h85l-97 -504h-85zM235 68q54 0 96.5 37t60.5 92q17 54 17 107q0 62 -30 97t-86 35q-85 0 -131 -66q-46 -65 -46 -150q0 -70 31.5 -111t87.5 -41zM211 704h121
l48 -144h-68z" />
    <glyph glyph-name="aacute" unicode="&#xe1;" horiz-adv-x="586" 
d="M348 0l12 62q-63 -70 -149 -70q-89 0 -136.5 56t-47.5 149q0 131 72 223t201 92q47 0 85.5 -21t48.5 -47l11 60h85l-97 -504h-85zM235 68q54 0 96.5 37t60.5 92q17 54 17 107q0 62 -30 97t-86 35q-85 0 -131 -66q-46 -65 -46 -150q0 -70 31.5 -111t87.5 -41zM322 560h-72
l97 144h123z" />
    <glyph glyph-name="acircumflex" unicode="&#xe2;" horiz-adv-x="586" 
d="M348 0l12 62q-63 -70 -149 -70q-89 0 -136.5 56t-47.5 149q0 131 72 223t201 92q47 0 85.5 -21t48.5 -47l11 60h85l-97 -504h-85zM235 68q54 0 96.5 37t60.5 92q17 54 17 107q0 62 -30 97t-86 35q-85 0 -131 -66q-46 -65 -46 -150q0 -70 31.5 -111t87.5 -41zM268 566h-98
l179 164h31l124 -164h-89l-61 80z" />
    <glyph glyph-name="atilde" unicode="&#xe3;" horiz-adv-x="586" 
d="M348 0l12 62q-63 -70 -149 -70q-89 0 -136.5 56t-47.5 149q0 131 72 223t201 92q47 0 85.5 -21t48.5 -47l11 60h85l-97 -504h-85zM235 68q54 0 96.5 37t60.5 92q17 54 17 107q0 62 -30 97t-86 35q-85 0 -131 -66q-46 -65 -46 -150q0 -70 31.5 -111t87.5 -41zM214 585
l-41 42q54 73 121 73q35 0 66 -20q32 -20 54 -20q38 0 73 35l41 -43q-54 -72 -121 -72q-35 0 -67 20q-31 20 -53 20q-38 0 -73 -35z" />
    <glyph glyph-name="adieresis" unicode="&#xe4;" horiz-adv-x="586" 
d="M348 0l12 62q-63 -70 -149 -70q-89 0 -136.5 56t-47.5 149q0 131 72 223t201 92q47 0 85.5 -21t48.5 -47l11 60h85l-97 -504h-85zM235 68q54 0 96.5 37t60.5 92q17 54 17 107q0 62 -30 97t-86 35q-85 0 -131 -66q-46 -65 -46 -150q0 -70 31.5 -111t87.5 -41zM271 708
q25 0 41 -16.5t16 -40.5t-16 -40t-41 -16q-23 0 -39.5 16t-16.5 40t16.5 40.5t39.5 16.5zM437 708q25 0 41 -16.5t16 -40.5t-16 -40t-41 -16q-23 0 -39.5 16t-16.5 40t16.5 40.5t39.5 16.5z" />
    <glyph glyph-name="aring" unicode="&#xe5;" horiz-adv-x="586" 
d="M348 0l12 62q-63 -70 -149 -70q-89 0 -136.5 56t-47.5 149q0 131 72 223t201 92q47 0 85.5 -21t48.5 -47l11 60h85l-97 -504h-85zM235 68q54 0 96.5 37t60.5 92q17 54 17 107q0 62 -30 97t-86 35q-85 0 -131 -66q-46 -65 -46 -150q0 -70 31.5 -111t87.5 -41zM253 653
q0 42 28.5 71t70.5 29t70.5 -29t28.5 -71q0 -41 -28 -68.5t-71 -27.5q-42 0 -70.5 27.5t-28.5 68.5zM309 654q-2 -27 20.5 -38t45 0t20.5 38q2 28 -20.5 40t-45 0t-20.5 -40z" />
    <glyph glyph-name="ae" unicode="&#xe6;" horiz-adv-x="891" 
d="M827 273l-8 -39h-374q-3 -20 -3 -36q0 -61 31 -95.5t87 -34.5q52 0 88 23.5t69 75.5l72 -35q-50 -75 -107 -107.5t-137 -32.5q-60 0 -104.5 29t-66.5 80q-67 -109 -187 -109q-75 0 -117.5 38t-42.5 101q0 90 60 134.5t164 44.5h122l5 22q2 14 2 24q0 80 -93 80
q-79 0 -113 -81l-76 19q24 66 77 102t127 36q52 0 91.5 -22t57.5 -61q83 83 195 83q86 0 136 -51t50 -138q0 -18 -5 -50zM197 68q58 0 100.5 38.5t56.5 115.5l2 12h-123q-54 0 -85.5 -23.5t-31.5 -67.5q0 -35 22 -55t59 -20zM631 436q-54 0 -99 -34.5t-67 -91.5h278
q0 126 -112 126z" />
    <glyph glyph-name="ccedilla" unicode="&#xe7;" horiz-adv-x="540" 
d="M380 170l71 -37q-53 -79 -105 -111q-52 -30 -132 -30q-85 0 -136 58t-51 153q0 121 77 215q78 94 210 94q146 0 181 -140l-76 -29q-25 93 -120 93q-81 0 -132 -67q-51 -66 -51 -157q0 -67 30.5 -105.5t82.5 -38.5q48 0 83 24t68 78zM201 -60h74l-111 -175l-89 45z" />
    <glyph glyph-name="egrave" unicode="&#xe8;" horiz-adv-x="562" 
d="M498 273l-8 -39h-373q-3 -20 -3 -36q0 -61 30.5 -95.5t86.5 -34.5q52 0 88 23.5t69 75.5l72 -35q-50 -75 -107 -107.5t-137 -32.5q-87 0 -139 58t-52 154q0 118 84 213t208 95q86 0 136 -51t50 -138q0 -18 -5 -50zM302 436q-54 0 -99 -34.5t-67 -91.5h278q0 126 -112 126
zM225 704h121l48 -144h-68z" />
    <glyph glyph-name="eacute" unicode="&#xe9;" horiz-adv-x="562" 
d="M498 273l-8 -39h-373q-3 -20 -3 -36q0 -61 30.5 -95.5t86.5 -34.5q52 0 88 23.5t69 75.5l72 -35q-50 -75 -107 -107.5t-137 -32.5q-87 0 -139 58t-52 154q0 118 84 213t208 95q86 0 136 -51t50 -138q0 -18 -5 -50zM302 436q-54 0 -99 -34.5t-67 -91.5h278q0 126 -112 126
zM330 560h-72l97 144h123z" />
    <glyph glyph-name="ecircumflex" unicode="&#xea;" horiz-adv-x="562" 
d="M498 273l-8 -39h-373q-3 -20 -3 -36q0 -61 30.5 -95.5t86.5 -34.5q52 0 88 23.5t69 75.5l72 -35q-50 -75 -107 -107.5t-137 -32.5q-87 0 -139 58t-52 154q0 118 84 213t208 95q86 0 136 -51t50 -138q0 -18 -5 -50zM302 436q-54 0 -99 -34.5t-67 -91.5h278q0 126 -112 126
zM267 566h-98l179 164h31l124 -164h-89l-61 80z" />
    <glyph glyph-name="edieresis" unicode="&#xeb;" horiz-adv-x="562" 
d="M498 273l-8 -39h-373q-3 -20 -3 -36q0 -61 30.5 -95.5t86.5 -34.5q52 0 88 23.5t69 75.5l72 -35q-50 -75 -107 -107.5t-137 -32.5q-87 0 -139 58t-52 154q0 118 84 213t208 95q86 0 136 -51t50 -138q0 -18 -5 -50zM302 436q-54 0 -99 -34.5t-67 -91.5h278q0 126 -112 126
zM254 708q25 0 41 -16.5t16 -40.5t-16 -40t-41 -16q-23 0 -39.5 16t-16.5 40t16.5 40.5t39.5 16.5zM420 708q25 0 41 -16.5t16 -40.5t-16 -40t-41 -16q-23 0 -39.5 16t-16.5 40t16.5 40.5t39.5 16.5z" />
    <glyph glyph-name="igrave" unicode="&#xec;" horiz-adv-x="276" 
d="M30 0l98 504h85l-98 -504h-85zM75 704h121l48 -144h-68z" />
    <glyph glyph-name="iacute" unicode="&#xed;" horiz-adv-x="276" 
d="M30 0l98 504h85l-98 -504h-85zM197 560h-72l97 144h123z" />
    <glyph glyph-name="icircumflex" unicode="&#xee;" horiz-adv-x="276" 
d="M30 0l98 504h85l-98 -504h-85zM109 566h-98l179 164h31l124 -164h-89l-61 80z" />
    <glyph glyph-name="idieresis" unicode="&#xef;" horiz-adv-x="276" 
d="M30 0l98 504h85l-98 -504h-85zM110 708q25 0 41 -16.5t16 -40.5t-16 -40t-41 -16q-23 0 -39.5 16t-16.5 40t16.5 40.5t39.5 16.5zM276 708q25 0 41 -16.5t16 -40.5t-16 -40t-41 -16q-23 0 -39.5 16t-16.5 40t16.5 40.5t39.5 16.5z" />
    <glyph glyph-name="eth" unicode="&#xf0;" horiz-adv-x="575" 
d="M333 604l-53 -62l-51 42l51 60q-33 22 -71 38l49 58q44 -20 72 -39l48 54l49 -42l-43 -51q60 -45 93 -123.5t33 -168.5q0 -165 -74 -272q-73 -106 -221 -106q-90 0 -139 61t-49 154q0 127 76 215q77 90 201 90q34 0 65.5 -12t45.5 -32q-15 85 -82 136zM296 436
q-82 0 -132 -69q-48 -69 -48 -159q0 -65 29 -102.5t85 -37.5q83 0 134 67t51 156q0 145 -119 145z" />
    <glyph glyph-name="ntilde" unicode="&#xf1;" 
d="M496 355l-69 -355h-85l64 333q4 21 4 35q0 68 -67 68q-54 0 -111 -63q-56 -62 -76 -162l-41 -211h-85l98 504h85l-18 -93q77 101 182 101q58 0 90 -29t32 -81q0 -24 -3 -47zM207 585l-41 42q54 73 121 73q35 0 66 -20q32 -20 54 -20q38 0 73 35l41 -43q-54 -72 -121 -72
q-35 0 -67 20q-31 20 -53 20q-38 0 -73 -35z" />
    <glyph glyph-name="ograve" unicode="&#xf2;" horiz-adv-x="573" 
d="M27 204q0 124 69 210q80 98 213 98q93 0 146 -56t53 -156q0 -124 -69 -210q-80 -98 -213 -98q-93 0 -146 56t-53 156zM301 436q-84 0 -140 -71q-45 -57 -45 -149q0 -70 30.5 -109t87.5 -39q84 0 140 71q45 57 45 149q0 70 -30.5 109t-87.5 39zM224 704h121l48 -144h-68z
" />
    <glyph glyph-name="oacute" unicode="&#xf3;" horiz-adv-x="573" 
d="M27 204q0 124 69 210q80 98 213 98q93 0 146 -56t53 -156q0 -124 -69 -210q-80 -98 -213 -98q-93 0 -146 56t-53 156zM301 436q-84 0 -140 -71q-45 -57 -45 -149q0 -70 30.5 -109t87.5 -39q84 0 140 71q45 57 45 149q0 70 -30.5 109t-87.5 39zM332 560h-72l97 144h123z
" />
    <glyph glyph-name="ocircumflex" unicode="&#xf4;" horiz-adv-x="573" 
d="M27 204q0 124 69 210q80 98 213 98q93 0 146 -56t53 -156q0 -124 -69 -210q-80 -98 -213 -98q-93 0 -146 56t-53 156zM301 436q-84 0 -140 -71q-45 -57 -45 -149q0 -70 30.5 -109t87.5 -39q84 0 140 71q45 57 45 149q0 70 -30.5 109t-87.5 39zM247 566h-98l179 164h31
l124 -164h-89l-61 80z" />
    <glyph glyph-name="otilde" unicode="&#xf5;" horiz-adv-x="573" 
d="M27 204q0 124 69 210q80 98 213 98q93 0 146 -56t53 -156q0 -124 -69 -210q-80 -98 -213 -98q-93 0 -146 56t-53 156zM301 436q-84 0 -140 -71q-45 -57 -45 -149q0 -70 30.5 -109t87.5 -39q84 0 140 71q45 57 45 149q0 70 -30.5 109t-87.5 39zM200 585l-41 42
q54 73 121 73q35 0 66 -20q32 -20 54 -20q38 0 73 35l41 -43q-54 -72 -121 -72q-35 0 -67 20q-31 20 -53 20q-38 0 -73 -35z" />
    <glyph glyph-name="odieresis" unicode="&#xf6;" horiz-adv-x="573" 
d="M27 204q0 124 69 210q80 98 213 98q93 0 146 -56t53 -156q0 -124 -69 -210q-80 -98 -213 -98q-93 0 -146 56t-53 156zM301 436q-84 0 -140 -71q-45 -57 -45 -149q0 -70 30.5 -109t87.5 -39q84 0 140 71q45 57 45 149q0 70 -30.5 109t-87.5 39zM263 708q25 0 41 -16.5
t16 -40.5t-16 -40t-41 -16q-23 0 -39.5 16t-16.5 40t16.5 40.5t39.5 16.5zM429 708q25 0 41 -16.5t16 -40.5t-16 -40t-41 -16q-23 0 -39.5 16t-16.5 40t16.5 40.5t39.5 16.5z" />
    <glyph glyph-name="divide" unicode="&#xf7;" horiz-adv-x="576" 
d="M227 128q0 26 18 44.5t45 18.5q26 0 44.5 -18.5t18.5 -44.5q0 -27 -18.5 -45t-44.5 -18q-27 0 -45 18t-18 45zM227 502q0 26 18 44.5t45 18.5q26 0 44.5 -18.5t18.5 -44.5q0 -27 -18.5 -45t-44.5 -18q-27 0 -45 18t-18 45zM510 280h-440v74h440v-74z" />
    <glyph glyph-name="oslash" unicode="&#xf8;" horiz-adv-x="573" 
d="M27 204q0 124 69 210q80 98 213 98q76 0 127 -39l74 76l51 -48l-80 -82q27 -48 27 -119q0 -124 -68 -210q-80 -98 -214 -98q-76 0 -125 39l-74 -76l-51 48l79 81q-28 49 -28 120zM301 436q-84 0 -140 -71q-45 -57 -45 -149q0 -46 6 -64l254 259q-28 25 -75 25zM419 288
q0 40 -6 62l-253 -259q29 -23 74 -23q84 0 140 71q45 57 45 149z" />
    <glyph glyph-name="ugrave" unicode="&#xf9;" 
d="M55 149l69 355h85l-64 -333q-4 -21 -4 -35q0 -68 67 -68q54 0 111 63q56 62 76 162l41 211h85l-98 -504h-85l18 93q-77 -101 -182 -101q-58 0 -90 29t-32 81q0 24 3 47zM236 704h121l48 -144h-68z" />
    <glyph glyph-name="uacute" unicode="&#xfa;" 
d="M55 149l69 355h85l-64 -333q-4 -21 -4 -35q0 -68 67 -68q54 0 111 63q56 62 76 162l41 211h85l-98 -504h-85l18 93q-77 -101 -182 -101q-58 0 -90 29t-32 81q0 24 3 47zM327 560h-72l97 144h123z" />
    <glyph glyph-name="ucircumflex" unicode="&#xfb;" 
d="M55 149l69 355h85l-64 -333q-4 -21 -4 -35q0 -68 67 -68q54 0 111 63q56 62 76 162l41 211h85l-98 -504h-85l18 93q-77 -101 -182 -101q-58 0 -90 29t-32 81q0 24 3 47zM273 566h-98l179 164h31l124 -164h-89l-61 80z" />
    <glyph glyph-name="udieresis" unicode="&#xfc;" 
d="M55 149l69 355h85l-64 -333q-4 -21 -4 -35q0 -68 67 -68q54 0 111 63q56 62 76 162l41 211h85l-98 -504h-85l18 93q-77 -101 -182 -101q-58 0 -90 29t-32 81q0 24 3 47zM258 708q25 0 41 -16.5t16 -40.5t-16 -40t-41 -16q-23 0 -39.5 16t-16.5 40t16.5 40.5t39.5 16.5z
M424 708q25 0 41 -16.5t16 -40.5t-16 -40t-41 -16q-23 0 -39.5 16t-16.5 40t16.5 40.5t39.5 16.5z" />
    <glyph glyph-name="yacute" unicode="&#xfd;" horiz-adv-x="472" 
d="M188 140l194 364h89l-385 -708h-89l125 236l-81 472h89zM259 560h-72l97 144h123z" />
    <glyph glyph-name="thorn" unicode="&#xfe;" horiz-adv-x="594" 
d="M529 300q0 -131 -70 -219q-71 -89 -201 -89q-40 0 -81 21q-39 23 -51 49l-52 -266h-84l176 912h85l-51 -264q25 29 66 48.5t84 19.5q83 0 131 -54.5t48 -157.5zM265 68q81 0 128 66q47 67 47 154q0 148 -113 148q-75 0 -126 -69t-51 -156q0 -68 31 -105.5t84 -37.5z" />
    <glyph glyph-name="ydieresis" unicode="&#xff;" horiz-adv-x="466" 
d="M188 140l194 364h89l-385 -708h-89l125 236l-81 472h89zM189 708q25 0 41 -16.5t16 -40.5t-16 -40t-41 -16q-23 0 -39.5 16t-16.5 40t16.5 40.5t39.5 16.5zM355 708q25 0 41 -16.5t16 -40.5t-16 -40t-41 -16q-23 0 -39.5 16t-16.5 40t16.5 40.5t39.5 16.5z" />
    <glyph glyph-name="Amacron" unicode="&#x100;" horiz-adv-x="574" 
d="M495 768h-249l15 76h249zM-57 0l372 700h85l106 -700h-89l-25 187h-261l-99 -187h-89zM380 271l-45 315l-160 -315h205z" />
    <glyph glyph-name="amacron" unicode="&#x101;" horiz-adv-x="586" 
d="M436 572h-249l15 76h249zM530 504l-97 -504h-85l12 62q-63 -70 -149 -70q-89 0 -136.5 56t-47.5 149q0 131 72 223t201 92q47 0 85.5 -21t48.5 -47l11 60h85zM235 68q57 0 98 38q76 71 76 198q0 62 -30 97t-86 35q-85 0 -131 -66q-46 -65 -46 -150q0 -70 31.5 -111
t87.5 -41z" />
    <glyph glyph-name="Abreve" unicode="&#x102;" horiz-adv-x="574" 
d="M436 877h67q-13 -51 -48 -80t-84 -29q-40 0 -66 24t-26 63q0 4 2 22h67q-1 -3 -1 -10q0 -16 10 -25.5t26 -9.5q44 0 53 45zM-57 0l372 700h85l106 -700h-89l-25 187h-261l-99 -187h-89zM380 271l-45 315l-160 -315h205z" />
    <glyph glyph-name="abreve" unicode="&#x103;" horiz-adv-x="586" 
d="M377 681h67q-13 -51 -48 -80t-84 -29q-40 0 -66 24t-26 63q0 4 2 22h67q-1 -3 -1 -10q0 -16 10 -25.5t26 -9.5q44 0 53 45zM530 504l-97 -504h-85l12 62q-63 -70 -149 -70q-89 0 -136.5 56t-47.5 149q0 131 72 223t201 92q47 0 85.5 -21t48.5 -47l11 60h85zM235 68
q57 0 98 38q76 71 76 198q0 62 -30 97t-86 35q-85 0 -131 -66q-46 -65 -46 -150q0 -70 31.5 -111t87.5 -41z" />
    <glyph glyph-name="Aogonek" unicode="&#x104;" horiz-adv-x="574" 
d="M193 6h62q-73 -49 -73 -85q0 -25 25 -25q26 0 63 41l36 -35q-31 -38 -59 -54.5t-63 -16.5q-32 0 -51.5 18t-19.5 49q0 57 80 108zM-57 0l372 700h85l106 -700h-89l-25 187h-261l-99 -187h-89zM380 271l-45 315l-160 -315h205z" />
    <glyph glyph-name="aogonek" unicode="&#x105;" horiz-adv-x="586" 
d="M530 504l-97 -504h-85l12 62q-53 -60 -126 -68q-66 -46 -66 -81q0 -25 25 -25q26 0 63 41l36 -35q-31 -38 -59 -54.5t-63 -16.5q-32 0 -51.5 18t-19.5 49q0 56 75 105q-71 11 -109 65t-38 137q0 131 72 223t201 92q47 0 85.5 -21t48.5 -47l11 60h85zM235 68q57 0 98 38
q76 71 76 198q0 62 -30 97t-86 35q-85 0 -131 -66q-46 -65 -46 -150q0 -70 31.5 -111t87.5 -41z" />
    <glyph glyph-name="Cacute" unicode="&#x106;" horiz-adv-x="662" 
d="M475 768h-72l97 144h123zM517 229l78 -25q-98 -212 -302 -212q-114 0 -184 73t-70 207q0 114 45 211q45 98 135 161q89 64 208 64q98 0 160 -62q61 -61 67 -150l-85 -23q-24 151 -158 151q-89 0 -154 -52q-126 -98 -126 -290q0 -100 44 -153t129 -53q69 0 119.5 36
t93.5 117z" />
    <glyph glyph-name="cacute" unicode="&#x107;" horiz-adv-x="540" 
d="M362 572h-72l97 144h123zM380 170l71 -37q-53 -79 -105 -111q-52 -30 -132 -30q-85 0 -136 58t-51 153q0 121 77 215q78 94 210 94q146 0 181 -140l-76 -29q-25 93 -120 93q-81 0 -132 -67q-51 -66 -51 -157q0 -67 30.5 -105.5t82.5 -38.5q48 0 83 24t68 78z" />
    <glyph glyph-name="Ccircumflex" unicode="&#x108;" horiz-adv-x="662" 
d="M370 768h-98l179 164h31l124 -164h-89l-61 80zM517 229l78 -25q-98 -212 -302 -212q-114 0 -184 73t-70 207q0 114 45 211q45 98 135 161q89 64 208 64q98 0 160 -62q61 -61 67 -150l-85 -23q-24 151 -158 151q-89 0 -154 -52q-126 -98 -126 -290q0 -100 44 -153t129 -53
q69 0 119.5 36t93.5 117z" />
    <glyph glyph-name="ccircumflex" unicode="&#x109;" horiz-adv-x="540" 
d="M257 572h-98l179 164h31l124 -164h-89l-61 80zM380 170l71 -37q-53 -79 -105 -111q-52 -30 -132 -30q-85 0 -136 58t-51 153q0 121 77 215q78 94 210 94q146 0 181 -140l-76 -29q-25 93 -120 93q-81 0 -132 -67q-51 -66 -51 -157q0 -67 30.5 -105.5t82.5 -38.5
q48 0 83 24t68 78z" />
    <glyph glyph-name="Cdotaccent" unicode="&#x10a;" horiz-adv-x="662" 
d="M388 830q0 27 18.5 45.5t44.5 18.5q27 0 45 -18.5t18 -45.5q0 -26 -18 -44t-45 -18q-26 0 -44.5 18t-18.5 44zM517 229l78 -25q-98 -212 -302 -212q-114 0 -184 73t-70 207q0 114 45 211q45 98 135 161q89 64 208 64q98 0 160 -62q61 -61 67 -150l-85 -23
q-24 151 -158 151q-89 0 -154 -52q-126 -98 -126 -290q0 -100 44 -153t129 -53q69 0 119.5 36t93.5 117z" />
    <glyph glyph-name="cdotaccent" unicode="&#x10b;" horiz-adv-x="540" 
d="M275 634q0 27 18.5 45.5t44.5 18.5q27 0 45 -18.5t18 -45.5q0 -26 -18 -44t-45 -18q-26 0 -44.5 18t-18.5 44zM380 170l71 -37q-53 -79 -105 -111q-52 -30 -132 -30q-85 0 -136 58t-51 153q0 121 77 215q78 94 210 94q146 0 181 -140l-76 -29q-25 93 -120 93
q-81 0 -132 -67q-51 -66 -51 -157q0 -67 30.5 -105.5t82.5 -38.5q48 0 83 24t68 78z" />
    <glyph glyph-name="Ccaron" unicode="&#x10c;" horiz-adv-x="662" 
d="M540 932h98l-179 -164h-31l-124 164h89l61 -80zM517 229l78 -25q-98 -212 -302 -212q-114 0 -184 73t-70 207q0 114 45 211q45 98 135 161q89 64 208 64q98 0 160 -62q61 -61 67 -150l-85 -23q-24 151 -158 151q-89 0 -154 -52q-126 -98 -126 -290q0 -100 44 -153
t129 -53q69 0 119.5 36t93.5 117z" />
    <glyph glyph-name="ccaron" unicode="&#x10d;" horiz-adv-x="540" 
d="M427 736h98l-179 -164h-31l-124 164h89l61 -80zM380 170l71 -37q-53 -79 -105 -111q-52 -30 -132 -30q-85 0 -136 58t-51 153q0 121 77 215q78 94 210 94q146 0 181 -140l-76 -29q-25 93 -120 93q-81 0 -132 -67q-51 -66 -51 -157q0 -67 30.5 -105.5t82.5 -38.5
q48 0 83 24t68 78z" />
    <glyph glyph-name="Dcaron" unicode="&#x10e;" horiz-adv-x="669" 
d="M541 932h98l-179 -164h-31l-124 164h89l61 -80zM35 0l137 700h180q128 0 202 -72.5t74 -206.5q0 -179 -112 -300q-111 -121 -287 -121h-194zM333 616h-89l-103 -532h89q138 0 220 93q83 95 83 235q0 101 -51 152.5t-149 51.5z" />
    <glyph glyph-name="dcaron" unicode="&#x10f;" horiz-adv-x="612" 
d="M688 491h-63l102 217h117zM302 512q46 0 83.5 -18.5t55.5 -49.5l51 264h85l-138 -708h-85l13 62q-64 -70 -158 -70q-86 0 -134 52t-48 142q0 134 75 230t200 96zM116 208q0 -65 30.5 -102.5t85.5 -37.5q58 0 102 39q82 74 82 199q0 63 -32.5 96.5t-88.5 33.5
q-57 0 -100 -37q-79 -69 -79 -191z" />
    <glyph glyph-name="Dcroat" unicode="&#x110;" horiz-adv-x="669" 
d="M95 308h-58l17 84h57l61 308h180q128 0 202 -72.5t74 -206.5q0 -179 -112 -300q-111 -121 -287 -121h-194zM333 616h-89l-44 -224h130l-17 -84h-129l-43 -224h89q138 0 220 93q83 95 83 235q0 101 -51 152.5t-149 51.5z" />
    <glyph glyph-name="Emacron" unicode="&#x112;" horiz-adv-x="563" 
d="M508 768h-249l15 76h249zM35 0l137 700h396l-17 -84h-307l-39 -201h250l-16 -84h-250l-48 -247h317l-17 -84h-406z" />
    <glyph glyph-name="emacron" unicode="&#x113;" horiz-adv-x="562" 
d="M453 572h-249l15 76h249zM498 273l-8 -39h-373q-3 -20 -3 -36q0 -61 30.5 -95.5t86.5 -34.5q52 0 88 23.5t69 75.5l72 -35q-50 -75 -107 -107.5t-137 -32.5q-87 0 -139 58t-52 154q0 118 84 213t208 95q86 0 136 -51t50 -138q0 -18 -5 -50zM302 436q-54 0 -99 -34.5
t-67 -91.5h278q0 126 -112 126z" />
    <glyph glyph-name="Ebreve" unicode="&#x114;" horiz-adv-x="563" 
d="M449 877h67q-13 -51 -48 -80t-84 -29q-40 0 -66 24t-26 63q0 4 2 22h67q-1 -3 -1 -10q0 -16 10 -25.5t26 -9.5q44 0 53 45zM35 0l137 700h396l-17 -84h-307l-39 -201h250l-16 -84h-250l-48 -247h317l-17 -84h-406z" />
    <glyph glyph-name="ebreve" unicode="&#x115;" horiz-adv-x="562" 
d="M394 681h67q-13 -51 -48 -80t-84 -29q-40 0 -66 24t-26 63q0 4 2 22h67q-1 -3 -1 -10q0 -16 10 -25.5t26 -9.5q44 0 53 45zM498 273l-8 -39h-373q-3 -20 -3 -36q0 -61 30.5 -95.5t86.5 -34.5q52 0 88 23.5t69 75.5l72 -35q-50 -75 -107 -107.5t-137 -32.5q-87 0 -139 58
t-52 154q0 118 84 213t208 95q86 0 136 -51t50 -138q0 -18 -5 -50zM302 436q-54 0 -99 -34.5t-67 -91.5h278q0 126 -112 126z" />
    <glyph glyph-name="Edotaccent" unicode="&#x116;" horiz-adv-x="563" 
d="M333 830q0 27 18.5 45.5t44.5 18.5q27 0 45 -18.5t18 -45.5q0 -26 -18 -44t-45 -18q-26 0 -44.5 18t-18.5 44zM35 0l137 700h396l-17 -84h-307l-39 -201h250l-16 -84h-250l-48 -247h317l-17 -84h-406z" />
    <glyph glyph-name="edotaccent" unicode="&#x117;" horiz-adv-x="562" 
d="M278 634q0 27 18.5 45.5t44.5 18.5q27 0 45 -18.5t18 -45.5q0 -26 -18 -44t-45 -18q-26 0 -44.5 18t-18.5 44zM498 273l-8 -39h-373q-3 -20 -3 -36q0 -61 30.5 -95.5t86.5 -34.5q52 0 88 23.5t69 75.5l72 -35q-50 -75 -107 -107.5t-137 -32.5q-87 0 -139 58t-52 154
q0 118 84 213t208 95q86 0 136 -51t50 -138q0 -18 -5 -50zM302 436q-54 0 -99 -34.5t-67 -91.5h278q0 126 -112 126z" />
    <glyph glyph-name="Eogonek" unicode="&#x118;" horiz-adv-x="563" 
d="M35 0l137 700h396l-17 -84h-307l-39 -201h250l-16 -84h-250l-48 -247h317l-17 -84h-182q-64 -45 -64 -79q0 -25 25 -25q26 0 63 41l36 -35q-31 -38 -59 -54.5t-63 -16.5q-32 0 -51.5 18t-19.5 49q0 54 70 102h-161z" />
    <glyph glyph-name="eogonek" unicode="&#x119;" horiz-adv-x="562" 
d="M498 273l-8 -39h-373q-3 -20 -3 -36q0 -61 30.5 -95.5t86.5 -34.5q52 0 88 23.5t69 75.5l72 -35q-50 -75 -107 -107.5t-137 -32.5h-10q-64 -45 -64 -79q0 -25 25 -25q26 0 63 41l36 -35q-31 -38 -59 -54.5t-63 -16.5q-32 0 -51.5 18t-19.5 49q0 57 80 108h10
q-52 12 -86 52q-52 58 -52 154q0 118 84 213t208 95q86 0 136 -51t50 -138q0 -18 -5 -50zM302 436q-54 0 -99 -34.5t-67 -91.5h278q0 126 -112 126z" />
    <glyph glyph-name="Ecaron" unicode="&#x11a;" horiz-adv-x="563" 
d="M485 932h98l-179 -164h-31l-124 164h89l61 -80zM35 0l137 700h396l-17 -84h-307l-39 -201h250l-16 -84h-250l-48 -247h317l-17 -84h-406z" />
    <glyph glyph-name="ecaron" unicode="&#x11b;" horiz-adv-x="562" 
d="M430 736h98l-179 -164h-31l-124 164h89l61 -80zM498 273l-8 -39h-373q-3 -20 -3 -36q0 -61 30.5 -95.5t86.5 -34.5q52 0 88 23.5t69 75.5l72 -35q-50 -75 -107 -107.5t-137 -32.5q-87 0 -139 58t-52 154q0 118 84 213t208 95q86 0 136 -51t50 -138q0 -18 -5 -50zM302 436
q-54 0 -99 -34.5t-67 -91.5h278q0 126 -112 126z" />
    <glyph glyph-name="Gcircumflex" unicode="&#x11c;" horiz-adv-x="698" 
d="M369 768h-98l179 164h31l124 -164h-89l-61 80zM527 269h-144l16 84h236l-69 -353h-76l9 96q-42 -55 -92 -79.5t-121 -24.5q-103 0 -175 73t-72 212q0 112 44 211q44 96 135 158t208 62q100 0 162 -59q63 -59 68 -152l-88 -23q-20 150 -158 150q-123 0 -201 -99t-78 -235
q0 -104 44.5 -159t127.5 -55q81 0 140 51.5t84 141.5z" />
    <glyph glyph-name="gcircumflex" unicode="&#x11d;" horiz-adv-x="510" 
d="M417 597h-98l179 164h31l124 -164h-89l-61 80zM84 311q0 88 56 144q57 57 149 57q50 0 91 -23l94 48l30 -66l-75 -38q11 -27 11 -64q0 -84 -59 -140q-58 -55 -147 -55q-43 0 -81 20q-47 -18 -47 -55q0 -16 12.5 -27t32.5 -11h115q141 0 141 -121q0 -94 -73 -143
q-71 -49 -177 -49q-79 0 -129 40q-51 39 -51 104q0 74 66 127q-21 23 -21 63q0 70 84 113q-22 32 -22 76zM241 29h-97q-10 0 -36 2q-46 -24 -46 -81q0 -41 27.5 -65.5t82.5 -24.5q59 0 102 25q44 26 44 80q0 64 -77 64zM279 440q-48 0 -79.5 -32t-31.5 -82q0 -38 20.5 -59
t56.5 -21q48 0 79.5 30.5t31.5 80.5q0 40 -20.5 61.5t-56.5 21.5z" />
    <glyph glyph-name="Gbreve" unicode="&#x11e;" horiz-adv-x="698" 
d="M503 877h67q-13 -51 -48 -80t-84 -29q-40 0 -66 24t-26 63q0 4 2 22h67q-1 -3 -1 -10q0 -16 10 -25.5t26 -9.5q44 0 53 45zM527 269h-144l16 84h236l-69 -353h-76l9 96q-42 -55 -92 -79.5t-121 -24.5q-103 0 -175 73t-72 212q0 112 44 211q44 96 135 158t208 62
q100 0 162 -59q63 -59 68 -152l-88 -23q-20 150 -158 150q-123 0 -201 -99t-78 -235q0 -104 44.5 -159t127.5 -55q81 0 140 51.5t84 141.5z" />
    <glyph glyph-name="gbreve" unicode="&#x11f;" horiz-adv-x="510" 
d="M551 706h67q-13 -51 -48 -80t-84 -29q-40 0 -66 24t-26 63q0 4 2 22h67q-1 -3 -1 -10q0 -16 10 -25.5t26 -9.5q44 0 53 45zM84 311q0 88 56 144q57 57 149 57q50 0 91 -23l94 48l30 -66l-75 -38q11 -27 11 -64q0 -84 -59 -140q-58 -55 -147 -55q-43 0 -81 20
q-47 -18 -47 -55q0 -16 12.5 -27t32.5 -11h115q141 0 141 -121q0 -94 -73 -143q-71 -49 -177 -49q-79 0 -129 40q-51 39 -51 104q0 74 66 127q-21 23 -21 63q0 70 84 113q-22 32 -22 76zM241 29h-97q-10 0 -36 2q-46 -24 -46 -81q0 -41 27.5 -65.5t82.5 -24.5q59 0 102 25
q44 26 44 80q0 64 -77 64zM279 440q-48 0 -79.5 -32t-31.5 -82q0 -38 20.5 -59t56.5 -21q48 0 79.5 30.5t31.5 80.5q0 40 -20.5 61.5t-56.5 21.5z" />
    <glyph glyph-name="Gdotaccent" unicode="&#x120;" horiz-adv-x="698" 
d="M387 830q0 27 18.5 45.5t44.5 18.5q27 0 45 -18.5t18 -45.5q0 -26 -18 -44t-45 -18q-26 0 -44.5 18t-18.5 44zM527 269h-144l16 84h236l-69 -353h-76l9 96q-42 -55 -92 -79.5t-121 -24.5q-103 0 -175 73t-72 212q0 112 44 211q44 96 135 158t208 62q100 0 162 -59
q63 -59 68 -152l-88 -23q-20 150 -158 150q-123 0 -201 -99t-78 -235q0 -104 44.5 -159t127.5 -55q81 0 140 51.5t84 141.5z" />
    <glyph glyph-name="gdotaccent" unicode="&#x121;" horiz-adv-x="510" 
d="M435 659q0 27 18.5 45.5t44.5 18.5q27 0 45 -18.5t18 -45.5q0 -26 -18 -44t-45 -18q-26 0 -44.5 18t-18.5 44zM84 311q0 88 56 144q57 57 149 57q50 0 91 -23l94 48l30 -66l-75 -38q11 -27 11 -64q0 -84 -59 -140q-58 -55 -147 -55q-43 0 -81 20q-47 -18 -47 -55
q0 -16 12.5 -27t32.5 -11h115q141 0 141 -121q0 -94 -73 -143q-71 -49 -177 -49q-79 0 -129 40q-51 39 -51 104q0 74 66 127q-21 23 -21 63q0 70 84 113q-22 32 -22 76zM241 29h-97q-10 0 -36 2q-46 -24 -46 -81q0 -41 27.5 -65.5t82.5 -24.5q59 0 102 25q44 26 44 80
q0 64 -77 64zM279 440q-48 0 -79.5 -32t-31.5 -82q0 -38 20.5 -59t56.5 -21q48 0 79.5 30.5t31.5 80.5q0 40 -20.5 61.5t-56.5 21.5z" />
    <glyph glyph-name="Gcommaaccent" unicode="&#x122;" horiz-adv-x="698" 
d="M207 -285h-63l102 217h117zM527 269h-144l16 84h236l-69 -353h-76l9 96q-42 -55 -92 -79.5t-121 -24.5q-103 0 -175 73t-72 212q0 112 44 211q44 96 135 158t208 62q100 0 162 -59q63 -59 68 -152l-88 -23q-20 150 -158 150q-123 0 -201 -99t-78 -235q0 -104 44.5 -159
t127.5 -55q81 0 140 51.5t84 141.5z" />
    <glyph glyph-name="Hcircumflex" unicode="&#x124;" horiz-adv-x="695" 
d="M361 768h-98l179 164h31l124 -164h-89l-61 80zM515 414l56 286h89l-137 -700h-89l65 330h-310l-65 -330h-89l137 700h89l-56 -286h310z" />
    <glyph glyph-name="hcircumflex" unicode="&#x125;" horiz-adv-x="584" 
d="M313 768h-98l179 164h31l124 -164h-89l-61 80zM502 350l-68 -350h-85l64 333q3 18 3 36q0 67 -69 67q-56 0 -115 -62q-56 -61 -76 -160l-41 -214h-85l137 708h85l-58 -298q74 102 190 102q57 0 90 -29.5t33 -82.5q0 -18 -5 -50z" />
    <glyph glyph-name="Itilde" unicode="&#x128;" horiz-adv-x="296" 
d="M105 773l-41 42q54 73 121 73q35 0 66 -20q32 -20 54 -20q38 0 73 35l41 -43q-54 -72 -121 -72q-35 0 -67 20q-31 20 -53 20q-38 0 -73 -35zM35 0l137 700h89l-137 -700h-89z" />
    <glyph glyph-name="itilde" unicode="&#x129;" horiz-adv-x="276" 
d="M59 577l-41 42q54 73 121 73q35 0 66 -20q32 -20 54 -20q38 0 73 35l41 -43q-54 -72 -121 -72q-35 0 -67 20q-31 20 -53 20q-38 0 -73 -35zM30 0l98 504h85l-98 -504h-85z" />
    <glyph glyph-name="Imacron" unicode="&#x12a;" horiz-adv-x="296" 
d="M354 768h-249l15 76h249zM35 0l137 700h89l-137 -700h-89z" />
    <glyph glyph-name="imacron" unicode="&#x12b;" horiz-adv-x="276" 
d="M308 572h-249l15 76h249zM30 0l98 504h85l-98 -504h-85z" />
    <glyph glyph-name="Ibreve" unicode="&#x12c;" horiz-adv-x="296" 
d="M295 877h67q-13 -51 -48 -80t-84 -29q-40 0 -66 24t-26 63q0 4 2 22h67q-1 -3 -1 -10q0 -16 10 -25.5t26 -9.5q44 0 53 45zM35 0l137 700h89l-137 -700h-89z" />
    <glyph glyph-name="ibreve" unicode="&#x12d;" horiz-adv-x="276" 
d="M249 681h67q-13 -51 -48 -80t-84 -29q-40 0 -66 24t-26 63q0 4 2 22h67q-1 -3 -1 -10q0 -16 10 -25.5t26 -9.5q44 0 53 45zM30 0l98 504h85l-98 -504h-85z" />
    <glyph glyph-name="Iogonek" unicode="&#x12e;" horiz-adv-x="296" 
d="M17 6h19l136 694h89l-137 -700h-54q-64 -45 -64 -79q0 -25 25 -25q26 0 63 41l36 -35q-31 -38 -59 -54.5t-63 -16.5q-32 0 -51.5 18t-19.5 49q0 57 80 108z" />
    <glyph glyph-name="iogonek" unicode="&#x12f;" horiz-adv-x="276" 
d="M10 6h21l97 498h85l-98 -504h-52q-64 -45 -64 -79q0 -25 25 -25q26 0 63 41l36 -35q-31 -38 -59 -54.5t-63 -16.5q-32 0 -51.5 18t-19.5 49q0 57 80 108zM132 644q0 27 18 45.5t45 18.5t45 -18.5t18 -45.5q0 -26 -18 -44t-45 -18t-45 18t-18 44z" />
    <glyph glyph-name="Idot" unicode="&#x130;" horiz-adv-x="296" 
d="M179 830q0 27 18.5 45.5t44.5 18.5q27 0 45 -18.5t18 -45.5q0 -26 -18 -44t-45 -18q-26 0 -44.5 18t-18.5 44zM35 0l137 700h89l-137 -700h-89z" />
    <glyph glyph-name="dotlessi" unicode="&#x131;" horiz-adv-x="276" 
d="M30 0l98 504h85l-98 -504h-85z" />
    <glyph glyph-name="IJ" unicode="&#x132;" horiz-adv-x="837" 
d="M625 219l93 481h89l-100 -515q-18 -94 -77.5 -143.5t-150.5 -49.5q-80 0 -129 55t-49 128l89 19q0 -118 99 -118q107 0 136 143zM35 0l137 700h89l-137 -700h-89z" />
    <glyph glyph-name="ij" unicode="&#x133;" horiz-adv-x="552" 
d="M196 -212l-8 82q54 13 80 37t35 75l101 522h85l-103 -530q-17 -87 -61.5 -130t-128.5 -56zM408 644q0 27 18 45.5t45 18.5t45 -18.5t18 -45.5q0 -26 -18 -44t-45 -18t-45 18t-18 44zM30 0l98 504h85l-98 -504h-85zM132 644q0 27 18 45.5t45 18.5t45 -18.5t18 -45.5
q0 -26 -18 -44t-45 -18t-45 18t-18 44z" />
    <glyph glyph-name="Jcircumflex" unicode="&#x134;" horiz-adv-x="541" 
d="M411 768h-98l179 164h31l124 -164h-89l-61 80zM329 219l93 481h89l-100 -515q-18 -94 -77.5 -143.5t-150.5 -49.5q-80 0 -129 55t-49 128l89 19q0 -118 99 -118q107 0 136 143z" />
    <glyph glyph-name="jcircumflex" unicode="&#x135;" horiz-adv-x="276" 
d="M138 768h-98l179 164h31l124 -164h-89l-61 80zM-80 -212l-8 82q54 13 80 37t35 75l101 522h85l-103 -530q-17 -87 -61.5 -130t-128.5 -56zM132 644q0 27 18 45.5t45 18.5t45 -18.5t18 -45.5q0 -26 -18 -44t-45 -18t-45 18t-18 44z" />
    <glyph glyph-name="Kcommaaccent" unicode="&#x136;" horiz-adv-x="597" 
d="M192 -277h-63l102 217h117zM283 382l224 -382h-108l-206 353l-69 -353h-89l137 700h89l-55 -281l298 281h120z" />
    <glyph glyph-name="kcommaaccent" unicode="&#x137;" horiz-adv-x="508" 
d="M148 -277h-63l102 217h117zM30 0l137 708h85l-80 -415l216 211h115l-249 -236l171 -268h-103l-158 253l-49 -253h-85z" />
    <glyph glyph-name="Lacute" unicode="&#x139;" horiz-adv-x="506" 
d="M420 768h-72l97 144h123zM35 0l137 700h89l-120 -616h308l-17 -84h-397z" />
    <glyph glyph-name="lacute" unicode="&#x13a;" horiz-adv-x="306" 
d="M276 768h-72l97 144h123zM49 0l137 708h85l-137 -708h-85z" />
    <glyph glyph-name="Lcommaaccent" unicode="&#x13b;" horiz-adv-x="506" 
d="M154 -277h-63l102 217h117zM35 0l137 700h89l-120 -616h308l-17 -84h-397z" />
    <glyph glyph-name="lcommaaccent" unicode="&#x13c;" horiz-adv-x="306" 
d="M12 -277h-63l102 217h117zM49 0l137 708h85l-137 -708h-85z" />
    <glyph glyph-name="Lcaron" unicode="&#x13d;" horiz-adv-x="506" 
d="M680 491h-63l102 217h117zM35 0l137 700h89l-120 -616h308l-17 -84h-397z" />
    <glyph glyph-name="lcaron" unicode="&#x13e;" horiz-adv-x="306" 
d="M382 491h-63l102 217h117zM49 0l137 708h85l-137 -708h-85z" />
    <glyph glyph-name="Ldot" unicode="&#x13f;" horiz-adv-x="506" 
d="M239 354q0 26 18 44.5t45 18.5q26 0 44.5 -18.5t18.5 -44.5q0 -27 -18.5 -45t-44.5 -18q-27 0 -45 18t-18 45zM35 0l137 700h89l-120 -616h308l-17 -84h-397z" />
    <glyph glyph-name="ldot" unicode="&#x140;" horiz-adv-x="581" 
d="M386 349q0 26 18 44.5t45 18.5q26 0 44.5 -18.5t18.5 -44.5q0 -27 -18.5 -45t-44.5 -18q-27 0 -45 18t-18 45zM49 0l137 708h85l-137 -708h-85z" />
    <glyph glyph-name="Lslash" unicode="&#x141;" horiz-adv-x="506" 
d="M103 349l69 351h89l-59 -302l129 65l24 -65l-170 -85l-44 -229h308l-17 -84h-397l52 264l-72 -36l-23 65z" />
    <glyph glyph-name="lslash" unicode="&#x142;" horiz-adv-x="324" 
d="M130 380l63 328h85l-55 -282l74 37l23 -65l-113 -56l-66 -342h-85l57 295l-73 -36l-22 65z" />
    <glyph glyph-name="Nacute" unicode="&#x143;" horiz-adv-x="706" 
d="M471 768h-72l97 144h123zM475 153l107 547h89l-137 -700h-99l-205 545l-106 -545h-89l137 700h99z" />
    <glyph glyph-name="nacute" unicode="&#x144;" 
d="M376 572h-72l97 144h123zM496 355l-69 -355h-85l64 333q4 21 4 35q0 68 -67 68q-54 0 -111 -63q-56 -62 -76 -162l-41 -211h-85l98 504h85l-18 -93q77 101 182 101q58 0 90 -29t32 -81q0 -24 -3 -47z" />
    <glyph glyph-name="Ncommaaccent" unicode="&#x145;" horiz-adv-x="706" 
d="M205 -277h-63l102 217h117zM475 153l107 547h89l-137 -700h-99l-205 545l-106 -545h-89l137 700h99z" />
    <glyph glyph-name="ncommaaccent" unicode="&#x146;" 
d="M149 -277h-63l102 217h117zM496 355l-69 -355h-85l64 333q4 21 4 35q0 68 -67 68q-54 0 -111 -63q-56 -62 -76 -162l-41 -211h-85l98 504h85l-18 -93q77 101 182 101q58 0 90 -29t32 -81q0 -24 -3 -47z" />
    <glyph glyph-name="Ncaron" unicode="&#x147;" horiz-adv-x="706" 
d="M536 932h98l-179 -164h-31l-124 164h89l61 -80zM475 153l107 547h89l-137 -700h-99l-205 545l-106 -545h-89l137 700h99z" />
    <glyph glyph-name="ncaron" unicode="&#x148;" 
d="M441 736h98l-179 -164h-31l-124 164h89l61 -80zM496 355l-69 -355h-85l64 333q4 21 4 35q0 68 -67 68q-54 0 -111 -63q-56 -62 -76 -162l-41 -211h-85l98 504h85l-18 -93q77 101 182 101q58 0 90 -29t32 -81q0 -24 -3 -47z" />
    <glyph glyph-name="Omacron" unicode="&#x14c;" horiz-adv-x="713" 
d="M561 768h-249l15 76h249zM425 708q111 0 178 -76q69 -75 69 -207q0 -219 -151 -348q-98 -85 -235 -85q-110 0 -179 75q-68 77 -68 208q0 219 151 348q98 85 235 85zM410 624q-105 0 -181 -82q-98 -104 -98 -259q0 -100 43.5 -153.5t126.5 -53.5q105 0 181 82
q98 104 98 259q0 100 -43.5 153.5t-126.5 53.5z" />
    <glyph glyph-name="omacron" unicode="&#x14d;" horiz-adv-x="573" 
d="M445 572h-249l15 76h249zM27 204q0 124 69 210q80 98 213 98q93 0 146 -56t53 -156q0 -124 -69 -210q-80 -98 -213 -98q-93 0 -146 56t-53 156zM301 436q-84 0 -140 -71q-45 -57 -45 -149q0 -70 30.5 -109t87.5 -39q84 0 140 71q45 57 45 149q0 70 -30.5 109t-87.5 39z
" />
    <glyph glyph-name="Obreve" unicode="&#x14e;" horiz-adv-x="713" 
d="M502 877h67q-13 -51 -48 -80t-84 -29q-40 0 -66 24t-26 63q0 4 2 22h67q-1 -3 -1 -10q0 -16 10 -25.5t26 -9.5q44 0 53 45zM425 708q111 0 178 -76q69 -75 69 -207q0 -219 -151 -348q-98 -85 -235 -85q-110 0 -179 75q-68 77 -68 208q0 219 151 348q98 85 235 85z
M410 624q-105 0 -181 -82q-98 -104 -98 -259q0 -100 43.5 -153.5t126.5 -53.5q105 0 181 82q98 104 98 259q0 100 -43.5 153.5t-126.5 53.5z" />
    <glyph glyph-name="obreve" unicode="&#x14f;" horiz-adv-x="573" 
d="M386 681h67q-13 -51 -48 -80t-84 -29q-40 0 -66 24t-26 63q0 4 2 22h67q-1 -3 -1 -10q0 -16 10 -25.5t26 -9.5q44 0 53 45zM27 204q0 124 69 210q80 98 213 98q93 0 146 -56t53 -156q0 -124 -69 -210q-80 -98 -213 -98q-93 0 -146 56t-53 156zM301 436q-84 0 -140 -71
q-45 -57 -45 -149q0 -70 30.5 -109t87.5 -39q84 0 140 71q45 57 45 149q0 70 -30.5 109t-87.5 39z" />
    <glyph glyph-name="Ohungarumlaut" unicode="&#x150;" horiz-adv-x="713" 
d="M383 768h-72l97 144h123zM563 768h-72l97 144h123zM425 708q111 0 178 -76q69 -75 69 -207q0 -219 -151 -348q-98 -85 -235 -85q-110 0 -179 75q-68 77 -68 208q0 219 151 348q98 85 235 85zM410 624q-105 0 -181 -82q-98 -104 -98 -259q0 -100 43.5 -153.5t126.5 -53.5
q105 0 181 82q98 104 98 259q0 100 -43.5 153.5t-126.5 53.5z" />
    <glyph glyph-name="ohungarumlaut" unicode="&#x151;" horiz-adv-x="573" 
d="M267 572h-72l97 144h123zM447 572h-72l97 144h123zM27 204q0 124 69 210q80 98 213 98q93 0 146 -56t53 -156q0 -124 -69 -210q-80 -98 -213 -98q-93 0 -146 56t-53 156zM301 436q-84 0 -140 -71q-45 -57 -45 -149q0 -70 30.5 -109t87.5 -39q84 0 140 71q45 57 45 149
q0 70 -30.5 109t-87.5 39z" />
    <glyph glyph-name="OE" unicode="&#x152;" horiz-adv-x="1038" 
d="M627 600l20 100h396l-17 -84h-307l-39 -201h250l-16 -84h-250l-48 -247h317l-17 -84h-406l16 81l-5 -4q-98 -85 -235 -85q-110 0 -179 75q-68 77 -68 208q0 219 151 348q98 85 235 85q136 0 202 -108zM410 624q-105 0 -181 -82q-98 -104 -98 -259q0 -100 43.5 -153.5
t126.5 -53.5q107 0 183 81q96 102 96 260q0 100 -43.5 153.5t-126.5 53.5z" />
    <glyph glyph-name="oe" unicode="&#x153;" horiz-adv-x="950" 
d="M886 273l-8 -39h-374q-3 -20 -3 -36q0 -61 31 -95.5t87 -34.5q52 0 88 23.5t69 75.5l72 -35q-50 -75 -107 -107.5t-137 -32.5q-116 0 -165 97q-79 -97 -213 -97q-90 0 -144.5 57t-54.5 155q0 124 69 210q80 98 213 98t179 -108q88 108 217 108q86 0 136 -51t50 -138
q0 -18 -5 -50zM301 436q-84 0 -140 -71q-45 -57 -45 -149q0 -71 30.5 -109.5t87.5 -38.5q85 0 141 71q44 56 44 149q0 71 -30.5 109.5t-87.5 38.5zM690 436q-54 0 -99 -34.5t-67 -91.5h278q0 126 -112 126z" />
    <glyph glyph-name="Racute" unicode="&#x154;" horiz-adv-x="596" 
d="M333 768h-72l97 144h123zM530 0h-99l-139 330h-103l-65 -330h-89l137 700h222q83 0 130.5 -42t47.5 -115q0 -87 -49 -141.5t-136 -65.5zM380 616h-136l-39 -202h139q65 0 100.5 29t35.5 84q0 89 -100 89z" />
    <glyph glyph-name="racute" unicode="&#x155;" horiz-adv-x="437" 
d="M328 572h-72l97 144h123zM428 497l-31 -75q-26 14 -53 14q-56 0 -110 -51q-52 -51 -75 -162l-44 -223h-85l98 504h85l-17 -86q60 94 163 94q45 0 69 -15z" />
    <glyph glyph-name="Rcommaaccent" unicode="&#x156;" horiz-adv-x="596" 
d="M203 -277h-63l102 217h117zM530 0h-99l-139 330h-103l-65 -330h-89l137 700h222q83 0 130.5 -42t47.5 -115q0 -87 -49 -141.5t-136 -65.5zM380 616h-136l-39 -202h139q65 0 100.5 29t35.5 84q0 89 -100 89z" />
    <glyph glyph-name="rcommaaccent" unicode="&#x157;" horiz-adv-x="437" 
d="M-7 -277h-63l102 217h117zM428 497l-31 -75q-26 14 -53 14q-56 0 -110 -51q-52 -51 -75 -162l-44 -223h-85l98 504h85l-17 -86q60 94 163 94q45 0 69 -15z" />
    <glyph glyph-name="Rcaron" unicode="&#x158;" horiz-adv-x="596" 
d="M398 932h98l-179 -164h-31l-124 164h89l61 -80zM530 0h-99l-139 330h-103l-65 -330h-89l137 700h222q83 0 130.5 -42t47.5 -115q0 -87 -49 -141.5t-136 -65.5zM380 616h-136l-39 -202h139q65 0 100.5 29t35.5 84q0 89 -100 89z" />
    <glyph glyph-name="rcaron" unicode="&#x159;" horiz-adv-x="437" 
d="M393 736h98l-179 -164h-31l-124 164h89l61 -80zM428 497l-31 -75q-26 14 -53 14q-56 0 -110 -51q-52 -51 -75 -162l-44 -223h-85l98 504h85l-17 -86q60 94 163 94q45 0 69 -15z" />
    <glyph glyph-name="Sacute" unicode="&#x15a;" horiz-adv-x="523" 
d="M379 768h-72l97 144h123zM487 584l-76 -42q-30 82 -96 82q-46 0 -71.5 -26t-25.5 -71q0 -41 24.5 -67t86.5 -58t96 -67q37 -38 37 -112q0 -106 -66 -166q-39 -36 -81.5 -50.5t-103.5 -14.5q-74 0 -132 56q-57 57 -57 136l80 43q5 -69 38 -110t90 -41q62 0 101 35t39 96
q0 46 -23.5 72.5t-83.5 55.5q-137 68 -137 179q0 91 56.5 142.5t148.5 51.5q58 0 100.5 -35.5t55.5 -88.5z" />
    <glyph glyph-name="sacute" unicode="&#x15b;" horiz-adv-x="460" 
d="M307 572h-72l97 144h123zM259 512q47 0 86 -22.5t59 -61.5l-66 -49q-38 57 -89 57q-30 0 -49 -17t-19 -46q0 -25 17 -42t52 -33q52 -22 83 -48q43 -31 43 -92q0 -76 -50.5 -121t-131.5 -45q-74 0 -122 42q-49 44 -56 101l74 36q21 -103 114 -103q38 0 60.5 20.5
t22.5 53.5q0 38 -26 57q-19 14 -66 35q-99 44 -99 134q0 66 44 105t119 39z" />
    <glyph glyph-name="Scircumflex" unicode="&#x15c;" horiz-adv-x="523" 
d="M274 768h-98l179 164h31l124 -164h-89l-61 80zM487 584l-76 -42q-30 82 -96 82q-46 0 -71.5 -26t-25.5 -71q0 -41 24.5 -67t86.5 -58t96 -67q37 -38 37 -112q0 -106 -66 -166q-39 -36 -81.5 -50.5t-103.5 -14.5q-74 0 -132 56q-57 57 -57 136l80 43q5 -69 38 -110t90 -41
q62 0 101 35t39 96q0 46 -23.5 72.5t-83.5 55.5q-137 68 -137 179q0 91 56.5 142.5t148.5 51.5q58 0 100.5 -35.5t55.5 -88.5z" />
    <glyph glyph-name="scircumflex" unicode="&#x15d;" horiz-adv-x="460" 
d="M202 572h-98l179 164h31l124 -164h-89l-61 80zM259 512q47 0 86 -22.5t59 -61.5l-66 -49q-38 57 -89 57q-30 0 -49 -17t-19 -46q0 -25 17 -42t52 -33q52 -22 83 -48q43 -31 43 -92q0 -76 -50.5 -121t-131.5 -45q-74 0 -122 42q-49 44 -56 101l74 36q21 -103 114 -103
q38 0 60.5 20.5t22.5 53.5q0 38 -26 57q-19 14 -66 35q-99 44 -99 134q0 66 44 105t119 39z" />
    <glyph glyph-name="Scedilla" unicode="&#x15e;" horiz-adv-x="523" 
d="M487 584l-76 -42q-30 82 -96 82q-46 0 -71.5 -26t-25.5 -71q0 -41 24.5 -67t86.5 -58t96 -67q37 -38 37 -112q0 -106 -66 -166q-39 -36 -81 -50.5t-103 -14.5l-107 -169l-89 45l126 130h22q-47 12 -85 50q-57 57 -57 136l80 43q5 -69 38 -110t90 -41q62 0 101 35t39 96
q0 46 -23.5 72.5t-83.5 55.5q-137 68 -137 179q0 91 56.5 142.5t148.5 51.5q58 0 100.5 -35.5t55.5 -88.5z" />
    <glyph glyph-name="scedilla" unicode="&#x15f;" horiz-adv-x="460" 
d="M259 512q47 0 86 -22.5t59 -61.5l-66 -49q-38 57 -89 57q-30 0 -49 -17t-19 -46q0 -25 17 -42t52 -33q52 -22 83 -48q43 -31 43 -92q0 -76 -50 -120.5t-131 -45.5l-107 -169l-89 45l126 130h16q-38 9 -69 36q-49 44 -56 101l74 36q21 -103 114 -103q38 0 60.5 20.5
t22.5 53.5q0 38 -26 57q-19 14 -66 35q-99 44 -99 134q0 66 44 105t119 39z" />
    <glyph glyph-name="Scaron" unicode="&#x160;" horiz-adv-x="523" 
d="M487 584l-76 -42q-30 82 -96 82q-46 0 -71.5 -26t-25.5 -71q0 -41 24.5 -67t86.5 -58t96 -67q37 -38 37 -112q0 -106 -66 -166q-39 -36 -81.5 -50.5t-103.5 -14.5q-74 0 -132 56q-57 57 -57 136l80 43q5 -69 38 -110t90 -41q62 0 101 35t39 96q0 46 -23.5 72.5
t-83.5 55.5q-137 68 -137 179q0 91 56.5 142.5t148.5 51.5q58 0 100.5 -35.5t55.5 -88.5zM430 926h98l-179 -164h-31l-124 164h89l61 -80z" />
    <glyph glyph-name="scaron" unicode="&#x161;" horiz-adv-x="460" 
d="M259 512q47 0 86 -22.5t59 -61.5l-66 -49q-38 57 -89 57q-30 0 -49 -17t-19 -46q0 -25 17 -42t52 -33q52 -22 83 -48q43 -31 43 -92q0 -76 -50.5 -121t-131.5 -45q-74 0 -122 42q-49 44 -56 101l74 36q21 -103 114 -103q38 0 60.5 20.5t22.5 53.5q0 38 -26 57
q-19 14 -66 35q-99 44 -99 134q0 66 44 105t119 39zM377 730h98l-179 -164h-31l-124 164h89l61 -80z" />
    <glyph glyph-name="Tcommaaccent" unicode="&#x162;" horiz-adv-x="507" 
d="M258 616h-197l17 84h483l-17 -84h-197l-120 -616h-43l-107 -169l-89 45l126 130h25z" />
    <glyph glyph-name="tcommaaccent" unicode="&#x163;" horiz-adv-x="350" 
d="M116 428h-87l14 76h87l30 151l94 53l-40 -204h127l-14 -76h-127l-52 -268q-5 -28 -5 -36q0 -56 54 -56q32 0 60 16l6 -73q-37 -19 -85 -19l-107 -169l-89 45l126 130h23q-73 22 -73 111q0 19 7 58z" />
    <glyph glyph-name="Tcaron" unicode="&#x164;" horiz-adv-x="507" 
d="M434 932h98l-179 -164h-31l-124 164h89l61 -80zM258 616h-197l17 84h483l-17 -84h-197l-120 -616h-89z" />
    <glyph glyph-name="tcaron" unicode="&#x165;" horiz-adv-x="350" 
d="M116 428h-87l14 76h87l30 151l94 53l-40 -204h94l96 204h117l-156 -217h-27l-11 -63h-127l-52 -268q-5 -28 -5 -36q0 -56 54 -56q32 0 60 16l6 -73q-37 -19 -86 -19q-57 0 -88 30t-31 87q0 19 7 58z" />
    <glyph glyph-name="Utilde" unicode="&#x168;" horiz-adv-x="672" 
d="M295 773l-41 42q54 73 121 73q35 0 66 -20q32 -20 54 -20q38 0 73 35l41 -43q-54 -72 -121 -72q-35 0 -67 20q-31 20 -53 20q-38 0 -73 -35zM76 238l89 462h89l-91 -468q-4 -23 -4 -40q0 -116 122 -116q75 0 123.5 40.5t62.5 115.5l91 468h89l-89 -462
q-46 -246 -288 -246q-90 0 -145 49t-55 130q0 35 6 67z" />
    <glyph glyph-name="utilde" unicode="&#x169;" 
d="M211 577l-41 42q54 73 121 73q35 0 66 -20q32 -20 54 -20q38 0 73 35l41 -43q-54 -72 -121 -72q-35 0 -67 20q-31 20 -53 20q-38 0 -73 -35zM55 149l69 355h85l-64 -333q-4 -21 -4 -35q0 -68 67 -68q54 0 111 63q56 62 76 162l41 211h85l-98 -504h-85l18 93
q-77 -101 -182 -101q-58 0 -90 29t-32 81q0 24 3 47z" />
    <glyph glyph-name="Umacron" unicode="&#x16a;" horiz-adv-x="672" 
d="M544 768h-249l15 76h249zM76 238l89 462h89l-91 -468q-4 -23 -4 -40q0 -116 122 -116q75 0 123.5 40.5t62.5 115.5l91 468h89l-89 -462q-46 -246 -288 -246q-90 0 -145 49t-55 130q0 35 6 67z" />
    <glyph glyph-name="umacron" unicode="&#x16b;" 
d="M460 572h-249l15 76h249zM55 149l69 355h85l-64 -333q-4 -21 -4 -35q0 -68 67 -68q54 0 111 63q56 62 76 162l41 211h85l-98 -504h-85l18 93q-77 -101 -182 -101q-58 0 -90 29t-32 81q0 24 3 47z" />
    <glyph glyph-name="Ubreve" unicode="&#x16c;" horiz-adv-x="672" 
d="M485 877h67q-13 -51 -48 -80t-84 -29q-40 0 -66 24t-26 63q0 4 2 22h67q-1 -3 -1 -10q0 -16 10 -25.5t26 -9.5q44 0 53 45zM76 238l89 462h89l-91 -468q-4 -23 -4 -40q0 -116 122 -116q75 0 123.5 40.5t62.5 115.5l91 468h89l-89 -462q-46 -246 -288 -246q-90 0 -145 49
t-55 130q0 35 6 67z" />
    <glyph glyph-name="ubreve" unicode="&#x16d;" 
d="M401 681h67q-13 -51 -48 -80t-84 -29q-40 0 -66 24t-26 63q0 4 2 22h67q-1 -3 -1 -10q0 -16 10 -25.5t26 -9.5q44 0 53 45zM55 149l69 355h85l-64 -333q-4 -21 -4 -35q0 -68 67 -68q54 0 111 63q56 62 76 162l41 211h85l-98 -504h-85l18 93q-77 -101 -182 -101
q-58 0 -90 29t-32 81q0 24 3 47z" />
    <glyph glyph-name="Uring" unicode="&#x16e;" horiz-adv-x="672" 
d="M339 864q0 42 28.5 71t70.5 29t70.5 -29t28.5 -71q0 -41 -28 -68.5t-71 -27.5q-42 0 -70.5 27.5t-28.5 68.5zM395 865q-2 -27 20.5 -38t45 0t20.5 38q2 28 -20.5 40t-45 0t-20.5 -40zM76 238l89 462h89l-91 -468q-4 -23 -4 -40q0 -116 122 -116q75 0 123.5 40.5
t62.5 115.5l91 468h89l-89 -462q-46 -246 -288 -246q-90 0 -145 49t-55 130q0 35 6 67z" />
    <glyph glyph-name="uring" unicode="&#x16f;" 
d="M256 668q0 42 28.5 71t70.5 29t70.5 -29t28.5 -71q0 -41 -28 -68.5t-71 -27.5q-42 0 -70.5 27.5t-28.5 68.5zM312 669q-2 -27 20.5 -38t45 0t20.5 38q2 28 -20.5 40t-45 0t-20.5 -40zM55 149l69 355h85l-64 -333q-4 -21 -4 -35q0 -68 67 -68q54 0 111 63q56 62 76 162
l41 211h85l-98 -504h-85l18 93q-77 -101 -182 -101q-58 0 -90 29t-32 81q0 24 3 47z" />
    <glyph glyph-name="Uhungarumlaut" unicode="&#x170;" horiz-adv-x="672" 
d="M366 768h-72l97 144h123zM546 768h-72l97 144h123zM76 238l89 462h89l-91 -468q-4 -23 -4 -40q0 -116 122 -116q75 0 123.5 40.5t62.5 115.5l91 468h89l-89 -462q-46 -246 -288 -246q-90 0 -145 49t-55 130q0 35 6 67z" />
    <glyph glyph-name="uhungarumlaut" unicode="&#x171;" 
d="M282 572h-72l97 144h123zM462 572h-72l97 144h123zM55 149l69 355h85l-64 -333q-4 -21 -4 -35q0 -68 67 -68q54 0 111 63q56 62 76 162l41 211h85l-98 -504h-85l18 93q-77 -101 -182 -101q-58 0 -90 29t-32 81q0 24 3 47z" />
    <glyph glyph-name="Uogonek" unicode="&#x172;" horiz-adv-x="672" 
d="M76 238l89 462h89l-91 -468q-4 -23 -4 -40q0 -116 122 -116q75 0 123.5 40.5t62.5 115.5l91 468h89l-89 -462q-46 -246 -288 -246h-10q-64 -45 -64 -79q0 -25 25 -25q26 0 63 41l36 -35q-31 -38 -59 -54.5t-63 -16.5q-32 0 -51.5 18t-19.5 49q0 57 80 108h3
q-47 10 -85 43q-55 49 -55 130q0 35 6 67z" />
    <glyph glyph-name="uogonek" unicode="&#x173;" 
d="M55 149l69 355h85l-64 -333q-4 -21 -4 -35q0 -68 67 -68q54 0 111 63q56 62 76 162l41 211h85l-98 -504h-85l18 93q-69 -90 -159 -100q-66 -47 -66 -80q0 -25 25 -25q26 0 63 41l36 -35q-31 -38 -59 -54.5t-63 -16.5q-32 0 -51.5 18t-19.5 49q0 56 75 106q-85 17 -85 106
q0 24 3 47z" />
    <glyph glyph-name="Wcircumflex" unicode="&#x174;" horiz-adv-x="886" 
d="M450 768h-98l179 164h31l124 -164h-89l-61 80zM577 130l249 570h94l-319 -700h-89l-55 480l-226 -480h-89l-52 700h93l28 -570l233 496h83z" />
    <glyph glyph-name="wcircumflex" unicode="&#x175;" horiz-adv-x="723" 
d="M330 572h-98l179 164h31l124 -164h-89l-61 80zM450 113l176 391h89l-245 -504h-82l-22 381l-171 -381h-82l-58 504h86l31 -391l173 391h86z" />
    <glyph glyph-name="Ycircumflex" unicode="&#x176;" horiz-adv-x="484" 
d="M248 768h-98l179 164h31l124 -164h-89l-61 80zM123 0l59 302l-126 398h94l91 -310l210 310h99l-279 -398l-59 -302h-89z" />
    <glyph glyph-name="ycircumflex" unicode="&#x177;" horiz-adv-x="466" 
d="M201 572h-98l179 164h31l124 -164h-89l-61 80zM188 140l194 364h89l-385 -708h-89l125 236l-81 472h89z" />
    <glyph glyph-name="Ydieresis" unicode="&#x178;" horiz-adv-x="484" 
d="M123 0l59 302l-126 398h94l91 -310l210 310h99l-279 -398l-59 -302h-89zM231 904q25 0 41 -16.5t16 -40.5t-16 -40t-41 -16q-23 0 -39.5 16t-16.5 40t16.5 40.5t39.5 16.5zM397 904q25 0 41 -16.5t16 -40.5t-16 -40t-41 -16q-23 0 -39.5 16t-16.5 40t16.5 40.5t39.5 16.5
z" />
    <glyph glyph-name="Zacute" unicode="&#x179;" horiz-adv-x="550" 
d="M385 768h-72l97 144h123zM411 616h-310l17 84h435l-9 -42l-424 -574h331l-17 -84h-455l8 42z" />
    <glyph glyph-name="zacute" unicode="&#x17a;" horiz-adv-x="468" 
d="M319 572h-72l97 144h123zM309 428h-227l14 76h347l-7 -36l-310 -392h248l-14 -76h-365l7 36z" />
    <glyph glyph-name="Zdotaccent" unicode="&#x17b;" horiz-adv-x="550" 
d="M298 830q0 27 18.5 45.5t44.5 18.5q27 0 45 -18.5t18 -45.5q0 -26 -18 -44t-45 -18q-26 0 -44.5 18t-18.5 44zM411 616h-310l17 84h435l-9 -42l-424 -574h331l-17 -84h-455l8 42z" />
    <glyph glyph-name="zdotaccent" unicode="&#x17c;" horiz-adv-x="468" 
d="M232 634q0 27 18.5 45.5t44.5 18.5q27 0 45 -18.5t18 -45.5q0 -26 -18 -44t-45 -18q-26 0 -44.5 18t-18.5 44zM309 428h-227l14 76h347l-7 -36l-310 -392h248l-14 -76h-365l7 36z" />
    <glyph glyph-name="Zcaron" unicode="&#x17d;" horiz-adv-x="550" 
d="M411 616h-310l17 84h435l-9 -42l-424 -574h331l-17 -84h-455l8 42zM428 926h98l-179 -164h-31l-124 164h89l61 -80z" />
    <glyph glyph-name="zcaron" unicode="&#x17e;" horiz-adv-x="468" 
d="M309 428h-227l14 76h347l-7 -36l-310 -392h248l-14 -76h-365l7 36zM372 730h98l-179 -164h-31l-124 164h89l61 -80z" />
    <glyph glyph-name="longs" unicode="&#x17f;" horiz-adv-x="460" 
d="M259 512q47 0 86 -22.5t59 -61.5l-66 -49q-38 57 -89 57q-30 0 -49 -17t-19 -46q0 -25 17 -42t52 -33q52 -22 83 -48q43 -31 43 -92q0 -76 -50.5 -121t-131.5 -45q-74 0 -122 42q-49 44 -56 101l74 36q21 -103 114 -103q38 0 60.5 20.5t22.5 53.5q0 38 -26 57
q-19 14 -66 35q-99 44 -99 134q0 66 44 105t119 39z" />
    <glyph glyph-name="uni0189" unicode="&#x189;" horiz-adv-x="669" 
d="M95 308h-58l17 84h57l61 308h180q128 0 202 -72.5t74 -206.5q0 -179 -112 -300q-111 -121 -287 -121h-194zM333 616h-89l-44 -224h130l-17 -84h-129l-43 -224h89q138 0 220 93q83 95 83 235q0 101 -51 152.5t-149 51.5z" />
    <glyph glyph-name="florin" unicode="&#x192;" horiz-adv-x="438" 
d="M212 428h-89l14 76h89l7 33q18 89 67 130t129 41q41 0 69 -16l-31 -74q-26 14 -54 14q-41 0 -63.5 -23t-32.5 -72l-7 -33h114l-14 -76h-114l-91 -469q-33 -171 -196 -171q-41 0 -69 16l31 74q26 -14 54 -14q41 0 63.5 23t32.5 72z" />
    <glyph glyph-name="Ohorn" unicode="&#x1a0;" horiz-adv-x="713" 
d="M425 708q42 0 84 -13l6 13h117l-44 -61l15 -15q69 -75 69 -207q0 -219 -151 -348q-98 -85 -235 -85q-110 0 -179 75q-68 77 -68 208q0 219 151 348q98 85 235 85zM476 491h-63l58 124q-27 9 -61 9q-105 0 -181 -82q-98 -104 -98 -259q0 -100 43.5 -153.5t126.5 -53.5
q105 0 181 82q98 104 98 259q0 101 -46 155z" />
    <glyph glyph-name="ohorn" unicode="&#x1a1;" horiz-adv-x="573" 
d="M27 204q0 124 69 210q80 98 213 98q45 0 83 -15l7 15h117l-50 -69q42 -56 42 -143q0 -124 -69 -210q-80 -98 -213 -98q-93 0 -146 56t-53 156zM360 295h-63l60 128q-23 13 -56 13q-84 0 -140 -71q-45 -57 -45 -149q0 -70 30.5 -109t87.5 -39q84 0 140 71q45 57 45 149
q0 42 -11 73z" />
    <glyph glyph-name="Uhorn" unicode="&#x1af;" horiz-adv-x="672" 
d="M699 491h-63l102 217h117zM76 238l89 462h89l-91 -468q-4 -23 -4 -40q0 -116 122 -116q75 0 123.5 40.5t62.5 115.5l91 468h89l-89 -462q-46 -246 -288 -246q-90 0 -145 49t-55 130q0 35 6 67z" />
    <glyph glyph-name="uhorn" unicode="&#x1b0;" 
d="M573 295h-63l102 217h117zM55 149l69 355h85l-64 -333q-4 -21 -4 -35q0 -68 67 -68q54 0 111 63q56 62 76 162l41 211h85l-98 -504h-85l18 93q-77 -101 -182 -101q-58 0 -90 29t-32 81q0 24 3 47z" />
    <glyph glyph-name="uni01C0" unicode="&#x1c0;" horiz-adv-x="245" 
d="M100 -50v800h80v-800h-80z" />
    <glyph glyph-name="uni01C1" unicode="&#x1c1;" horiz-adv-x="490" 
d="M345 -50v800h80v-800h-80zM100 -50v800h80v-800h-80z" />
    <glyph glyph-name="uni01C4" unicode="&#x1c4;" horiz-adv-x="1219" 
d="M1080 616h-310l17 84h435l-9 -42l-424 -574h331l-17 -84h-455l8 42zM1097 926h98l-179 -164h-31l-124 164h89l61 -80zM35 0l137 700h180q128 0 202 -72.5t74 -206.5q0 -179 -112 -300q-111 -121 -287 -121h-194zM333 616h-89l-103 -532h89q138 0 220 93q83 95 83 235
q0 101 -51 152.5t-149 51.5z" />
    <glyph glyph-name="uni01C5" unicode="&#x1c5;" horiz-adv-x="1137" 
d="M978 428h-227l14 76h347l-7 -36l-310 -392h248l-14 -76h-365l7 36zM1041 730h98l-179 -164h-31l-124 164h89l61 -80zM35 0l137 700h180q128 0 202 -72.5t74 -206.5q0 -179 -112 -300q-111 -121 -287 -121h-194zM333 616h-89l-103 -532h89q138 0 220 93q83 95 83 235
q0 101 -51 152.5t-149 51.5z" />
    <glyph glyph-name="uni01C6" unicode="&#x1c6;" horiz-adv-x="1080" 
d="M921 428h-227l14 76h347l-7 -36l-310 -392h248l-14 -76h-365l7 36zM984 730h98l-179 -164h-31l-124 164h89l61 -80zM302 512q46 0 83.5 -18.5t55.5 -49.5l51 264h85l-138 -708h-85l13 62q-64 -70 -158 -70q-86 0 -134 52t-48 142q0 134 75 230t200 96zM116 208
q0 -65 30.5 -102.5t85.5 -37.5q58 0 102 39q82 74 82 199q0 63 -32.5 96.5t-88.5 33.5q-57 0 -100 -37q-79 -69 -79 -191z" />
    <glyph glyph-name="uni01C7" unicode="&#x1c7;" horiz-adv-x="1047" 
d="M835 219l93 481h89l-100 -515q-18 -94 -77.5 -143.5t-150.5 -49.5q-80 0 -129 55t-49 128l89 19q0 -118 99 -118q107 0 136 143zM35 0l137 700h89l-120 -616h308l-17 -84h-397z" />
    <glyph glyph-name="uni01C8" unicode="&#x1c8;" horiz-adv-x="782" 
d="M426 -212l-8 82q54 13 80 37t35 75l101 522h85l-103 -530q-17 -87 -61.5 -130t-128.5 -56zM638 644q0 27 18 45.5t45 18.5t45 -18.5t18 -45.5q0 -26 -18 -44t-45 -18t-45 18t-18 44zM35 0l137 700h89l-120 -616h308l-17 -84h-397z" />
    <glyph glyph-name="uni01C9" unicode="&#x1c9;" horiz-adv-x="582" 
d="M226 -212l-8 82q54 13 80 37t35 75l101 522h85l-103 -530q-17 -87 -61.5 -130t-128.5 -56zM438 644q0 27 18 45.5t45 18.5t45 -18.5t18 -45.5q0 -26 -18 -44t-45 -18t-45 18t-18 44zM49 0l137 708h85l-137 -708h-85z" />
    <glyph glyph-name="uni01CA" unicode="&#x1ca;" horiz-adv-x="1247" 
d="M1035 219l93 481h89l-100 -515q-18 -94 -77.5 -143.5t-150.5 -49.5q-80 0 -129 55t-49 128l89 19q0 -118 99 -118q107 0 136 143zM475 153l107 547h89l-137 -700h-99l-205 545l-106 -545h-89l137 700h99z" />
    <glyph glyph-name="uni01CB" unicode="&#x1cb;" horiz-adv-x="982" 
d="M626 -212l-8 82q54 13 80 37t35 75l101 522h85l-103 -530q-17 -87 -61.5 -130t-128.5 -56zM838 644q0 27 18 45.5t45 18.5t45 -18.5t18 -45.5q0 -26 -18 -44t-45 -18t-45 18t-18 44zM475 153l107 547h89l-137 -700h-99l-205 545l-106 -545h-89l137 700h99z" />
    <glyph glyph-name="uni01CC" unicode="&#x1cc;" horiz-adv-x="853" 
d="M497 -212l-8 82q54 13 80 37t35 75l101 522h85l-103 -530q-17 -87 -61.5 -130t-128.5 -56zM709 644q0 27 18 45.5t45 18.5t45 -18.5t18 -45.5q0 -26 -18 -44t-45 -18t-45 18t-18 44zM496 355l-69 -355h-85l64 333q4 21 4 35q0 68 -67 68q-54 0 -111 -63q-56 -62 -76 -162
l-41 -211h-85l98 504h85l-18 -93q77 101 182 101q58 0 90 -29t32 -81q0 -24 -3 -47z" />
    <glyph glyph-name="uni01CD" unicode="&#x1cd;" horiz-adv-x="574" 
d="M472 932h98l-179 -164h-31l-124 164h89l61 -80zM-57 0l372 700h85l106 -700h-89l-25 187h-261l-99 -187h-89zM380 271l-45 315l-160 -315h205z" />
    <glyph glyph-name="uni01CE" unicode="&#x1ce;" horiz-adv-x="586" 
d="M413 736h98l-179 -164h-31l-124 164h89l61 -80zM530 504l-97 -504h-85l12 62q-63 -70 -149 -70q-89 0 -136.5 56t-47.5 149q0 131 72 223t201 92q47 0 85.5 -21t48.5 -47l11 60h85zM235 68q57 0 98 38q76 71 76 198q0 62 -30 97t-86 35q-85 0 -131 -66q-46 -65 -46 -150
q0 -70 31.5 -111t87.5 -41z" />
    <glyph glyph-name="uni01CF" unicode="&#x1cf;" horiz-adv-x="296" 
d="M331 932h98l-179 -164h-31l-124 164h89l61 -80zM35 0l137 700h89l-137 -700h-89z" />
    <glyph glyph-name="uni01D0" unicode="&#x1d0;" horiz-adv-x="276" 
d="M285 736h98l-179 -164h-31l-124 164h89l61 -80zM30 0l98 504h85l-98 -504h-85z" />
    <glyph glyph-name="uni01D1" unicode="&#x1d1;" horiz-adv-x="713" 
d="M538 932h98l-179 -164h-31l-124 164h89l61 -80zM425 708q111 0 178 -76q69 -75 69 -207q0 -219 -151 -348q-98 -85 -235 -85q-110 0 -179 75q-68 77 -68 208q0 219 151 348q98 85 235 85zM410 624q-105 0 -181 -82q-98 -104 -98 -259q0 -100 43.5 -153.5t126.5 -53.5
q105 0 181 82q98 104 98 259q0 100 -43.5 153.5t-126.5 53.5z" />
    <glyph glyph-name="uni01D2" unicode="&#x1d2;" horiz-adv-x="573" 
d="M422 736h98l-179 -164h-31l-124 164h89l61 -80zM27 204q0 124 69 210q80 98 213 98q93 0 146 -56t53 -156q0 -124 -69 -210q-80 -98 -213 -98q-93 0 -146 56t-53 156zM301 436q-84 0 -140 -71q-45 -57 -45 -149q0 -70 30.5 -109t87.5 -39q84 0 140 71q45 57 45 149
q0 70 -30.5 109t-87.5 39z" />
    <glyph glyph-name="uni01D3" unicode="&#x1d3;" horiz-adv-x="672" 
d="M521 932h98l-179 -164h-31l-124 164h89l61 -80zM76 238l89 462h89l-91 -468q-4 -23 -4 -40q0 -116 122 -116q75 0 123.5 40.5t62.5 115.5l91 468h89l-89 -462q-46 -246 -288 -246q-90 0 -145 49t-55 130q0 35 6 67z" />
    <glyph glyph-name="uni01D4" unicode="&#x1d4;" 
d="M437 736h98l-179 -164h-31l-124 164h89l61 -80zM55 149l69 355h85l-64 -333q-4 -21 -4 -35q0 -68 67 -68q54 0 111 63q56 62 76 162l41 211h85l-98 -504h-85l18 93q-77 -101 -182 -101q-58 0 -90 29t-32 81q0 24 3 47z" />
    <glyph glyph-name="uni01D5" unicode="&#x1d5;" horiz-adv-x="671" 
d="M563 964h-249l15 76h249zM76 238l89 462h89l-91 -468q-4 -23 -4 -40q0 -116 122 -116q75 0 123.5 40.5t62.5 115.5l91 468h89l-89 -462q-46 -246 -288 -246q-90 0 -145 49t-55 130q0 35 6 67zM344 904q25 0 41 -16.5t16 -40.5t-16 -40t-41 -16q-23 0 -39.5 16t-16.5 40
t16.5 40.5t39.5 16.5zM510 904q25 0 41 -16.5t16 -40.5t-16 -40t-41 -16q-23 0 -39.5 16t-16.5 40t16.5 40.5t39.5 16.5z" />
    <glyph glyph-name="uni01D6" unicode="&#x1d6;" 
d="M477 768h-249l15 76h249zM55 149l69 355h85l-64 -333q-4 -21 -4 -35q0 -68 67 -68q54 0 111 63q56 62 76 162l41 211h85l-98 -504h-85l18 93q-77 -101 -182 -101q-58 0 -90 29t-32 81q0 24 3 47zM258 708q25 0 41 -16.5t16 -40.5t-16 -40t-41 -16q-23 0 -39.5 16
t-16.5 40t16.5 40.5t39.5 16.5zM424 708q25 0 41 -16.5t16 -40.5t-16 -40t-41 -16q-23 0 -39.5 16t-16.5 40t16.5 40.5t39.5 16.5z" />
    <glyph glyph-name="uni01D7" unicode="&#x1d7;" horiz-adv-x="671" 
d="M475 964h-72l97 144h123zM76 238l89 462h89l-91 -468q-4 -23 -4 -40q0 -116 122 -116q75 0 123.5 40.5t62.5 115.5l91 468h89l-89 -462q-46 -246 -288 -246q-90 0 -145 49t-55 130q0 35 6 67zM344 904q25 0 41 -16.5t16 -40.5t-16 -40t-41 -16q-23 0 -39.5 16t-16.5 40
t16.5 40.5t39.5 16.5zM510 904q25 0 41 -16.5t16 -40.5t-16 -40t-41 -16q-23 0 -39.5 16t-16.5 40t16.5 40.5t39.5 16.5z" />
    <glyph glyph-name="uni01D8" unicode="&#x1d8;" 
d="M389 768h-72l97 144h123zM55 149l69 355h85l-64 -333q-4 -21 -4 -35q0 -68 67 -68q54 0 111 63q56 62 76 162l41 211h85l-98 -504h-85l18 93q-77 -101 -182 -101q-58 0 -90 29t-32 81q0 24 3 47zM258 708q25 0 41 -16.5t16 -40.5t-16 -40t-41 -16q-23 0 -39.5 16
t-16.5 40t16.5 40.5t39.5 16.5zM424 708q25 0 41 -16.5t16 -40.5t-16 -40t-41 -16q-23 0 -39.5 16t-16.5 40t16.5 40.5t39.5 16.5z" />
    <glyph glyph-name="uni01D9" unicode="&#x1d9;" horiz-adv-x="671" 
d="M540 1128h98l-179 -164h-31l-124 164h89l61 -80zM76 238l89 462h89l-91 -468q-4 -23 -4 -40q0 -116 122 -116q75 0 123.5 40.5t62.5 115.5l91 468h89l-89 -462q-46 -246 -288 -246q-90 0 -145 49t-55 130q0 35 6 67zM344 904q25 0 41 -16.5t16 -40.5t-16 -40t-41 -16
q-23 0 -39.5 16t-16.5 40t16.5 40.5t39.5 16.5zM510 904q25 0 41 -16.5t16 -40.5t-16 -40t-41 -16q-23 0 -39.5 16t-16.5 40t16.5 40.5t39.5 16.5z" />
    <glyph glyph-name="uni01DA" unicode="&#x1da;" 
d="M454 932h98l-179 -164h-31l-124 164h89l61 -80zM55 149l69 355h85l-64 -333q-4 -21 -4 -35q0 -68 67 -68q54 0 111 63q56 62 76 162l41 211h85l-98 -504h-85l18 93q-77 -101 -182 -101q-58 0 -90 29t-32 81q0 24 3 47zM258 708q25 0 41 -16.5t16 -40.5t-16 -40t-41 -16
q-23 0 -39.5 16t-16.5 40t16.5 40.5t39.5 16.5zM424 708q25 0 41 -16.5t16 -40.5t-16 -40t-41 -16q-23 0 -39.5 16t-16.5 40t16.5 40.5t39.5 16.5z" />
    <glyph glyph-name="uni01DB" unicode="&#x1db;" horiz-adv-x="671" 
d="M304 1108h121l48 -144h-68zM76 238l89 462h89l-91 -468q-4 -23 -4 -40q0 -116 122 -116q75 0 123.5 40.5t62.5 115.5l91 468h89l-89 -462q-46 -246 -288 -246q-90 0 -145 49t-55 130q0 35 6 67zM344 904q25 0 41 -16.5t16 -40.5t-16 -40t-41 -16q-23 0 -39.5 16t-16.5 40
t16.5 40.5t39.5 16.5zM510 904q25 0 41 -16.5t16 -40.5t-16 -40t-41 -16q-23 0 -39.5 16t-16.5 40t16.5 40.5t39.5 16.5z" />
    <glyph glyph-name="uni01DC" unicode="&#x1dc;" 
d="M218 912h121l48 -144h-68zM55 149l69 355h85l-64 -333q-4 -21 -4 -35q0 -68 67 -68q54 0 111 63q56 62 76 162l41 211h85l-98 -504h-85l18 93q-77 -101 -182 -101q-58 0 -90 29t-32 81q0 24 3 47zM258 708q25 0 41 -16.5t16 -40.5t-16 -40t-41 -16q-23 0 -39.5 16
t-16.5 40t16.5 40.5t39.5 16.5zM424 708q25 0 41 -16.5t16 -40.5t-16 -40t-41 -16q-23 0 -39.5 16t-16.5 40t16.5 40.5t39.5 16.5z" />
    <glyph glyph-name="uni01DE" unicode="&#x1de;" horiz-adv-x="574" 
d="M521 964h-249l15 76h249zM-57 0l372 700h85l106 -700h-89l-25 187h-261l-99 -187h-89zM380 271l-45 315l-160 -315h205zM302 904q25 0 41 -16.5t16 -40.5t-16 -40t-41 -16q-23 0 -39.5 16t-16.5 40t16.5 40.5t39.5 16.5zM468 904q25 0 41 -16.5t16 -40.5t-16 -40t-41 -16
q-23 0 -39.5 16t-16.5 40t16.5 40.5t39.5 16.5z" />
    <glyph glyph-name="uni01DF" unicode="&#x1df;" horiz-adv-x="586" 
d="M490 768h-249l15 76h249zM348 0l12 62q-63 -70 -149 -70q-89 0 -136.5 56t-47.5 149q0 131 72 223t201 92q47 0 85.5 -21t48.5 -47l11 60h85l-97 -504h-85zM235 68q54 0 96.5 37t60.5 92q17 54 17 107q0 62 -30 97t-86 35q-85 0 -131 -66q-46 -65 -46 -150
q0 -70 31.5 -111t87.5 -41zM271 708q25 0 41 -16.5t16 -40.5t-16 -40t-41 -16q-23 0 -39.5 16t-16.5 40t16.5 40.5t39.5 16.5zM437 708q25 0 41 -16.5t16 -40.5t-16 -40t-41 -16q-23 0 -39.5 16t-16.5 40t16.5 40.5t39.5 16.5z" />
    <glyph glyph-name="uni01E2" unicode="&#x1e2;" horiz-adv-x="836" 
d="M751 768h-249l15 76h249zM-58 0l444 700h455l-17 -84h-307l-39 -201h250l-16 -84h-250l-48 -247h317l-17 -84h-406l37 187h-187l-117 -187h-99zM422 585h-16l-196 -314h151z" />
    <glyph glyph-name="uni01E3" unicode="&#x1e3;" horiz-adv-x="891" 
d="M610 572h-249l15 76h249zM827 273l-8 -39h-374q-3 -20 -3 -36q0 -61 31 -95.5t87 -34.5q52 0 88 23.5t69 75.5l72 -35q-50 -75 -107 -107.5t-137 -32.5q-60 0 -104.5 29t-66.5 80q-67 -109 -187 -109q-75 0 -117.5 38t-42.5 101q0 90 60 134.5t164 44.5h122l5 22
q2 14 2 24q0 80 -93 80q-79 0 -113 -81l-76 19q24 66 77 102t127 36q52 0 91.5 -22t57.5 -61q83 83 195 83q86 0 136 -51t50 -138q0 -18 -5 -50zM197 68q58 0 100.5 38.5t56.5 115.5l2 12h-123q-54 0 -85.5 -23.5t-31.5 -67.5q0 -35 22 -55t59 -20zM631 436q-54 0 -99 -34.5
t-67 -91.5h278q0 126 -112 126z" />
    <glyph glyph-name="Gcaron" unicode="&#x1e6;" horiz-adv-x="698" 
d="M539 932h98l-179 -164h-31l-124 164h89l61 -80zM527 269h-144l16 84h236l-69 -353h-76l9 96q-42 -55 -92 -79.5t-121 -24.5q-103 0 -175 73t-72 212q0 112 44 211q44 96 135 158t208 62q100 0 162 -59q63 -59 68 -152l-88 -23q-20 150 -158 150q-123 0 -201 -99t-78 -235
q0 -104 44.5 -159t127.5 -55q81 0 140 51.5t84 141.5z" />
    <glyph glyph-name="gcaron" unicode="&#x1e7;" horiz-adv-x="510" 
d="M587 761h98l-179 -164h-31l-124 164h89l61 -80zM84 311q0 88 56 144q57 57 149 57q50 0 91 -23l94 48l30 -66l-75 -38q11 -27 11 -64q0 -84 -59 -140q-58 -55 -147 -55q-43 0 -81 20q-47 -18 -47 -55q0 -16 12.5 -27t32.5 -11h115q141 0 141 -121q0 -94 -73 -143
q-71 -49 -177 -49q-79 0 -129 40q-51 39 -51 104q0 74 66 127q-21 23 -21 63q0 70 84 113q-22 32 -22 76zM241 29h-97q-10 0 -36 2q-46 -24 -46 -81q0 -41 27.5 -65.5t82.5 -24.5q59 0 102 25q44 26 44 80q0 64 -77 64zM279 440q-48 0 -79.5 -32t-31.5 -82q0 -38 20.5 -59
t56.5 -21q48 0 79.5 30.5t31.5 80.5q0 40 -20.5 61.5t-56.5 21.5z" />
    <glyph glyph-name="uni01E8" unicode="&#x1e8;" horiz-adv-x="597" 
d="M513 932h98l-179 -164h-31l-124 164h89l61 -80zM283 382l224 -382h-108l-206 353l-69 -353h-89l137 700h89l-55 -281l298 281h120z" />
    <glyph glyph-name="uni01E9" unicode="&#x1e9;" horiz-adv-x="508" 
d="M323 932h98l-179 -164h-31l-124 164h89l61 -80zM30 0l137 708h85l-80 -415l216 211h115l-249 -236l171 -268h-103l-158 253l-49 -253h-85z" />
    <glyph glyph-name="uni01EA" unicode="&#x1ea;" horiz-adv-x="713" 
d="M425 708q111 0 178 -76q69 -75 69 -207q0 -219 -151 -348q-98 -85 -235 -85h-10q-64 -45 -64 -79q0 -25 25 -25q26 0 63 41l36 -35q-31 -38 -59 -54.5t-63 -16.5q-32 0 -51.5 18t-19.5 49q0 57 80 108h3q-69 15 -119 69q-68 77 -68 208q0 219 151 348q98 85 235 85z
M410 624q-105 0 -181 -82q-98 -104 -98 -259q0 -100 43.5 -153.5t126.5 -53.5q105 0 181 82q98 104 98 259q0 100 -43.5 153.5t-126.5 53.5z" />
    <glyph glyph-name="uni01EB" unicode="&#x1eb;" horiz-adv-x="573" 
d="M27 204q0 124 69 210q80 98 213 98q93 0 146 -56t53 -156q0 -124 -69 -210q-80 -98 -213 -98h-10q-64 -45 -64 -79q0 -25 25 -25q26 0 63 41l36 -35q-31 -38 -59 -54.5t-63 -16.5q-32 0 -51.5 18t-19.5 49q0 57 80 108h6q-68 16 -105 69t-37 137zM301 436q-84 0 -140 -71
q-45 -57 -45 -149q0 -70 30.5 -109t87.5 -39q84 0 140 71q45 57 45 149q0 70 -30.5 109t-87.5 39z" />
    <glyph glyph-name="uni01EC" unicode="&#x1ec;" horiz-adv-x="713" 
d="M425 708q111 0 178 -76q69 -75 69 -207q0 -219 -151 -348q-98 -85 -235 -85h-10q-64 -45 -64 -79q0 -25 25 -25q26 0 63 41l36 -35q-31 -38 -59 -54.5t-63 -16.5q-32 0 -51.5 18t-19.5 49q0 57 80 108h3q-69 15 -119 69q-68 77 -68 208q0 219 151 348q98 85 235 85z
M410 624q-105 0 -181 -82q-98 -104 -98 -259q0 -100 43.5 -153.5t126.5 -53.5q105 0 181 82q98 104 98 259q0 100 -43.5 153.5t-126.5 53.5zM561 768h-249l15 76h249z" />
    <glyph glyph-name="uni01ED" unicode="&#x1ed;" horiz-adv-x="573" 
d="M27 204q0 124 69 210q80 98 213 98q93 0 146 -56t53 -156q0 -124 -69 -210q-80 -98 -213 -98h-10q-64 -45 -64 -79q0 -25 25 -25q26 0 63 41l36 -35q-31 -38 -59 -54.5t-63 -16.5q-32 0 -51.5 18t-19.5 49q0 57 80 108h6q-68 16 -105 69t-37 137zM301 436q-84 0 -140 -71
q-45 -57 -45 -149q0 -70 30.5 -109t87.5 -39q84 0 140 71q45 57 45 149q0 70 -30.5 109t-87.5 39zM445 572h-249l15 76h249z" />
    <glyph glyph-name="uni01F0" unicode="&#x1f0;" horiz-adv-x="276" 
d="M308 932h98l-179 -164h-31l-124 164h89l61 -80zM-80 -212l-8 82q54 13 80 37t35 75l101 522h85l-103 -530q-17 -87 -61.5 -130t-128.5 -56zM132 644q0 27 18 45.5t45 18.5t45 -18.5t18 -45.5q0 -26 -18 -44t-45 -18t-45 18t-18 44z" />
    <glyph glyph-name="uni01F1" unicode="&#x1f1;" horiz-adv-x="1219" 
d="M1080 616h-310l17 84h435l-9 -42l-424 -574h331l-17 -84h-455l8 42zM35 0l137 700h180q128 0 202 -72.5t74 -206.5q0 -179 -112 -300q-111 -121 -287 -121h-194zM333 616h-89l-103 -532h89q138 0 220 93q83 95 83 235q0 101 -51 152.5t-149 51.5z" />
    <glyph glyph-name="uni01F2" unicode="&#x1f2;" horiz-adv-x="1137" 
d="M978 428h-227l14 76h347l-7 -36l-310 -392h248l-14 -76h-365l7 36zM35 0l137 700h180q128 0 202 -72.5t74 -206.5q0 -179 -112 -300q-111 -121 -287 -121h-194zM333 616h-89l-103 -532h89q138 0 220 93q83 95 83 235q0 101 -51 152.5t-149 51.5z" />
    <glyph glyph-name="uni01F3" unicode="&#x1f3;" horiz-adv-x="1080" 
d="M921 428h-227l14 76h347l-7 -36l-310 -392h248l-14 -76h-365l7 36zM302 512q46 0 83.5 -18.5t55.5 -49.5l51 264h85l-138 -708h-85l13 62q-64 -70 -158 -70q-86 0 -134 52t-48 142q0 134 75 230t200 96zM116 208q0 -65 30.5 -102.5t85.5 -37.5q58 0 102 39q82 74 82 199
q0 63 -32.5 96.5t-88.5 33.5q-57 0 -100 -37q-79 -69 -79 -191z" />
    <glyph glyph-name="uni01F4" unicode="&#x1f4;" horiz-adv-x="698" 
d="M474 768h-72l97 144h123zM527 269h-144l16 84h236l-69 -353h-76l9 96q-42 -55 -92 -79.5t-121 -24.5q-103 0 -175 73t-72 212q0 112 44 211q44 96 135 158t208 62q100 0 162 -59q63 -59 68 -152l-88 -23q-20 150 -158 150q-123 0 -201 -99t-78 -235q0 -104 44.5 -159
t127.5 -55q81 0 140 51.5t84 141.5z" />
    <glyph glyph-name="uni01F5" unicode="&#x1f5;" horiz-adv-x="510" 
d="M522 597h-72l97 144h123zM84 311q0 88 56 144q57 57 149 57q50 0 91 -23l94 48l30 -66l-75 -38q11 -27 11 -64q0 -84 -59 -140q-58 -55 -147 -55q-43 0 -81 20q-47 -18 -47 -55q0 -16 12.5 -27t32.5 -11h115q141 0 141 -121q0 -94 -73 -143q-71 -49 -177 -49
q-79 0 -129 40q-51 39 -51 104q0 74 66 127q-21 23 -21 63q0 70 84 113q-22 32 -22 76zM241 29h-97q-10 0 -36 2q-46 -24 -46 -81q0 -41 27.5 -65.5t82.5 -24.5q59 0 102 25q44 26 44 80q0 64 -77 64zM279 440q-48 0 -79.5 -32t-31.5 -82q0 -38 20.5 -59t56.5 -21
q48 0 79.5 30.5t31.5 80.5q0 40 -20.5 61.5t-56.5 21.5z" />
    <glyph glyph-name="uni01F8" unicode="&#x1f8;" horiz-adv-x="706" 
d="M300 912h121l48 -144h-68zM475 153l107 547h89l-137 -700h-99l-205 545l-106 -545h-89l137 700h99z" />
    <glyph glyph-name="uni01F9" unicode="&#x1f9;" 
d="M205 716h121l48 -144h-68zM496 355l-69 -355h-85l64 333q4 21 4 35q0 68 -67 68q-54 0 -111 -63q-56 -62 -76 -162l-41 -211h-85l98 504h85l-18 -93q77 101 182 101q58 0 90 -29t32 -81q0 -24 -3 -47z" />
    <glyph glyph-name="Aringacute" unicode="&#x1fa;" horiz-adv-x="574" 
d="M436 1009h-72l97 144h123zM-57 0l372 700h85l106 -700h-89l-25 187h-261l-99 -187h-89zM380 271l-45 315l-160 -315h205zM289 849q0 42 28.5 71t70.5 29t70.5 -29t28.5 -71q0 -41 -28 -68.5t-71 -27.5q-42 0 -70.5 27.5t-28.5 68.5zM345 850q-2 -27 20.5 -38t45 0
t20.5 38q2 28 -20.5 40t-45 0t-20.5 -40z" />
    <glyph glyph-name="aringacute" unicode="&#x1fb;" horiz-adv-x="586" 
d="M400 813h-72l97 144h123zM348 0l12 62q-63 -70 -149 -70q-89 0 -136.5 56t-47.5 149q0 131 72 223t201 92q47 0 85.5 -21t48.5 -47l11 60h85l-97 -504h-85zM235 68q54 0 96.5 37t60.5 92q17 54 17 107q0 62 -30 97t-86 35q-85 0 -131 -66q-46 -65 -46 -150
q0 -70 31.5 -111t87.5 -41zM253 653q0 42 28.5 71t70.5 29t70.5 -29t28.5 -71q0 -41 -28 -68.5t-71 -27.5q-42 0 -70.5 27.5t-28.5 68.5zM309 654q-2 -27 20.5 -38t45 0t20.5 38q2 28 -20.5 40t-45 0t-20.5 -40z" />
    <glyph glyph-name="AEacute" unicode="&#x1fc;" horiz-adv-x="836" 
d="M663 768h-72l97 144h123zM-58 0l444 700h455l-17 -84h-307l-39 -201h250l-16 -84h-250l-48 -247h317l-17 -84h-406l37 187h-187l-117 -187h-99zM422 585h-16l-196 -314h151z" />
    <glyph glyph-name="aeacute" unicode="&#x1fd;" horiz-adv-x="891" 
d="M522 572h-72l97 144h123zM827 273l-8 -39h-374q-3 -20 -3 -36q0 -61 31 -95.5t87 -34.5q52 0 88 23.5t69 75.5l72 -35q-50 -75 -107 -107.5t-137 -32.5q-60 0 -104.5 29t-66.5 80q-67 -109 -187 -109q-75 0 -117.5 38t-42.5 101q0 90 60 134.5t164 44.5h122l5 22
q2 14 2 24q0 80 -93 80q-79 0 -113 -81l-76 19q24 66 77 102t127 36q52 0 91.5 -22t57.5 -61q83 83 195 83q86 0 136 -51t50 -138q0 -18 -5 -50zM197 68q58 0 100.5 38.5t56.5 115.5l2 12h-123q-54 0 -85.5 -23.5t-31.5 -67.5q0 -35 22 -55t59 -20zM631 436q-54 0 -99 -34.5
t-67 -91.5h278q0 126 -112 126z" />
    <glyph glyph-name="Oslashacute" unicode="&#x1fe;" horiz-adv-x="713" 
d="M479 789h-72l97 144h123zM426 708q101 0 167 -63l81 84l50 -48l-89 -92q38 -71 38 -164q0 -219 -151 -348q-98 -85 -235 -85q-101 0 -167 63l-81 -84l-50 48l88 92q-37 67 -37 164q0 219 151 348q98 85 235 85zM581 417q0 54 -15 100l-383 -397q44 -44 119 -44
q105 0 181 82q98 104 98 259zM411 624q-105 0 -181 -82q-98 -104 -98 -259q0 -59 15 -101l382 397q-42 45 -118 45z" />
    <glyph glyph-name="oslashacute" unicode="&#x1ff;" horiz-adv-x="573" 
d="M375 609h-72l97 144h123zM27 204q0 124 69 210q80 98 213 98q76 0 127 -39l74 76l51 -48l-80 -82q27 -48 27 -119q0 -124 -68 -210q-80 -98 -214 -98q-76 0 -125 39l-74 -76l-51 48l79 81q-28 49 -28 120zM301 436q-84 0 -140 -71q-45 -57 -45 -149q0 -46 6 -64l254 259
q-28 25 -75 25zM419 288q0 40 -6 62l-253 -259q29 -23 74 -23q84 0 140 71q45 57 45 149z" />
    <glyph glyph-name="uni0202" unicode="&#x202;" horiz-adv-x="574" 
d="M-57 0l372 700h85l106 -700h-89l-25 187h-261l-99 -187h-89zM380 271l-45 315l-160 -315h205z" />
    <glyph glyph-name="uni0203" unicode="&#x203;" horiz-adv-x="586" 
d="M530 504l-97 -504h-85l12 62q-63 -70 -149 -70q-89 0 -136.5 56t-47.5 149q0 131 72 223t201 92q47 0 85.5 -21t48.5 -47l11 60h85zM235 68q57 0 98 38q76 71 76 198q0 62 -30 97t-86 35q-85 0 -131 -66q-46 -65 -46 -150q0 -70 31.5 -111t87.5 -41z" />
    <glyph glyph-name="uni0206" unicode="&#x206;" horiz-adv-x="563" 
d="M35 0l137 700h396l-17 -84h-307l-39 -201h250l-16 -84h-250l-48 -247h317l-17 -84h-406z" />
    <glyph glyph-name="uni0207" unicode="&#x207;" horiz-adv-x="562" 
d="M498 273l-8 -39h-373q-3 -20 -3 -36q0 -61 30.5 -95.5t86.5 -34.5q52 0 88 23.5t69 75.5l72 -35q-50 -75 -107 -107.5t-137 -32.5q-87 0 -139 58t-52 154q0 118 84 213t208 95q86 0 136 -51t50 -138q0 -18 -5 -50zM302 436q-54 0 -99 -34.5t-67 -91.5h278q0 126 -112 126
z" />
    <glyph glyph-name="uni020A" unicode="&#x20a;" horiz-adv-x="296" 
d="M35 0l137 700h89l-137 -700h-89z" />
    <glyph glyph-name="uni020B" unicode="&#x20b;" horiz-adv-x="276" 
d="M30 0l98 504h85l-98 -504h-85z" />
    <glyph glyph-name="uni020E" unicode="&#x20e;" horiz-adv-x="713" 
d="M425 708q111 0 178 -76q69 -75 69 -207q0 -219 -151 -348q-98 -85 -235 -85q-110 0 -179 75q-68 77 -68 208q0 219 151 348q98 85 235 85zM410 624q-105 0 -181 -82q-98 -104 -98 -259q0 -100 43.5 -153.5t126.5 -53.5q105 0 181 82q98 104 98 259q0 100 -43.5 153.5
t-126.5 53.5z" />
    <glyph glyph-name="uni020F" unicode="&#x20f;" horiz-adv-x="573" 
d="M27 204q0 124 69 210q80 98 213 98q93 0 146 -56t53 -156q0 -124 -69 -210q-80 -98 -213 -98q-93 0 -146 56t-53 156zM301 436q-84 0 -140 -71q-45 -57 -45 -149q0 -70 30.5 -109t87.5 -39q84 0 140 71q45 57 45 149q0 70 -30.5 109t-87.5 39z" />
    <glyph glyph-name="uni0212" unicode="&#x212;" horiz-adv-x="596" 
d="M530 0h-99l-139 330h-103l-65 -330h-89l137 700h222q83 0 130.5 -42t47.5 -115q0 -87 -49 -141.5t-136 -65.5zM380 616h-136l-39 -202h139q65 0 100.5 29t35.5 84q0 89 -100 89z" />
    <glyph glyph-name="uni0213" unicode="&#x213;" horiz-adv-x="437" 
d="M428 497l-31 -75q-26 14 -53 14q-56 0 -110 -51q-52 -51 -75 -162l-44 -223h-85l98 504h85l-17 -86q60 94 163 94q45 0 69 -15z" />
    <glyph glyph-name="uni0216" unicode="&#x216;" horiz-adv-x="672" 
d="M76 238l89 462h89l-91 -468q-4 -23 -4 -40q0 -116 122 -116q75 0 123.5 40.5t62.5 115.5l91 468h89l-89 -462q-46 -246 -288 -246q-90 0 -145 49t-55 130q0 35 6 67z" />
    <glyph glyph-name="uni0217" unicode="&#x217;" 
d="M55 149l69 355h85l-64 -333q-4 -21 -4 -35q0 -68 67 -68q54 0 111 63q56 62 76 162l41 211h85l-98 -504h-85l18 93q-77 -101 -182 -101q-58 0 -90 29t-32 81q0 24 3 47z" />
    <glyph glyph-name="Scommaaccent" unicode="&#x218;" horiz-adv-x="523" 
d="M132 -285h-63l102 217h117zM487 584l-76 -42q-30 82 -96 82q-46 0 -71.5 -26t-25.5 -71q0 -41 24.5 -67t86.5 -58t96 -67q37 -38 37 -112q0 -106 -66 -166q-39 -36 -81.5 -50.5t-103.5 -14.5q-74 0 -132 56q-57 57 -57 136l80 43q5 -69 38 -110t90 -41q62 0 101 35t39 96
q0 46 -23.5 72.5t-83.5 55.5q-137 68 -137 179q0 91 56.5 142.5t148.5 51.5q58 0 100.5 -35.5t55.5 -88.5z" />
    <glyph glyph-name="scommaaccent" unicode="&#x219;" horiz-adv-x="460" 
d="M115 -285h-63l102 217h117zM259 512q47 0 86 -22.5t59 -61.5l-66 -49q-38 57 -89 57q-30 0 -49 -17t-19 -46q0 -25 17 -42t52 -33q52 -22 83 -48q43 -31 43 -92q0 -76 -50.5 -121t-131.5 -45q-74 0 -122 42q-49 44 -56 101l74 36q21 -103 114 -103q38 0 60.5 20.5
t22.5 53.5q0 38 -26 57q-19 14 -66 35q-99 44 -99 134q0 66 44 105t119 39z" />
    <glyph glyph-name="uni021A" unicode="&#x21a;" horiz-adv-x="507" 
d="M103 -277h-63l102 217h117zM258 616h-197l17 84h483l-17 -84h-197l-120 -616h-89z" />
    <glyph glyph-name="uni021B" unicode="&#x21b;" horiz-adv-x="350" 
d="M98 -285h-63l102 217h117zM116 428h-87l14 76h87l30 151l94 53l-40 -204h127l-14 -76h-127l-52 -268q-5 -28 -5 -36q0 -56 54 -56q32 0 60 16l6 -73q-37 -19 -86 -19q-57 0 -88 30t-31 87q0 19 7 58z" />
    <glyph glyph-name="uni021E" unicode="&#x21e;" horiz-adv-x="695" 
d="M531 932h98l-179 -164h-31l-124 164h89l61 -80zM515 414l56 286h89l-137 -700h-89l65 330h-310l-65 -330h-89l137 700h89l-56 -286h310z" />
    <glyph glyph-name="uni021F" unicode="&#x21f;" horiz-adv-x="584" 
d="M483 932h98l-179 -164h-31l-124 164h89l61 -80zM502 350l-68 -350h-85l64 333q3 18 3 36q0 67 -69 67q-56 0 -115 -62q-56 -61 -76 -160l-41 -214h-85l137 708h85l-58 -298q74 102 190 102q57 0 90 -29.5t33 -82.5q0 -18 -5 -50z" />
    <glyph glyph-name="uni0226" unicode="&#x226;" horiz-adv-x="574" 
d="M320 830q0 27 18.5 45.5t44.5 18.5q27 0 45 -18.5t18 -45.5q0 -26 -18 -44t-45 -18q-26 0 -44.5 18t-18.5 44zM-57 0l372 700h85l106 -700h-89l-25 187h-261l-99 -187h-89zM380 271l-45 315l-160 -315h205z" />
    <glyph glyph-name="uni0227" unicode="&#x227;" horiz-adv-x="586" 
d="M261 634q0 27 18.5 45.5t44.5 18.5q27 0 45 -18.5t18 -45.5q0 -26 -18 -44t-45 -18q-26 0 -44.5 18t-18.5 44zM530 504l-97 -504h-85l12 62q-63 -70 -149 -70q-89 0 -136.5 56t-47.5 149q0 131 72 223t201 92q47 0 85.5 -21t48.5 -47l11 60h85zM235 68q57 0 98 38
q76 71 76 198q0 62 -30 97t-86 35q-85 0 -131 -66q-46 -65 -46 -150q0 -70 31.5 -111t87.5 -41z" />
    <glyph glyph-name="uni0228" unicode="&#x228;" horiz-adv-x="563" 
d="M35 0l137 700h396l-17 -84h-307l-39 -201h250l-16 -84h-250l-48 -247h317l-17 -84h-202l-107 -169l-89 45l120 124h-128z" />
    <glyph glyph-name="uni0229" unicode="&#x229;" horiz-adv-x="562" 
d="M498 273l-8 -39h-373q-3 -20 -3 -36q0 -61 30.5 -95.5t86.5 -34.5q52 0 88 23.5t69 75.5l72 -35q-50 -74 -106.5 -106.5t-136.5 -33.5l-107 -169l-89 45l126 130h16q-52 12 -86 52q-52 58 -52 154q0 118 84 213t208 95q86 0 136 -51t50 -138q0 -18 -5 -50zM302 436
q-54 0 -99 -34.5t-67 -91.5h278q0 126 -112 126z" />
    <glyph glyph-name="uni022A" unicode="&#x22a;" horiz-adv-x="713" 
d="M580 964h-249l15 76h249zM425 708q111 0 178 -76q69 -75 69 -207q0 -219 -151 -348q-98 -85 -235 -85q-110 0 -179 75q-68 77 -68 208q0 219 151 348q98 85 235 85zM410 624q-105 0 -181 -82q-98 -104 -98 -259q0 -100 43.5 -153.5t126.5 -53.5q105 0 181 82
q98 104 98 259q0 100 -43.5 153.5t-126.5 53.5zM361 904q25 0 41 -16.5t16 -40.5t-16 -40t-41 -16q-23 0 -39.5 16t-16.5 40t16.5 40.5t39.5 16.5zM527 904q25 0 41 -16.5t16 -40.5t-16 -40t-41 -16q-23 0 -39.5 16t-16.5 40t16.5 40.5t39.5 16.5z" />
    <glyph glyph-name="uni022B" unicode="&#x22b;" horiz-adv-x="573" 
d="M482 768h-249l15 76h249zM27 204q0 124 69 210q80 98 213 98q93 0 146 -56t53 -156q0 -124 -69 -210q-80 -98 -213 -98q-93 0 -146 56t-53 156zM301 436q-84 0 -140 -71q-45 -57 -45 -149q0 -70 30.5 -109t87.5 -39q84 0 140 71q45 57 45 149q0 70 -30.5 109t-87.5 39z
M263 708q25 0 41 -16.5t16 -40.5t-16 -40t-41 -16q-23 0 -39.5 16t-16.5 40t16.5 40.5t39.5 16.5zM429 708q25 0 41 -16.5t16 -40.5t-16 -40t-41 -16q-23 0 -39.5 16t-16.5 40t16.5 40.5t39.5 16.5z" />
    <glyph glyph-name="uni022C" unicode="&#x22c;" horiz-adv-x="713" 
d="M524 956h-249l15 76h249zM425 708q111 0 178 -76q69 -75 69 -207q0 -219 -151 -348q-98 -85 -235 -85q-110 0 -179 75q-68 77 -68 208q0 219 151 348q98 85 235 85zM410 624q-105 0 -181 -82q-98 -104 -98 -259q0 -100 43.5 -153.5t126.5 -53.5q105 0 181 82
q98 104 98 259q0 100 -43.5 153.5t-126.5 53.5zM308 781l-41 42q54 73 121 73q35 0 66 -20q32 -20 54 -20q38 0 73 35l41 -43q-54 -72 -121 -72q-35 0 -67 20q-31 20 -53 20q-38 0 -73 -35z" />
    <glyph glyph-name="uni022D" unicode="&#x22d;" horiz-adv-x="573" 
d="M416 760h-249l15 76h249zM27 204q0 124 69 210q80 98 213 98q93 0 146 -56t53 -156q0 -124 -69 -210q-80 -98 -213 -98q-93 0 -146 56t-53 156zM301 436q-84 0 -140 -71q-45 -57 -45 -149q0 -70 30.5 -109t87.5 -39q84 0 140 71q45 57 45 149q0 70 -30.5 109t-87.5 39z
M200 585l-41 42q54 73 121 73q35 0 66 -20q32 -20 54 -20q38 0 73 35l41 -43q-54 -72 -121 -72q-35 0 -67 20q-31 20 -53 20q-38 0 -73 -35z" />
    <glyph glyph-name="uni022E" unicode="&#x22e;" horiz-adv-x="713" 
d="M386 830q0 27 18.5 45.5t44.5 18.5q27 0 45 -18.5t18 -45.5q0 -26 -18 -44t-45 -18q-26 0 -44.5 18t-18.5 44zM425 708q111 0 178 -76q69 -75 69 -207q0 -219 -151 -348q-98 -85 -235 -85q-110 0 -179 75q-68 77 -68 208q0 219 151 348q98 85 235 85zM410 624
q-105 0 -181 -82q-98 -104 -98 -259q0 -100 43.5 -153.5t126.5 -53.5q105 0 181 82q98 104 98 259q0 100 -43.5 153.5t-126.5 53.5z" />
    <glyph glyph-name="uni022F" unicode="&#x22f;" horiz-adv-x="573" 
d="M270 634q0 27 18.5 45.5t44.5 18.5q27 0 45 -18.5t18 -45.5q0 -26 -18 -44t-45 -18q-26 0 -44.5 18t-18.5 44zM27 204q0 124 69 210q80 98 213 98q93 0 146 -56t53 -156q0 -124 -69 -210q-80 -98 -213 -98q-93 0 -146 56t-53 156zM301 436q-84 0 -140 -71
q-45 -57 -45 -149q0 -70 30.5 -109t87.5 -39q84 0 140 71q45 57 45 149q0 70 -30.5 109t-87.5 39z" />
    <glyph glyph-name="uni0230" unicode="&#x230;" horiz-adv-x="713" 
d="M585 954h-249l15 76h249zM386 830q0 27 18.5 45.5t44.5 18.5q27 0 45 -18.5t18 -45.5q0 -26 -18 -44t-45 -18q-26 0 -44.5 18t-18.5 44zM425 708q111 0 178 -76q69 -75 69 -207q0 -219 -151 -348q-98 -85 -235 -85q-110 0 -179 75q-68 77 -68 208q0 219 151 348
q98 85 235 85zM410 624q-105 0 -181 -82q-98 -104 -98 -259q0 -100 43.5 -153.5t126.5 -53.5q105 0 181 82q98 104 98 259q0 100 -43.5 153.5t-126.5 53.5z" />
    <glyph glyph-name="circumflex" unicode="&#x2c6;" horiz-adv-x="396" 
d="M166 566h-98l179 164h31l124 -164h-89l-61 80z" />
    <glyph glyph-name="caron" unicode="&#x2c7;" horiz-adv-x="373" 
d="M320 730h98l-179 -164h-31l-124 164h89l61 -80z" />
    <glyph glyph-name="breve" unicode="&#x2d8;" horiz-adv-x="245" 
d="M227 700h67q-13 -51 -48 -80t-84 -29q-40 0 -66 24t-26 63q0 4 2 22h67q-1 -3 -1 -10q0 -16 10 -25.5t26 -9.5q44 0 53 45z" />
    <glyph glyph-name="dotaccent" unicode="&#x2d9;" horiz-adv-x="276" 
d="M132 644q0 27 18.5 45.5t44.5 18.5q27 0 45 -18.5t18 -45.5q0 -26 -18 -44t-45 -18q-26 0 -44.5 18t-18.5 44z" />
    <glyph glyph-name="ring" unicode="&#x2da;" horiz-adv-x="209" 
d="M58 653q0 42 28.5 71t70.5 29t70.5 -29t28.5 -71q0 -41 -28 -68.5t-71 -27.5q-42 0 -70.5 27.5t-28.5 68.5zM114 654q-2 -27 20.5 -38t45 0t20.5 38q2 28 -20.5 40t-45 0t-20.5 -40z" />
    <glyph glyph-name="ogonek" unicode="&#x2db;" horiz-adv-x="225" 
d="M44 -60h62q-73 -49 -73 -85q0 -25 25 -25q26 0 63 41l36 -35q-31 -38 -59 -54.5t-63 -16.5q-32 0 -51.5 18t-19.5 49q0 57 80 108z" />
    <glyph glyph-name="tilde" unicode="&#x2dc;" horiz-adv-x="387" 
d="M108 585l-41 42q54 73 121 73q35 0 66 -20q32 -20 54 -20q38 0 73 35l41 -43q-54 -72 -121 -72q-35 0 -67 20q-31 20 -53 20q-38 0 -73 -35z" />
    <glyph glyph-name="hungarumlaut" unicode="&#x2dd;" horiz-adv-x="395" 
d="M120 560h-72l97 144h123zM300 560h-72l97 144h123z" />
    <glyph glyph-name="Omega" unicode="&#x3a9;" horiz-adv-x="682" 
d="M295 0h-220v76h129l-30 56q-18 36 -48 132t-30 176q0 119 65 193q66 75 180 75q115 0 179 -75q66 -74 66 -193q0 -80 -27 -171q-27 -90 -54 -142l-27 -51h129v-76h-220v23l12 24q2 4 5.5 12.5t9.5 23.5t11 26q22 55 34 95q15 45 27 112q12 66 12 124q0 90 -41.5 141
t-115.5 51t-115.5 -51t-41.5 -141q0 -94 28 -196q30 -108 56 -162l27 -59v-23z" />
    <glyph glyph-name="pi" unicode="&#x3c0;" horiz-adv-x="605" 
d="M143 428h-88v76h494v-76h-88v-428h-84v428h-150v-428h-84v428z" />
    <glyph glyph-name="uni2010" unicode="&#x2010;" horiz-adv-x="479" 
d="M409 280h-354v74h354v-74z" />
    <glyph glyph-name="uni2011" unicode="&#x2011;" horiz-adv-x="479" 
d="M409 280h-354v74h354v-74z" />
    <glyph glyph-name="figuredash" unicode="&#x2012;" horiz-adv-x="582" 
d="M512 280h-457v74h457v-74z" />
    <glyph glyph-name="endash" unicode="&#x2013;" horiz-adv-x="545" 
d="M467 280h-412l15 74h412z" />
    <glyph glyph-name="emdash" unicode="&#x2014;" horiz-adv-x="736" 
d="M658 280h-603l15 74h603z" />
    <glyph glyph-name="afii00208" unicode="&#x2015;" horiz-adv-x="2000" 
d="M1930 280h-1875v74h1875v-74z" />
    <glyph glyph-name="uni2016" unicode="&#x2016;" horiz-adv-x="490" 
d="M345 -50v800h80v-800h-80zM100 -50v800h80v-800h-80z" />
    <glyph glyph-name="quoteleft" unicode="&#x2018;" horiz-adv-x="242" 
d="M71 708h119l29 -205h-61z" />
    <glyph glyph-name="quoteright" unicode="&#x2019;" horiz-adv-x="243" 
d="M140 503h-64l103 205h125z" />
    <glyph glyph-name="quotesinglbase" unicode="&#x201a;" horiz-adv-x="328" 
d="M59 -14h-64l103 205h125z" />
    <glyph glyph-name="quotedblleft" unicode="&#x201c;" horiz-adv-x="412" 
d="M71 708h119l29 -205h-61zM241 708h119l29 -205h-61z" />
    <glyph glyph-name="quotedblright" unicode="&#x201d;" horiz-adv-x="423" 
d="M140 503h-64l103 205h125zM320 503h-64l103 205h125z" />
    <glyph glyph-name="quotedblbase" unicode="&#x201e;" horiz-adv-x="508" 
d="M59 -14h-64l103 205h125zM239 -14h-64l103 205h125z" />
    <glyph glyph-name="dagger" unicode="&#x2020;" horiz-adv-x="454" 
d="M199 424h-129l14 80h130l48 246h81l-48 -246h130l-15 -80h-130l-92 -474h-81z" />
    <glyph glyph-name="daggerdbl" unicode="&#x2021;" horiz-adv-x="454" 
d="M199 424h-129l14 80h130l48 246h81l-48 -246h130l-15 -80h-130l-29 -148h130l-15 -80h-130l-48 -246h-81l48 246h-129l15 80h129z" />
    <glyph glyph-name="bullet" unicode="&#x2022;" horiz-adv-x="321" 
d="M97 275q-22 23 -22 55t22 54q23 23 55 23t54 -23q23 -22 23 -54t-23 -55q-22 -22 -54 -22t-55 22z" />
    <glyph glyph-name="onedotenleader" unicode="&#x2024;" horiz-adv-x="275" 
d="M25 59q0 26 18 44.5t45 18.5q26 0 44.5 -18.5t18.5 -44.5q0 -27 -18.5 -45t-44.5 -18q-27 0 -45 18t-18 45z" />
    <glyph glyph-name="twodotenleader" unicode="&#x2025;" horiz-adv-x="550" 
d="M300 59q0 26 18 44.5t45 18.5q26 0 44.5 -18.5t18.5 -44.5q0 -27 -18.5 -45t-44.5 -18q-27 0 -45 18t-18 45zM25 59q0 26 18 44.5t45 18.5q26 0 44.5 -18.5t18.5 -44.5q0 -27 -18.5 -45t-44.5 -18q-27 0 -45 18t-18 45z" />
    <glyph glyph-name="ellipsis" unicode="&#x2026;" horiz-adv-x="805" 
d="M25 59q0 26 18 44.5t45 18.5q26 0 44.5 -18.5t18.5 -44.5q0 -27 -18.5 -45t-44.5 -18q-27 0 -45 18t-18 45zM290 59q0 26 18 44.5t45 18.5q26 0 44.5 -18.5t18.5 -44.5q0 -27 -18.5 -45t-44.5 -18q-27 0 -45 18t-18 45zM555 59q0 26 18 44.5t45 18.5q26 0 44.5 -18.5
t18.5 -44.5q0 -27 -18.5 -45t-44.5 -18q-27 0 -45 18t-18 45z" />
    <glyph glyph-name="perthousand" unicode="&#x2030;" horiz-adv-x="1254" 
d="M77 526q0 82 58 134q53 48 131 48q57 0 95.5 -38.5t38.5 -99.5q0 -82 -58 -134q-52 -48 -131 -48q-57 0 -95.5 38.5t-38.5 99.5zM254 638q-41 0 -70 -26q-33 -30 -33 -76q0 -37 19.5 -57.5t52.5 -20.5q41 0 70 26q33 30 33 76q0 37 -19.5 57.5t-52.5 20.5zM447 130
q0 82 58 134q53 48 131 48q57 0 95.5 -38.5t38.5 -99.5q0 -82 -58 -134q-52 -48 -131 -48q-57 0 -95.5 38.5t-38.5 99.5zM624 242q-41 0 -70 -26q-33 -30 -33 -76q0 -37 19.5 -57.5t52.5 -20.5q41 0 70 26q33 30 33 76q0 37 -19.5 57.5t-52.5 20.5zM847 130q0 82 58 134
q53 48 131 48q57 0 95.5 -38.5t38.5 -99.5q0 -82 -58 -134q-52 -48 -131 -48q-57 0 -95.5 38.5t-38.5 99.5zM1024 242q-41 0 -70 -26q-33 -30 -33 -76q0 -37 19.5 -57.5t52.5 -20.5q41 0 70 26q33 30 33 76q0 37 -19.5 57.5t-52.5 20.5zM71 15l676 718l46 -43l-677 -719z
" />
    <glyph glyph-name="minute" unicode="&#x2032;" horiz-adv-x="290" 
d="M192 476h-62l20 232h112z" />
    <glyph glyph-name="second" unicode="&#x2033;" horiz-adv-x="580" 
d="M482 476h-62l20 232h112zM192 476h-62l20 232h112z" />
    <glyph glyph-name="uni2034" unicode="&#x2034;" horiz-adv-x="870" 
d="M772 476h-62l20 232h112zM482 476h-62l20 232h112zM192 476h-62l20 232h112z" />
    <glyph glyph-name="uni2035" unicode="&#x2035;" horiz-adv-x="206" 
d="M55 704h121l48 -144h-68z" />
    <glyph glyph-name="uni2036" unicode="&#x2036;" horiz-adv-x="412" 
d="M261 704h121l48 -144h-68zM55 704h121l48 -144h-68z" />
    <glyph glyph-name="uni2037" unicode="&#x2037;" horiz-adv-x="618" 
d="M467 704h121l48 -144h-68zM261 704h121l48 -144h-68zM55 704h121l48 -144h-68z" />
    <glyph glyph-name="guilsinglleft" unicode="&#x2039;" horiz-adv-x="386" 
d="M274 80l-239 199l13 62l316 204l-21 -107l-222 -135l170 -135z" />
    <glyph glyph-name="guilsinglright" unicode="&#x203a;" horiz-adv-x="386" 
d="M108 545l239 -199l-13 -62l-316 -204l21 107l222 135l-170 135z" />
    <glyph glyph-name="exclamdbl" unicode="&#x203c;" horiz-adv-x="694" 
d="M469 200l73 500h114l-121 -500h-66zM407 65q0 30 20 50.5t50 20.5t50 -20.5t20 -50.5q0 -29 -20 -48.5t-50 -19.5t-50 19.5t-20 48.5zM122 200l73 500h114l-121 -500h-66zM60 65q0 30 20 50.5t50 20.5t50 -20.5t20 -50.5q0 -29 -20 -48.5t-50 -19.5t-50 19.5t-20 48.5z
" />
    <glyph glyph-name="uni203E" unicode="&#x203e;" horiz-adv-x="232" 
d="M136 60h-249l15 76h249z" />
    <glyph glyph-name="fraction" unicode="&#x2044;" horiz-adv-x="742" 
d="M10 15l676 718l46 -43l-677 -719z" />
    <glyph glyph-name="uni2047" unicode="&#x2047;" horiz-adv-x="890" 
d="M721 336l65 -29q-31 -60 -62.5 -83t-82.5 -23q-54 0 -87 31.5t-33 82.5q0 50 27 81.5t85 56.5l98 43q61 28 61 77q0 30 -20.5 47.5t-53.5 17.5q-76 0 -116 -97l-77 21q24 67 77 106.5t126 39.5q68 0 107.5 -35t39.5 -95q0 -48 -24 -79.5t-74 -55.5l-119 -57
q-32 -16 -46.5 -31.5t-14.5 -38.5q0 -20 13 -32.5t32 -12.5q25 0 42 15t37 50zM536 63q0 29 19 48.5t47 19.5q29 0 48.5 -19.5t19.5 -48.5q0 -28 -19.5 -47t-48.5 -19q-28 0 -47 19t-19 47zM276 336l65 -29q-31 -60 -62.5 -83t-82.5 -23q-54 0 -87 31.5t-33 82.5
q0 50 27 81.5t85 56.5l98 43q61 28 61 77q0 30 -20.5 47.5t-53.5 17.5q-76 0 -116 -97l-77 21q24 67 77 106.5t126 39.5q68 0 107.5 -35t39.5 -95q0 -48 -24 -79.5t-74 -55.5l-119 -57q-32 -16 -46.5 -31.5t-14.5 -38.5q0 -20 13 -32.5t32 -12.5q25 0 42 15t37 50zM91 63
q0 29 19 48.5t47 19.5q29 0 48.5 -19.5t19.5 -48.5q0 -28 -19.5 -47t-48.5 -19q-28 0 -47 19t-19 47z" />
    <glyph glyph-name="uni2048" unicode="&#x2048;" horiz-adv-x="792" 
d="M567 200l73 500h114l-121 -500h-66zM505 65q0 30 20 50.5t50 20.5t50 -20.5t20 -50.5q0 -29 -20 -48.5t-50 -19.5t-50 19.5t-20 48.5zM276 336l65 -29q-31 -60 -62.5 -83t-82.5 -23q-54 0 -87 31.5t-33 82.5q0 50 27 81.5t85 56.5l98 43q61 28 61 77q0 30 -20.5 47.5
t-53.5 17.5q-76 0 -116 -97l-77 21q24 67 77 106.5t126 39.5q68 0 107.5 -35t39.5 -95q0 -48 -24 -79.5t-74 -55.5l-119 -57q-32 -16 -46.5 -31.5t-14.5 -38.5q0 -20 13 -32.5t32 -12.5q25 0 42 15t37 50zM91 63q0 29 19 48.5t47 19.5q29 0 48.5 -19.5t19.5 -48.5
q0 -28 -19.5 -47t-48.5 -19q-28 0 -47 19t-19 47z" />
    <glyph glyph-name="uni2049" unicode="&#x2049;" horiz-adv-x="792" 
d="M623 336l65 -29q-31 -60 -62.5 -83t-82.5 -23q-54 0 -87 31.5t-33 82.5q0 50 27 81.5t85 56.5l98 43q61 28 61 77q0 30 -20.5 47.5t-53.5 17.5q-76 0 -116 -97l-77 21q24 67 77 106.5t126 39.5q68 0 107.5 -35t39.5 -95q0 -48 -24 -79.5t-74 -55.5l-119 -57
q-32 -16 -46.5 -31.5t-14.5 -38.5q0 -20 13 -32.5t32 -12.5q25 0 42 15t37 50zM438 63q0 29 19 48.5t47 19.5q29 0 48.5 -19.5t19.5 -48.5q0 -28 -19.5 -47t-48.5 -19q-28 0 -47 19t-19 47zM122 200l73 500h114l-121 -500h-66zM60 65q0 30 20 50.5t50 20.5t50 -20.5
t20 -50.5q0 -29 -20 -48.5t-50 -19.5t-50 19.5t-20 48.5z" />
    <glyph glyph-name="uni2057" unicode="&#x2057;" horiz-adv-x="1160" 
d="M1062 476h-62l20 232h112zM772 476h-62l20 232h112zM482 476h-62l20 232h112zM192 476h-62l20 232h112z" />
    <glyph glyph-name="uni20A8" unicode="&#x20a8;" horiz-adv-x="1056" 
d="M855 512q47 0 86 -22.5t59 -61.5l-66 -49q-38 57 -89 57q-30 0 -49 -17t-19 -46q0 -25 17 -42t52 -33q52 -22 83 -48q43 -31 43 -92q0 -76 -50.5 -121t-131.5 -45q-74 0 -122 42q-49 44 -56 101l74 36q21 -103 114 -103q38 0 60.5 20.5t22.5 53.5q0 38 -26 57
q-19 14 -66 35q-99 44 -99 134q0 66 44 105t119 39zM530 0h-99l-139 330h-103l-65 -330h-89l137 700h222q83 0 130.5 -42t47.5 -115q0 -87 -49 -141.5t-136 -65.5zM380 616h-136l-39 -202h139q65 0 100.5 29t35.5 84q0 89 -100 89z" />
    <glyph glyph-name="Euro" unicode="&#x20ac;" horiz-adv-x="603" 
d="M129 387h-90l55 80h57q84 241 302 241q66 0 111.5 -30t63.5 -84l-75 -37q-30 71 -115 71q-139 0 -202 -161h236l-55 -80h-204l-15 -74h244l-55 -80h-196q0 -161 143 -161q42 0 72.5 17t63.5 56l63 -39q-81 -114 -214 -114q-99 0 -156 63.5t-57 177.5h-96l54 80h50z" />
    <glyph glyph-name="trademark" unicode="&#x2122;" horiz-adv-x="818" 
d="M186 641h-105l11 59h282l-11 -59h-105l-66 -341h-72zM370 300l77 400h75l53 -258l154 258h78l-77 -400h-72l48 250l-128 -213h-42l-45 216l-49 -253h-72z" />
    <glyph glyph-name="partialdiff" unicode="&#x2202;" horiz-adv-x="601" 
d="M48 211q0 128 79 214q79 87 204 87q80 0 121 -50q-8 80 -47 125t-99 45q-80 0 -118 -84l-82 21q25 65 78.5 102t124.5 37q115 0 172.5 -91t57.5 -260q0 -69 -16.5 -132t-49.5 -116.5t-89.5 -85t-129.5 -31.5q-92 0 -149 61t-57 158zM323 436q-85 0 -137 -70
q-52 -68 -52 -157q0 -64 34 -102.5t91 -38.5q85 0 136 66q51 68 51 162q0 66 -32 103t-91 37z" />
    <glyph glyph-name="Delta" unicode="&#x2206;" horiz-adv-x="668" 
d="M613 0h-558v20l240 680h78l240 -680v-20zM508 76l-174 503l-174 -503h348z" />
    <glyph glyph-name="product" unicode="&#x220f;" horiz-adv-x="552" 
d="M176 0h-84v700h368v-700h-84v624h-200v-624z" />
    <glyph glyph-name="summation" unicode="&#x2211;" horiz-adv-x="550" 
d="M485 624h-300l169 -264v-20l-169 -264h300v-76h-427v20l212 330l-212 330v20h427v-76z" />
    <glyph glyph-name="minus" unicode="&#x2212;" horiz-adv-x="570" 
d="M507 280h-440v74h440v-74z" />
    <glyph glyph-name="radical" unicode="&#x221a;" horiz-adv-x="572" 
d="M297 132l170 576h80l-217 -708h-66l-102 313h-104v76h153z" />
    <glyph glyph-name="infinity" unicode="&#x221e;" horiz-adv-x="880" 
d="M638 168q-53 0 -106.5 29t-91.5 82q-38 -53 -91.5 -82t-106.5 -29q-85 0 -134.5 52t-49.5 139t49.5 139t134.5 52q53 0 106.5 -29t91.5 -82q38 53 91.5 82t106.5 29q85 0 134.5 -52t49.5 -139t-49.5 -139t-134.5 -52zM257 244q36 0 75.5 31t65.5 84q-26 53 -65.5 84
t-75.5 31q-52 0 -82.5 -30.5t-30.5 -84.5t30.5 -84.5t82.5 -30.5zM623 244q52 0 82.5 30.5t30.5 84.5t-30.5 84.5t-82.5 30.5q-36 0 -75.5 -31t-65.5 -84q26 -53 65.5 -84t75.5 -31z" />
    <glyph glyph-name="integral" unicode="&#x222b;" horiz-adv-x="478" 
d="M96 -41l112 578q33 171 196 171q41 0 69 -16l-31 -74q-25 14 -54 14q-41 0 -63.5 -23t-32.5 -72l-112 -578q-33 -171 -196 -171q-41 0 -69 16l31 74q25 -14 54 -14q41 0 63.5 23t32.5 72z" />
    <glyph glyph-name="approxequal" unicode="&#x2248;" horiz-adv-x="604" 
d="M117 168l-49 50q22 41 57 65t75 24q45 0 102 -25t92 -25q56 0 93 45l49 -51q-22 -42 -56.5 -65t-75.5 -23q-45 0 -102 25q-56 25 -92 25q-56 0 -93 -45zM117 368l-49 50q22 41 57 65t75 24q45 0 102 -25t92 -25q56 0 93 45l49 -51q-22 -42 -56.5 -65t-75.5 -23
q-45 0 -102 25q-56 25 -92 25q-56 0 -93 -45z" />
    <glyph glyph-name="notequal" unicode="&#x2260;" horiz-adv-x="559" 
d="M263 356h-183v74h225l59 102l64 -37l-37 -65h88v-74h-132l-51 -92h183v-74h-225l-59 -102l-64 37l37 65h-88v74h132z" />
    <glyph glyph-name="lessequal" unicode="&#x2264;" horiz-adv-x="557" 
d="M495 0h-440v74h440v-74zM450 173l-349 185v88l349 185v-86l-267 -143l267 -143v-86z" />
    <glyph glyph-name="greaterequal" unicode="&#x2265;" horiz-adv-x="557" 
d="M62 74h440v-74h-440v74zM107 631l349 -185v-88l-349 -185v86l267 143l-267 143v86z" />
    <glyph glyph-name="lozenge" unicode="&#x25ca;" horiz-adv-x="512" 
d="M297 0h-82l-180 350l180 350h82l180 -350zM119 350l137 -274l137 274l-137 274z" />
    <glyph glyph-name="apple" unicode="&#xf8ff;" horiz-adv-x="786" 
d="M689 617v-595q0 -9 -6.5 -15.5t-15.5 -6.5q-4 0 -7 1l-267 77l-267 -77q-3 -1 -7 -1q-9 0 -15.5 6.5t-6.5 15.5v595q0 18 16 22l270 78q10 4 20 0l270 -78q16 -4 16 -22zM371 366v303l-230 -67q6 -93 71 -161q66 -67 159 -75zM645 602l-230 67v-303q94 8 158 75
q66 68 72 161zM140 463v-412l231 67v204q-73 6 -134 43.5t-97 97.5zM415 118l231 -67v412q-37 -60 -98 -97.5t-133 -43.5v-204z" />
    <glyph glyph-name="zero.tn" horiz-adv-x="560" 
d="M355 708q91 0 141 -64.5t50 -186.5q0 -225 -105 -358q-84 -107 -216 -107q-91 0 -141 65t-50 186q0 225 105 358q84 107 216 107zM343 628q-56 0 -101.5 -38t-70.5 -100q-48 -120 -48 -236q0 -94 28 -138t86 -44t103.5 38.5t69.5 98.5t36 121t11 116q0 94 -28 138t-86 44
z" />
    <glyph glyph-name="one.tn" horiz-adv-x="560" 
d="M189 592l199 108h32l-137 -700h-83l112 574l-141 -74z" />
    <glyph glyph-name="two.tn" horiz-adv-x="560" 
d="M435 0h-415l7 39l322 342q6 7 43 47q43 52 43 103q0 97 -90 97q-44 0 -79 -32.5t-51 -87.5l-85 16q22 84 79.5 134t142.5 50q77 0 124.5 -43.5t47.5 -111.5q0 -57 -20.5 -100t-70.5 -96l-260 -277h277z" />
    <glyph glyph-name="three.tn" horiz-adv-x="560" 
d="M52 184v8l84 11v-6q0 -56 33.5 -90.5t90.5 -34.5q145 0 145 173q0 59 -30 91t-85 32q-36 0 -65 -13l-26 47l189 218h-243l15 80h381l-5 -27l-222 -241q11 3 26 3q73 0 113.5 -49t40.5 -139q0 -114 -65 -185q-64 -70 -179 -70q-88 0 -143 57q-55 56 -55 135z" />
    <glyph glyph-name="four.tn" horiz-adv-x="560" 
d="M370 0h-89l29 149h-293l7 35l386 516h97l-92 -471h83l-16 -80h-83zM388 554l-241 -325h179z" />
    <glyph glyph-name="five.tn" horiz-adv-x="560" 
d="M38 173v11l82 15v-8q0 -54 28.5 -86.5t79.5 -32.5q72 0 117 51q46 52 46 135q0 126 -107 126q-39 0 -81 -21t-75 -57l-53 12l105 382h343l-15 -80h-267l-60 -203q53 47 124 47q83 0 129 -49t46 -144q0 -126 -71 -203q-70 -76 -192 -76q-75 0 -128 50q-51 51 -51 131z" />
    <glyph glyph-name="six.tn" horiz-adv-x="560" 
d="M310 448q81 0 128 -49t47 -139q0 -116 -73 -192t-188 -76q-84 0 -132 50.5t-48 135.5q0 95 66 182l266 348h102l-204 -267q15 7 36 7zM288 369q-68 0 -112 -53q-43 -52 -43 -125q0 -119 103 -119q69 0 114 51q46 52 46 125q0 59 -28.5 90t-79.5 31z" />
    <glyph glyph-name="seven.tn" horiz-adv-x="560" 
d="M563 663l-398 -663h-91l374 620h-286l16 80h393z" />
    <glyph glyph-name="eight.tn" horiz-adv-x="560" 
d="M361 708q76 0 119.5 -43.5t43.5 -117.5q0 -59 -31.5 -103.5t-86.5 -68.5q35 -18 56.5 -55.5t21.5 -88.5q0 -108 -63 -171q-68 -68 -194 -68q-79 0 -132 50t-53 129q0 69 36.5 122.5t105.5 83.5q-55 40 -55 121q0 96 72 157q65 53 160 53zM288 330q-64 0 -111 -42
q-46 -40 -46 -103q0 -52 29.5 -82.5t80.5 -30.5q67 0 110.5 41t43.5 107q0 52 -28 81t-79 29zM346 632q-56 0 -94 -37q-38 -38 -38 -92q0 -43 24 -68t65 -25q54 0 95 35t41 90q0 46 -24 71.5t-69 25.5z" />
    <glyph glyph-name="nine.tn" horiz-adv-x="560" 
d="M263 252q-81 0 -128 49t-47 139q0 116 73 192t188 76q84 0 132 -50.5t48 -135.5q0 -95 -66 -182l-266 -348h-102l204 267q-15 -7 -36 -7zM285 331q68 0 112 53q43 52 43 125q0 119 -103 119q-69 0 -115 -52q-45 -51 -45 -124q0 -59 28.5 -90t79.5 -31z" />
    <glyph glyph-name="No" horiz-adv-x="1254" 
d="M1177 0h-438v76h438v-76zM782 264q-66 76 -66 184q0 106 66 183q68 77 176 77q109 0 175 -77q67 -76 67 -183q0 -108 -67 -184q-66 -76 -175 -76t-176 76zM843 577q-41 -55 -41 -129t41 -130q42 -54 115 -54q74 0 114 54q42 56 42 130q0 75 -42 129q-40 55 -114 55
q-73 0 -115 -55zM516 153v547h88v-700h-103l-316 545v-545h-88v700h103z" />
    </font>
</defs>
</svg>
