<?xml version="1.0" standalone="no"?>
<!DOCTYPE svg PUBLIC "-//W3C//DTD SVG 1.1//EN" "http://www.w3.org/Graphics/SVG/1.1/DTD/svg11.dtd" >
<svg xmlns="http://www.w3.org/2000/svg" xmlns:xlink="http://www.w3.org/1999/xlink" version="1.1">
<metadata>
Created by FontForge 20161013 at Sun Oct  3 21:18:42 2010
 By ,,,
Copyright (c) 2009 by The Entente (AS &#38; EH). All rights reserved.
</metadata>
<defs>
<font id="Apercu-BoldItalic" horiz-adv-x="572" >
  <font-face 
    font-family="Apercu"
    font-weight="700"
    font-style="italic"
    font-stretch="normal"
    units-per-em="1000"
    panose-1="2 0 8 3 4 0 0 9 0 4"
    ascent="800"
    descent="-200"
    x-height="504"
    cap-height="700"
    bbox="-118 -266 1259 953"
    underline-thickness="50"
    underline-position="-200"
    slope="-12"
    unicode-range="U+000D-FB02"
  />
<missing-glyph horiz-adv-x="651" 
d="M561 0h-471v700h471v-700zM438 106v488h-225v-488h225z" />
    <glyph glyph-name="fi" unicode="fi" horiz-adv-x="557" 
d="M95 398h-64l21 106h64l1 6q33 198 266 198q97 0 147 -29l-54 -102q-49 25 -99 25q-117 0 -135 -93l-1 -5h281l-98 -504h-125l77 398h-156l-77 -398h-125z" />
    <glyph glyph-name="fl" unicode="fl" horiz-adv-x="633" 
d="M95 398h-64l21 106h64l5 26q17 88 71.5 133t137.5 45h276l-137 -708h-125l117 602h-144q-57 0 -70 -63l-6 -35h106l-21 -106h-106l-77 -398h-125z" />
    <glyph glyph-name=".notdef" horiz-adv-x="651" 
d="M561 0h-471v700h471v-700zM438 106v488h-225v-488h225z" />
    <glyph glyph-name=".null" horiz-adv-x="0" 
 />
    <glyph glyph-name=".null" horiz-adv-x="0" 
 />
    <glyph glyph-name="nonmarkingreturn" horiz-adv-x="333" 
 />
    <glyph glyph-name="CR" unicode="&#xd;" horiz-adv-x="221" 
 />
    <glyph glyph-name="space" unicode=" " horiz-adv-x="221" 
 />
    <glyph glyph-name="exclam" unicode="!" horiz-adv-x="369" 
d="M116 242l61 458h164l-117 -458h-108zM56 76q0 35 24.5 59.5t58.5 24.5t58.5 -24.5t24.5 -59.5q0 -34 -24 -58t-59 -24t-59 24t-24 58z" />
    <glyph glyph-name="quotedbl" unicode="&#x22;" horiz-adv-x="482" 
d="M191 459h-76l18 249h138zM381 459h-76l18 249h138z" />
    <glyph glyph-name="numbersign" unicode="#" horiz-adv-x="716" 
d="M220 409h-118l12 98h138l63 193h100l-63 -193h113l63 193h100l-63 -193h115l-12 -98h-135l-38 -118h118l-12 -98h-138l-63 -193h-100l63 193h-113l-63 -193h-100l63 193h-115l12 98h135zM433 409h-113l-38 -118h113z" />
    <glyph glyph-name="dollar" unicode="$" horiz-adv-x="540" 
d="M512 577l-108 -60q-29 71 -91 71q-33 0 -53 -19.5t-20 -52.5q0 -30 23.5 -53.5t76.5 -50.5q76 -39 107 -77q34 -38 34 -114q0 -112 -75 -172q-56 -46 -136 -55l-16 -84h-122l17 93q-61 21 -100 73q-38 53 -38 114l111 60q13 -138 125 -138q46 0 72.5 25t26.5 69
q0 37 -21 60t-78 54q-70 38 -104 82.5t-34 109.5q0 78 49 130q50 52 129 63l16 85h122l-19 -98q81 -34 106 -115z" />
    <glyph glyph-name="percent" unicode="%" horiz-adv-x="887" 
d="M55 522q0 82 61 137q53 49 137 49q59 0 97.5 -37.5t38.5 -96.5q0 -82 -61 -137q-53 -49 -137 -49q-59 0 -97.5 37.5t-38.5 96.5zM235 613q-32 0 -54.5 -22.5t-22.5 -55.5q0 -52 51 -52q32 0 54.5 22.5t22.5 55.5q0 52 -51 52zM464 126q0 82 61 137q53 49 137 49
q59 0 97.5 -37.5t38.5 -96.5q0 -82 -61 -137q-53 -49 -137 -49q-59 0 -97.5 37.5t-38.5 96.5zM644 217q-32 0 -54.5 -22.5t-22.5 -55.5q0 -52 51 -52q32 0 54.5 22.5t22.5 55.5q0 52 -51 52zM60 25l677 719l63 -61l-677 -719z" />
    <glyph glyph-name="ampersand" unicode="&#x26;" horiz-adv-x="645" 
d="M233 -8q-89 0 -147 52q-57 53 -57 139q0 170 179 244q-25 47 -25 107q0 78 52 126q53 48 135 48q67 0 107.5 -37t40.5 -94q0 -65 -37.5 -111t-112.5 -83l76 -134q39 68 68 133l61 -92q-35 -84 -73 -139l86 -151h-139l-32 56q-82 -64 -182 -64zM259 100q51 0 104 47
l-106 189q-106 -43 -106 -128q0 -50 29 -79t79 -29zM358 604q-29 0 -47 -21t-18 -52q0 -27 23 -64q86 39 86 94q0 19 -12.5 31t-31.5 12z" />
    <glyph glyph-name="quotesingle" unicode="'" horiz-adv-x="292" 
d="M191 459h-76l18 249h138z" />
    <glyph glyph-name="parenleft" unicode="(" horiz-adv-x="286" 
d="M241 750h107q-92 -123 -142 -255q-49 -128 -49 -291q0 -150 36 -254h-107q-45 124 -45 271q0 151 54 294t146 235z" />
    <glyph glyph-name="parenright" unicode=")" horiz-adv-x="286" 
d="M41 -50h-107q92 123 142 254q49 129 49 292q0 150 -36 254h107q45 -124 45 -271q0 -153 -54 -295t-146 -234z" />
    <glyph glyph-name="asterisk" unicode="*" horiz-adv-x="492" 
d="M251 708h104l-22 -113l109 36l26 -99l-122 -37l49 -91l-96 -63l-49 93l-85 -93l-72 63l85 91l-99 37l44 99l106 -36z" />
    <glyph glyph-name="plus" unicode="+" horiz-adv-x="606" 
d="M247 371l36 184h109l-36 -184h184l-21 -108h-184l-36 -184h-109l36 184h-184l21 108h184z" />
    <glyph glyph-name="comma" unicode="," horiz-adv-x="381" 
d="M77 -156h-86l134 302h164z" />
    <glyph glyph-name="hyphen" unicode="-" horiz-adv-x="505" 
d="M421 263h-373l21 108h373z" />
    <glyph glyph-name="period" unicode="." horiz-adv-x="304" 
d="M44 18q-24 24 -24 60t24 60t60 24t60 -24t24 -60t-24 -60t-60 -24t-60 24z" />
    <glyph glyph-name="slash" unicode="/" horiz-adv-x="548" 
d="M-87 -50l582 800h133l-582 -800h-133z" />
    <glyph glyph-name="zero" unicode="0" horiz-adv-x="606" 
d="M576 449q0 -84 -19 -162t-58 -145.5t-108 -108.5t-158 -41q-88 0 -146 64q-57 64 -57 195q6 306 184 416q70 41 158 41q89 0 146 -65q58 -64 58 -194zM350 592q-62 0 -109 -59q-84 -109 -84 -277q0 -72 26.5 -110t72.5 -38q62 0 109 59q84 109 84 277q0 72 -26.5 110
t-72.5 38z" />
    <glyph glyph-name="one" unicode="1" horiz-adv-x="428" 
d="M94 580l229 120h56l-137 -700h-127l102 524l-149 -80z" />
    <glyph glyph-name="two" unicode="2" horiz-adv-x="555" 
d="M431 0h-447l9 50l312 326q44 45 63.5 78.5t19.5 71.5q0 31 -17.5 48.5t-49.5 17.5q-75 0 -106 -100l-119 20q22 91 84 143.5t151 52.5t136.5 -46t47.5 -128q0 -53 -19 -95t-62 -87l-223 -236h242z" />
    <glyph glyph-name="three" unicode="3" horiz-adv-x="558" 
d="M3 195l116 15q13 -102 103 -102q59 0 91.5 36.5t32.5 97.5q0 110 -92 110q-31 0 -64 -15l-36 66l164 189h-218l20 108h402l-8 -44l-210 -223q26 2 29 2q66 0 103 -45.5t37 -131.5q0 -125 -70 -195q-71 -71 -189 -71q-94 0 -153 59q-58 59 -58 144z" />
    <glyph glyph-name="four" unicode="4" horiz-adv-x="591" 
d="M404 0h-127l26 130h-300l12 64l393 506h133l-89 -454h78l-22 -116h-78zM374 500l-184 -254h135z" />
    <glyph glyph-name="five" unicode="5" horiz-adv-x="557" 
d="M12 190l122 18q2 -48 27 -74t67 -26q58 0 92.5 38.5t34.5 103.5q0 49 -23 76t-65 27q-77 0 -142 -63l-76 16l110 394h367l-22 -116h-260l-44 -146q50 26 99 26q88 0 135.5 -50t47.5 -145q0 -126 -74 -202q-74 -75 -197 -75q-92 0 -147 50q-53 51 -53 127q0 16 1 21z" />
    <glyph glyph-name="six" unicode="6" horiz-adv-x="579" 
d="M511 708l-204 -260h16q86 0 136 -51.5t50 -143.5q0 -123 -78 -192q-77 -69 -194 -69q-91 0 -149 53q-56 54 -56 136q0 93 66 178l268 349h145zM292 332q-53 0 -94 -38q-39 -38 -39 -94q0 -40 25.5 -66t63.5 -26q54 0 94 38q40 37 40 93q0 44 -24.5 68.5t-65.5 24.5z" />
    <glyph glyph-name="seven" unicode="7" horiz-adv-x="509" 
d="M119 700h426l-11 -52l-380 -648h-135l342 584h-265z" />
    <glyph glyph-name="eight" unicode="8" horiz-adv-x="559" 
d="M343 708q84 0 131 -45.5t47 -128.5q0 -52 -30 -95.5t-75 -63.5q29 -15 50 -58t21 -90q0 -104 -62 -164q-74 -71 -207 -71q-86 0 -142 52q-57 53 -57 133q0 69 36.5 122t97.5 81q-21 18 -35 49.5t-14 65.5q0 90 68 152q67 61 171 61zM273 310q-54 0 -90.5 -32t-36.5 -83
q0 -41 25 -64t65 -23q54 0 89 30t35 82q0 42 -23.5 66t-63.5 24zM328 604q-43 0 -74 -29t-31 -73q0 -33 20 -54.5t52 -21.5q45 0 76 28.5t31 72.5q0 35 -20 56t-54 21z" />
    <glyph glyph-name="nine" unicode="9" horiz-adv-x="549" 
d="M51 -8l204 260h-16q-86 0 -136 51.5t-50 143.5q0 123 77 192q78 69 195 69q93 0 148 -54q57 -52 57 -135q0 -93 -66 -178l-268 -349h-145zM270 368q53 0 93 38q40 37 40 94q0 42 -24.5 67t-64.5 25q-54 0 -95 -38q-39 -38 -39 -93q0 -44 24.5 -68.5t65.5 -24.5z" />
    <glyph glyph-name="colon" unicode=":" horiz-adv-x="328" 
d="M56 18q-24 24 -24 60t24 60t60 24t60 -24t24 -60t-24 -60t-60 -24t-60 24zM125 368q-24 24 -24 60t24 60t60 24t60 -24t24 -60t-24 -60t-60 -24t-60 24z" />
    <glyph glyph-name="semicolon" unicode=";" horiz-adv-x="328" 
d="M125 368q-24 24 -24 60t24 60t60 24t60 -24t24 -60t-24 -60t-60 -24t-60 24zM29 -156h-86l134 302h164z" />
    <glyph glyph-name="less" unicode="&#x3c;" horiz-adv-x="484" 
d="M423 48l-391 203v118l391 203v-131l-252 -131l252 -131v-131z" />
    <glyph glyph-name="equal" unicode="=" horiz-adv-x="607" 
d="M513 346h-437v108h437v-108zM513 166h-437v108h437v-108z" />
    <glyph glyph-name="greater" unicode="&#x3e;" horiz-adv-x="484" 
d="M61 572l391 -203v-118l-391 -203v131l252 131l-252 131v131z" />
    <glyph glyph-name="question" unicode="?" horiz-adv-x="457" 
d="M274 353l85 -30q-54 -110 -163 -110q-57 0 -91.5 31.5t-34.5 82.5q0 52 26.5 80.5t90.5 54.5l94 39q49 24 49 57q0 21 -14 33.5t-40 12.5q-66 0 -99 -81l-109 26q24 73 82.5 116t137.5 43q74 0 117 -37t43 -105q0 -95 -98 -133l-124 -47q-26 -9 -37.5 -20.5t-11.5 -29.5
q0 -14 9 -23.5t24 -9.5q35 0 64 50zM72 76q0 35 24.5 59.5t58.5 24.5t58.5 -24.5t24.5 -59.5q0 -34 -24 -58t-59 -24t-59 24t-24 58z" />
    <glyph glyph-name="at" unicode="@" horiz-adv-x="918" 
d="M238 277q0 109 70 173q70 66 172 66q71 0 109 -38l15 31h83l-47 -219q-7 -32 -7 -42q0 -36 37 -36q78 0 78 160q0 121 -63.5 181.5t-184.5 60.5q-143 0 -235 -92q-91 -91 -91 -245q0 -132 76 -199q77 -68 190 -68q124 0 274 68l30 -102q-92 -39 -161 -54
q-65 -16 -147 -16q-167 0 -274 97q-108 97 -108 268q0 203 126 325q127 122 327 122q157 0 259 -87t102 -241q0 -127 -54 -205q-54 -77 -162 -77q-37 0 -67 17.5t-42 47.5q-59 -65 -142 -65q-78 0 -120.5 45t-42.5 124zM469 412q-50 0 -83 -38t-33 -89q0 -33 18.5 -53
t51.5 -20q52 0 87 34t35 87q0 79 -76 79z" />
    <glyph glyph-name="A" unicode="A" horiz-adv-x="598" 
d="M539 0h-140l-18 165h-222l-84 -165h-141l374 700h128zM367 285l-27 247l-121 -247h148z" />
    <glyph glyph-name="B" unicode="B" horiz-adv-x="617" 
d="M26 0l137 700h246q82 0 129.5 -41.5t47.5 -117.5q0 -54 -27 -97.5t-73 -63.5q33 -15 55 -51t22 -85q0 -116 -68.5 -180t-187.5 -64h-281zM376 580h-106l-29 -152h111q47 0 75 21t28 61q0 70 -79 70zM339 308h-122l-36 -188h126q58 0 91.5 26.5t33.5 77.5q0 84 -93 84z
" />
    <glyph glyph-name="C" unicode="C" horiz-adv-x="694" 
d="M690 487l-123 -30q-14 68 -50.5 99.5t-99.5 31.5q-108 0 -179 -89q-70 -88 -70 -201q0 -89 42 -137.5t114 -48.5q62 0 106.5 32t82.5 104l115 -36q-48 -114 -127 -167t-200 -53q-113 0 -190 81q-76 80 -76 214q0 173 114 297q115 124 291 124q110 0 175 -62t75 -159z" />
    <glyph glyph-name="D" unicode="D" horiz-adv-x="680" 
d="M239 0h-213l137 700h199q125 0 202 -73q79 -73 79 -208q0 -195 -112 -307q-111 -112 -292 -112zM270 580l-89 -460h55q127 0 199 76q73 76 73 202q0 96 -48.5 139t-141.5 43h-48z" />
    <glyph glyph-name="E" unicode="E" horiz-adv-x="574" 
d="M26 0l137 700h423l-24 -120h-292l-28 -147h232l-24 -120h-232l-37 -193h302l-24 -120h-433z" />
    <glyph glyph-name="F" unicode="F" horiz-adv-x="560" 
d="M26 0l137 700h430l-24 -120h-299l-31 -160h238l-23 -120h-238l-59 -300h-131z" />
    <glyph glyph-name="G" unicode="G" horiz-adv-x="726" 
d="M589 0h-108v69q-63 -77 -183 -77q-110 0 -187 78q-76 77 -76 212q-3 179 109 303.5t292 122.5q107 0 171 -58.5t79 -162.5l-122 -32q-22 68 -57.5 100.5t-94.5 32.5q-106 0 -174 -84q-68 -85 -68 -203q0 -89 42.5 -139t115.5 -50q66 0 113.5 37t69.5 98h-130l21 106h256z
" />
    <glyph glyph-name="H" unicode="H" horiz-adv-x="712" 
d="M157 0h-131l137 700h131l-52 -266h261l52 266h131l-137 -700h-131l62 314h-261z" />
    <glyph glyph-name="I" unicode="I" horiz-adv-x="320" 
d="M163 700h131l-137 -700h-131z" />
    <glyph glyph-name="J" unicode="J" horiz-adv-x="553" 
d="M-11 189l128 25q0 -46 21 -74t59 -28q91 0 114 120l91 468h131l-98 -503q-20 -102 -75 -151q-62 -54 -175 -54q-91 0 -143 57q-53 58 -53 140z" />
    <glyph glyph-name="K" unicode="K" horiz-adv-x="637" 
d="M26 0l137 700h131l-52 -259l266 259h167l-334 -317l225 -383h-160l-185 333l-64 -333h-131z" />
    <glyph glyph-name="L" unicode="L" horiz-adv-x="518" 
d="M26 0l137 700h131l-113 -580h286l-24 -120h-417z" />
    <glyph glyph-name="M" unicode="M" horiz-adv-x="803" 
d="M157 0h-131l137 700h147l72 -437l241 437h154l-137 -700h-131l83 424l-197 -360h-95l-59 368z" />
    <glyph glyph-name="N" unicode="N" horiz-adv-x="712" 
d="M465 238l90 462h131l-137 -700h-138l-164 462l-90 -462h-131l137 700h138z" />
    <glyph glyph-name="O" unicode="O" horiz-adv-x="732" 
d="M309 -8q-116 0 -195 76t-79 218q0 175 97 290q110 132 289 132q115 0 195 -77q79 -76 79 -217q0 -175 -97 -290q-110 -132 -289 -132zM319 112q97 0 166 80q75 89 75 212q0 87 -38.5 135.5t-110.5 48.5q-97 0 -166 -80q-75 -88 -75 -212q0 -87 38.5 -135.5t110.5 -48.5z
" />
    <glyph glyph-name="P" unicode="P" horiz-adv-x="596" 
d="M323 274h-112l-54 -274h-131l137 700h245q91 0 143.5 -48t52.5 -137q0 -113 -78 -177q-76 -64 -203 -64zM270 580l-36 -186h110q57 0 91 29.5t34 80.5q0 36 -21 56t-60 20h-118z" />
    <glyph glyph-name="Q" unicode="Q" horiz-adv-x="732" 
d="M35 286q0 175 97 290q110 132 289 132q115 0 195 -77q79 -76 79 -217q0 -161 -83 -271l50 -61l-108 -90l-44 53q-86 -53 -201 -53q-116 0 -195 76t-79 218zM319 112q61 0 111 32l-72 90l108 90l59 -73q35 68 35 153q0 87 -38.5 135.5t-110.5 48.5q-97 0 -166 -80
q-75 -88 -75 -212q0 -87 38.5 -135.5t110.5 -48.5z" />
    <glyph glyph-name="R" unicode="R" horiz-adv-x="614" 
d="M598 534q0 -90 -52 -148q-52 -57 -125 -73l136 -313h-141l-129 302h-71l-59 -302h-131l137 700h248q87 0 137 -45t50 -121zM270 580l-31 -158h119q46 0 76.5 26t30.5 67q0 65 -72 65h-123z" />
    <glyph glyph-name="S" unicode="S" horiz-adv-x="540" 
d="M512 577l-108 -60q-29 71 -91 71q-33 0 -53 -19.5t-20 -52.5q0 -30 23.5 -53.5t76.5 -50.5q76 -39 107 -77q34 -38 34 -114q0 -112 -75 -172q-39 -32 -82 -44.5t-108 -12.5q-84 0 -145 60q-60 60 -60 138l111 60q13 -138 125 -138q46 0 72.5 25t26.5 69q0 37 -21 60
t-78 54q-70 38 -104 82.5t-34 109.5q0 88 60 142q61 54 156 54q67 0 119 -38q51 -37 68 -93z" />
    <glyph glyph-name="T" unicode="T" horiz-adv-x="524" 
d="M239 580h-190l24 120h511l-24 -120h-190l-113 -580h-131z" />
    <glyph glyph-name="U" unicode="U" horiz-adv-x="681" 
d="M530 700h132l-84 -434q-29 -146 -104.5 -210t-205.5 -64q-95 0 -152.5 54t-57.5 149q0 29 8 71l84 434h131l-84 -436q-6 -32 -6 -53q0 -47 25.5 -73t74.5 -26q125 0 155 152z" />
    <glyph glyph-name="V" unicode="V" horiz-adv-x="584" 
d="M654 700l-370 -700h-131l-100 700h142l56 -518l258 518h145z" />
    <glyph glyph-name="W" unicode="W" horiz-adv-x="904" 
d="M596 185l216 515h138l-316 -700h-133l-44 411l-197 -411h-131l-51 700h138l18 -512l204 438h115z" />
    <glyph glyph-name="X" unicode="X" horiz-adv-x="568" 
d="M323 495l152 205h142l-245 -329l138 -371h-135l-94 254l-195 -254h-146l293 377l-124 323h142z" />
    <glyph glyph-name="Y" unicode="Y" horiz-adv-x="508" 
d="M173 298l-125 402h138l73 -272l182 272h140l-278 -402l-57 -298h-131z" />
    <glyph glyph-name="Z" unicode="Z" horiz-adv-x="577" 
d="M385 580h-287l24 120h467l-12 -60l-401 -520h316l-24 -120h-497l12 60z" />
    <glyph glyph-name="bracketleft" unicode="[" horiz-adv-x="353" 
d="M248 -50h-230l154 800h231l-21 -108h-110l-113 -584h110z" />
    <glyph glyph-name="backslash" unicode="\" horiz-adv-x="466" 
d="M312 -50l-279 800h125l279 -800h-125z" />
    <glyph glyph-name="bracketright" unicode="]" horiz-adv-x="353" 
d="M134 750h231l-155 -800h-230l21 108h109l113 584h-110z" />
    <glyph glyph-name="asciicircum" unicode="^" horiz-adv-x="612" 
d="M63 403l196 297h107l196 -297h-122l-127 189l-128 -189h-122z" />
    <glyph glyph-name="underscore" unicode="_" horiz-adv-x="501" 
d="M405 -108h-455l21 108h455z" />
    <glyph glyph-name="grave" unicode="`" horiz-adv-x="229" 
d="M50 708h168l35 -148h-95z" />
    <glyph glyph-name="a" unicode="a" horiz-adv-x="603" 
d="M310 512q36 0 66.5 -14.5t45.5 -36.5l8 43h125l-97 -504h-125l10 52q-17 -23 -55 -41.5t-79 -18.5q-89 0 -139 57q-48 59 -48 147q0 142 76 228q76 88 212 88zM155 219q0 -56 25 -88.5t67 -32.5q71 0 111 58t40 139q0 53 -24.5 82t-67.5 29q-70 0 -111 -59
q-40 -58 -40 -128z" />
    <glyph glyph-name="b" unicode="b" horiz-adv-x="604" 
d="M550 303q0 -135 -72 -224q-72 -87 -202 -87q-42 0 -75 17.5t-47 42.5l-11 -52h-125l138 708h125l-49 -250q58 54 134 54q84 0 134 -55.5t50 -153.5zM273 98q67 0 105 59q39 58 39 130q0 57 -24.5 88t-67.5 31q-67 0 -108 -56t-41 -134q0 -56 25.5 -87t71.5 -31z" />
    <glyph glyph-name="c" unicode="c" horiz-adv-x="559" 
d="M379 185l99 -42q-45 -80 -106 -115.5t-148 -35.5q-94 0 -148 60t-54 151q0 125 84 217t219 92q162 0 198 -145l-114 -42q-23 81 -105 81q-69 0 -110 -59q-39 -59 -39 -135q0 -114 90 -114q73 0 134 87z" />
    <glyph glyph-name="d" unicode="d" horiz-adv-x="616" 
d="M301 512q41 0 74.5 -15.5t46.5 -38.5l49 250h125l-138 -708h-125l11 52q-46 -60 -134 -60q-87 0 -137.5 56t-50.5 152q0 137 75 224q75 88 204 88zM155 217q0 -57 24.5 -88t68.5 -31q70 0 110 64t40 132q0 55 -24 83.5t-67 28.5q-71 0 -112 -59q-40 -58 -40 -130z" />
    <glyph glyph-name="e" unicode="e" horiz-adv-x="567" 
d="M517 263l-10 -51h-362v-16q0 -42 28 -70t74 -28q79 0 138 86l99 -51q-49 -74 -107.5 -107.5t-140.5 -33.5q-94 0 -156 60q-60 60 -60 163q0 120 83 209q82 88 216 88q97 0 149 -57q53 -58 53 -145q0 -31 -4 -47zM303 406q-44 0 -80 -27t-54 -69h230q-6 96 -96 96z" />
    <glyph glyph-name="f" unicode="f" horiz-adv-x="358" 
d="M95 398h-64l21 106h64l5 27q35 177 206 177q52 0 92 -23l-46 -100q-26 17 -59 17q-55 0 -67 -63l-6 -35h106l-21 -106h-106l-77 -398h-125z" />
    <glyph glyph-name="g" unicode="g" horiz-adv-x="531" 
d="M84 319q0 81 57 137q58 56 148 56q66 0 104 -22l104 50l38 -79l-83 -39q8 -26 8 -56q0 -90 -57.5 -141t-152.5 -51q-45 0 -81 13q-32 -14 -32 -41q0 -15 11 -25.5t29 -10.5h110q67 0 105 -34t38 -97q0 -95 -71 -143t-185 -48q-95 0 -149.5 41.5t-54.5 111.5t60 113
q-18 19 -18 59q0 83 94 126q-22 34 -22 80zM238 6h-74q-37 0 -57 4q-21 -21 -21 -51t26.5 -47.5t73.5 -17.5q119 0 119 62q0 50 -67 50zM284 411q-36 0 -59.5 -21.5t-23.5 -57.5q0 -27 16.5 -42.5t43.5 -15.5q36 0 59 20.5t23 56.5q0 28 -16 44t-43 16z" />
    <glyph glyph-name="h" unicode="h" horiz-adv-x="594" 
d="M18 0l137 708h125l-55 -285q78 89 173 89q60 0 95.5 -32.5t35.5 -86.5q0 -20 -4 -41l-68 -352h-125l61 316q4 20 4 33q0 57 -61 57q-48 0 -91 -51t-61 -142l-41 -213h-125z" />
    <glyph glyph-name="i" unicode="i" horiz-adv-x="288" 
d="M18 0l98 504h125l-98 -504h-125zM145 592q-23 23 -23 57t23 57t57 23t57 -23t23 -57t-23 -57t-57 -23t-57 23z" />
    <glyph glyph-name="j" unicode="j" horiz-adv-x="288" 
d="M20 13l95 491h125l-96 -500q-21 -107 -79.5 -156.5t-169.5 -59.5l-13 109q61 15 93.5 41t44.5 75zM145 592q-23 23 -23 57t23 57t57 23t57 -23t23 -57t-23 -57t-57 -23t-57 23z" />
    <glyph glyph-name="k" unicode="k" horiz-adv-x="531" 
d="M18 0l137 708h125l-75 -390l182 186h152l-237 -233l157 -271h-146l-124 235l-46 -235h-125z" />
    <glyph glyph-name="l" unicode="l" horiz-adv-x="314" 
d="M25 0l137 708h125l-137 -708h-125z" />
    <glyph glyph-name="m" unicode="m" horiz-adv-x="859" 
d="M470 196l-38 -196h-125l65 336q2 14 2 23q0 47 -47 47q-46 0 -86 -55.5t-60 -154.5l-38 -196h-125l98 504h125l-15 -75q60 83 154 83q51 0 83.5 -26.5t38.5 -77.5q78 104 167 104q60 0 92.5 -30t32.5 -86q0 -19 -4 -39l-69 -357h-125l65 336q2 14 2 23q0 47 -47 47
t-87.5 -56t-58.5 -154z" />
    <glyph glyph-name="n" unicode="n" horiz-adv-x="585" 
d="M18 0l98 504h125l-16 -81q71 89 169 89q60 0 93 -29.5t33 -83.5q0 -22 -4 -39l-70 -360h-125l63 323q3 17 3 29q0 26 -14.5 40t-39.5 14q-49 0 -91 -55.5t-60 -149.5l-39 -201h-125z" />
    <glyph glyph-name="o" unicode="o" horiz-adv-x="588" 
d="M22 205q0 144 86 227q45 44 92.5 62t113.5 18q100 0 160 -61q60 -60 60 -152q0 -144 -86 -227q-45 -44 -92.5 -62t-113.5 -18q-100 0 -160 60q-60 62 -60 153zM303 406q-71 0 -111 -54q-37 -46 -37 -128q0 -58 26.5 -92t71.5 -34q71 0 111 54q37 46 37 128q0 58 -26.5 92
t-71.5 34z" />
    <glyph glyph-name="p" unicode="p" horiz-adv-x="610" 
d="M277 -8q-41 0 -74.5 15.5t-46.5 38.5l-49 -250h-125l138 708h125l-11 -52q46 60 134 60q87 0 137.5 -56t50.5 -152q0 -136 -75 -225q-75 -87 -204 -87zM423 287q0 57 -24.5 88t-68.5 31q-70 0 -110 -64t-40 -132q0 -55 24 -83.5t67 -28.5q71 0 111 58q41 59 41 131z" />
    <glyph glyph-name="q" unicode="q" horiz-adv-x="600" 
d="M22 201q0 136 72 223q72 88 202 88q42 0 75 -17.5t47 -42.5l11 52h125l-138 -708h-125l49 250q-58 -54 -134 -54q-84 0 -134 55.5t-50 153.5zM299 406q-67 0 -106 -59q-38 -59 -38 -130q0 -57 24.5 -88t67.5 -31q68 0 108 55q41 56 41 135q0 56 -25.5 87t-71.5 31z" />
    <glyph glyph-name="r" unicode="r" horiz-adv-x="448" 
d="M178 179l-35 -179h-125l98 504h125l-15 -75q66 83 158 83q35 0 65 -13l-42 -112q-20 14 -51 14q-52 0 -105 -56q-52 -55 -73 -166z" />
    <glyph glyph-name="s" unicode="s" horiz-adv-x="459" 
d="M262 512q52 0 96 -25q45 -24 61 -61l-89 -64q-26 44 -77 44q-21 0 -35 -12t-14 -33t21 -34q9 -7 20 -12l46 -20q51 -23 77.5 -53t26.5 -75q0 -86 -53 -130.5t-145 -44.5q-82 0 -130 45q-48 47 -60 103l106 44q21 -86 98 -86q28 0 46 13.5t18 38.5q0 20 -19 36t-67 38
q-103 49 -103 134q0 71 47 112.5t129 41.5z" />
    <glyph glyph-name="t" unicode="t" horiz-adv-x="370" 
d="M283 708l-39 -204h121l-20 -106h-121l-43 -218q-4 -21 -4 -28q0 -54 54 -54q21 0 47 12l8 -97q-45 -21 -98 -21q-63 0 -99.5 37t-36.5 103q0 30 4 46l43 220h-78l20 106h78l25 128z" />
    <glyph glyph-name="u" unicode="u" horiz-adv-x="589" 
d="M543 504l-98 -504h-125l16 81q-71 -89 -169 -89q-60 0 -93 29.5t-33 83.5q0 22 4 39l70 360h125l-63 -323q-3 -17 -3 -29q0 -54 54 -54q49 0 91 55.5t60 149.5l39 201h125z" />
    <glyph glyph-name="v" unicode="v" horiz-adv-x="456" 
d="M97 0l-76 504h125l33 -348l171 348h125l-262 -504h-116z" />
    <glyph glyph-name="w" unicode="w" horiz-adv-x="751" 
d="M472 162l151 342h131l-254 -504h-113l-18 326l-146 -326h-114l-61 504h128l17 -342l147 342h118z" />
    <glyph glyph-name="x" unicode="x" horiz-adv-x="491" 
d="M260 370l111 134h131l-193 -242l109 -262h-125l-66 166l-137 -166h-131l219 274l-97 230h131z" />
    <glyph glyph-name="y" unicode="y" horiz-adv-x="493" 
d="M119 28l-82 476h125l50 -316l166 316h131l-394 -708h-125z" />
    <glyph glyph-name="z" unicode="z" horiz-adv-x="463" 
d="M267 398h-203l20 106h365l-9 -48l-271 -350h225l-20 -106h-390l8 48z" />
    <glyph glyph-name="braceleft" unicode="{" horiz-adv-x="348" 
d="M60 50l32 166q4 19 4 33q0 27 -15.5 37t-52.5 10l21 108q46 0 66 16.5t30 63.5l32 166q8 46 39.5 73t79.5 27h88l-21 -108h-27q-24 0 -34 -9.5t-15 -35.5l-29 -149q-17 -88 -93 -98q58 -9 58 -61q0 -20 -4 -37l-29 -149q-1 -4 -1 -14q0 -31 34 -31h27l-21 -108h-88
q-39 0 -61 20t-22 58z" />
    <glyph glyph-name="bar" unicode="|" horiz-adv-x="272" 
d="M91 -50v800h122v-800h-122z" />
    <glyph glyph-name="braceright" unicode="}" horiz-adv-x="348" 
d="M203 216l-32 -166q-18 -100 -112 -100h-94l21 108h26q24 0 34 9.5t15 35.5l29 149q11 52 32 72t62 26q-59 8 -59 61q0 20 4 37l29 149q2 18 2 19q0 26 -32 26h-30l21 108h88q84 0 84 -75q0 -9 -3 -25l-32 -166q-4 -23 -4 -32q0 -28 14.5 -38t53.5 -10l-21 -108
q-45 0 -65.5 -17t-30.5 -63z" />
    <glyph glyph-name="asciitilde" unicode="~" horiz-adv-x="656" 
d="M111 249l-53 69q28 48 75 79q50 32 98 32q45 0 100 -30q56 -29 88 -29q49 0 99 51l53 -69q-28 -49 -76 -79q-49 -32 -97 -32q-44 0 -100 29q-56 30 -88 30q-50 0 -99 -51z" />
    <glyph glyph-name="nbspace" unicode="&#xa0;" horiz-adv-x="221" 
 />
    <glyph glyph-name="exclamdown" unicode="&#xa1;" horiz-adv-x="369" 
d="M223 254l-61 -458h-164l117 458h108zM283 420q0 -35 -24.5 -59.5t-58.5 -24.5t-58.5 24.5t-24.5 59.5q0 34 24 58t59 24t59 -24t24 -58z" />
    <glyph glyph-name="cent" unicode="&#xa2;" horiz-adv-x="571" 
d="M409 285l99 -42q-74 -127 -195 -147l-28 -146h-123l30 150q-66 18 -103 72.5t-37 130.5q0 109 65 195q64 85 173 108l27 144h123l-28 -144q112 -22 141 -139l-114 -42q-23 81 -105 81q-69 0 -110 -59q-39 -59 -39 -135q0 -114 90 -114q72 0 134 87z" />
    <glyph glyph-name="sterling" unicode="&#xa3;" horiz-adv-x="565" 
d="M126 306h-83l22 116h46q-2 30 -2 45q0 112 64.5 176.5t180.5 64.5q77 0 128 -38.5t68 -108.5l-114 -47q-21 78 -92 78q-55 0 -85 -40t-30 -112v-18h172l-22 -116h-137q0 -13 -4 -38q-11 -54 -36 -89.5t-70 -69.5q50 28 94 28q22 0 53 -15t53 -15q37 0 89 67l77 -71
q-43 -61 -85.5 -86t-98.5 -25q-40 0 -85 18q-44 19 -71 19q-53 0 -123 -37l-53 76q70 56 107 107t37 110v21z" />
    <glyph glyph-name="currency" unicode="&#xa4;" horiz-adv-x="580" 
d="M109 42l-97 97l89 69q-25 45 -25 99t25 99l-89 69l97 97l69 -89q44 26 99 26t99 -26l69 89l97 -97l-89 -69q25 -45 25 -99t-25 -99l89 -69l-97 -97l-69 89q-44 -26 -99 -26t-99 26zM217 371q-22 -23 -22 -64q0 -40 22 -65q23 -24 60 -24t60 24q22 25 22 65q0 41 -22 64
q-22 25 -60 25t-60 -25z" />
    <glyph glyph-name="yen" unicode="&#xa5;" horiz-adv-x="579" 
d="M195 406l-86 294h139l66 -273l178 273h140l-202 -294h91l-21 -108h-143l-14 -72h143l-21 -108h-143l-23 -118h-131l23 118h-143l21 108h143l14 72h-143l21 108h91z" />
    <glyph glyph-name="brokenbar" unicode="&#xa6;" horiz-adv-x="272" 
d="M91 -50v349h122v-349h-122zM213 750v-349h-122v349h122z" />
    <glyph glyph-name="section" unicode="&#xa7;" horiz-adv-x="589" 
d="M493 235q0 -97 -96 -155q22 -41 22 -89q0 -92 -59 -148q-58 -55 -155 -55q-77 0 -126.5 42t-59.5 116l117 36q6 -37 29.5 -57.5t56.5 -20.5q31 0 52.5 21.5t21.5 57.5q0 33 -25 58q-10 11 -44 31l-32 19l-37 21q-48 28 -70 62.5t-22 86.5q0 97 96 155q-22 41 -22 89
q0 92 59 148q58 55 155 55q77 0 126.5 -42t59.5 -116l-117 -36q-6 37 -29.5 57.5t-56.5 20.5q-31 0 -52.5 -21.5t-21.5 -57.5q-4 -28 24 -58q6 -6 45 -32l32 -18l37 -21q48 -28 70 -62.5t22 -86.5zM288 172l43 -23q50 24 50 74q0 31 -34 55q-15 11 -33 22q-19 11 -43 24
l-43 23q-50 -24 -50 -74q0 -31 34 -55q15 -11 33 -22q19 -11 43 -24z" />
    <glyph glyph-name="dieresis" unicode="&#xa8;" horiz-adv-x="361" 
d="M73 600q-20 20 -20 51t20 51t51 20t51 -20t20 -51t-20 -51t-51 -20t-51 20zM280 600q-20 20 -20 51t20 51t51 20t51 -20t20 -51t-20 -51t-51 -20t-51 20z" />
    <glyph glyph-name="copyright" unicode="&#xa9;" horiz-adv-x="898" 
d="M174 72q-110 113 -110 278t110 278q111 112 275 112q165 0 274 -112q111 -113 111 -278t-111 -278q-109 -112 -274 -112q-164 0 -275 112zM251 554q-77 -80 -77 -204t77 -204t198 -80t198 80t77 204t-77 204t-198 80t-198 -80zM537 294l97 -19q-10 -67 -62 -104t-123 -37
q-85 0 -143 57t-58 159t58 159t143 57q71 0 123 -37t62 -104l-97 -19q-21 65 -88 65q-40 0 -65.5 -34t-25.5 -87t25.5 -87t65.5 -34q67 0 88 65z" />
    <glyph glyph-name="ordfeminine" unicode="&#xaa;" horiz-adv-x="427" 
d="M151 575l-82 19q9 49 50 79.5t101 30.5q166 0 166 -166v-238h-81l-9 52q-48 -56 -122 -56q-52 0 -86 32.5t-34 87.5q0 59 47 94.5t122 35.5h66v17q0 58 -69 58q-53 0 -69 -46zM156 416q0 -16 11 -27t30 -11q37 0 64.5 23.5t27.5 59.5v11h-66q-31 0 -49 -15t-18 -41z" />
    <glyph glyph-name="guillemotleft" unicode="&#xab;" horiz-adv-x="725" 
d="M606 51l-267 218l16 88l352 212l-27 -143l-205 -121l155 -129zM296 51l-267 218l16 88l352 212l-27 -143l-205 -121l155 -129z" />
    <glyph glyph-name="logicalnot" unicode="&#xac;" horiz-adv-x="560" 
d="M377 295h-342v112h466v-265h-124v153z" />
    <glyph glyph-name="uni00AD" unicode="&#xad;" horiz-adv-x="505" 
d="M421 263h-373l21 108h373z" />
    <glyph glyph-name="registered" unicode="&#xae;" horiz-adv-x="898" 
d="M174 72q-110 113 -110 278t110 278q111 112 275 112q165 0 274 -112q111 -113 111 -278t-111 -278q-109 -112 -274 -112q-164 0 -275 112zM251 554q-77 -80 -77 -204t77 -204t198 -80t198 80t77 204t-77 204t-198 80t-198 -80zM632 137h-113l-109 182h-12v-182h-105v426
h169q142 0 142 -122q0 -100 -89 -117zM452 481h-54v-80h54q48 0 48 40t-48 40z" />
    <glyph glyph-name="overscore" unicode="&#xaf;" horiz-adv-x="303" 
d="M330 618h-269l21 110h269z" />
    <glyph glyph-name="degree" unicode="&#xb0;" horiz-adv-x="360" 
d="M131 506q-35 35 -35 87q0 51 35 86t87 35t87 -35t35 -86q0 -52 -35 -87q-34 -34 -87 -34t-87 34zM189 622q-10 -11 -10 -29t10 -29q11 -11 29 -11t28 11q11 11 11 29t-11 29q-10 11 -28 11t-29 -11z" />
    <glyph glyph-name="plusminus" unicode="&#xb1;" horiz-adv-x="687" 
d="M334 453l36 184h109l-36 -184h184l-21 -108h-184l-36 -184h-109l36 184h-184l21 108h184zM536 0h-476l21 108h476z" />
    <glyph glyph-name="twosuperior" unicode="&#xb2;" horiz-adv-x="419" 
d="M342 300h-274l6 35l188 185q34 34 34 66q0 16 -9.5 25.5t-25.5 9.5q-41 0 -59 -56l-84 23q17 55 57.5 85.5t95.5 30.5q54 0 87 -28.5t33 -75.5q0 -55 -59 -117l-99 -100h125z" />
    <glyph glyph-name="threesuperior" unicode="&#xb3;" horiz-adv-x="426" 
d="M85 424l80 10q4 -26 20 -40.5t38 -14.5q27 0 43 16.5t16 46.5q0 21 -12 35t-32 14q-18 0 -37 -10l-30 50l81 86h-116l16 83h247l-7 -35l-111 -114q41 0 67.5 -28t26.5 -74q0 -68 -42.5 -110.5t-114.5 -42.5q-59 0 -96 36.5t-37 91.5z" />
    <glyph glyph-name="acute" unicode="&#xb4;" horiz-adv-x="238" 
d="M135 560h-95l93 148h168z" />
    <glyph glyph-name="mu" unicode="&#xb5;" horiz-adv-x="594" 
d="M498 504v-504h-124v81q-62 -89 -156 -89q-16 0 -31 3v-199h-124v708h124v-323q0 -83 72 -83q49 0 82 56t33 149v201h124z" />
    <glyph glyph-name="paragraph" unicode="&#xb6;" horiz-adv-x="751" 
d="M72 458q0 118 76 179q76 63 199 63h389l-21 -108h-62l-154 -796h-121l154 796h-85l-154 -796h-121l87 450q-77 0 -132 63q-55 62 -55 149z" />
    <glyph glyph-name="middot" unicode="&#xb7;" horiz-adv-x="303" 
d="M96 308q-24 24 -24 60t24 60t60 24t60 -24t24 -60t-24 -60t-60 -24t-60 24z" />
    <glyph glyph-name="cedilla" unicode="&#xb8;" horiz-adv-x="231" 
d="M102 -60h88l-122 -206l-133 66z" />
    <glyph glyph-name="onesuperior" unicode="&#xb9;" horiz-adv-x="341" 
d="M104 635l149 65h38l-77 -400h-90l54 278l-93 -39z" />
    <glyph glyph-name="ordmasculine" unicode="&#xba;" horiz-adv-x="430" 
d="M88 353q-54 59 -54 147q0 89 54 146q54 58 147 58t147 -58q54 -57 54 -146q0 -88 -54 -147q-54 -57 -147 -57t-147 57zM162 586q-26 -35 -26 -86t26 -86q27 -35 73 -35t72 35q27 34 27 86t-27 86q-26 35 -72 35t-73 -35z" />
    <glyph glyph-name="guillemotright" unicode="&#xbb;" horiz-adv-x="725" 
d="M113 569l267 -218l-16 -88l-352 -212l27 143l205 121l-155 129zM423 569l267 -218l-16 -88l-352 -212l27 143l205 121l-155 129z" />
    <glyph glyph-name="onequarter" unicode="&#xbc;" horiz-adv-x="899" 
d="M68 21l677 719l63 -61l-677 -719zM98 635l149 65h38l-77 -400h-90l54 278l-93 -39zM724 0h-90l12 65h-173l9 45l219 290h100l-49 -252h47l-16 -83h-47zM686 270l-87 -122h63z" />
    <glyph glyph-name="onehalf" unicode="&#xbd;" horiz-adv-x="949" 
d="M68 21l677 719l63 -61l-677 -719zM98 635l149 65h38l-77 -400h-90l54 278l-93 -39zM800 0h-274l6 35l188 185q34 34 34 66q0 16 -9.5 25.5t-25.5 9.5q-41 0 -59 -56l-84 23q17 55 57.5 85.5t95.5 30.5q54 0 87 -28.5t33 -75.5q0 -55 -59 -117l-99 -100h125z" />
    <glyph glyph-name="threequarters" unicode="&#xbe;" horiz-adv-x="971" 
d="M140 21l677 719l63 -61l-677 -719zM85 424l80 10q4 -26 20 -40.5t38 -14.5q27 0 43 16.5t16 46.5q0 21 -12 35t-32 14q-18 0 -37 -10l-30 50l81 86h-116l16 83h247l-7 -35l-111 -114q41 0 67.5 -28t26.5 -74q0 -68 -42.5 -110.5t-114.5 -42.5q-59 0 -96 36.5t-37 91.5z
M777 0h-90l12 65h-173l9 45l219 290h100l-49 -252h47l-16 -83h-47zM739 270l-87 -122h63z" />
    <glyph glyph-name="questiondown" unicode="&#xbf;" horiz-adv-x="457" 
d="M155 143l-85 30q54 110 163 110q57 0 91.5 -31.5t34.5 -82.5q0 -52 -26.5 -80.5t-90.5 -54.5l-94 -39q-49 -24 -49 -57q0 -21 14 -33.5t40 -12.5q66 0 99 81l109 -26q-24 -73 -82.5 -116t-137.5 -43q-74 0 -117 37t-43 105q0 95 98 133l124 47q26 9 37.5 20.5t11.5 29.5
q0 14 -9 23.5t-24 9.5q-35 0 -64 -50zM357 420q0 -35 -24.5 -59.5t-58.5 -24.5t-58.5 24.5t-24.5 59.5q0 34 24 58t59 24t59 -24t24 -58z" />
    <glyph glyph-name="Agrave" unicode="&#xc0;" horiz-adv-x="598" 
d="M539 0h-140l-18 165h-222l-84 -165h-141l374 700h128zM367 285l-27 247l-121 -247h148zM246 904h168l35 -148h-95z" />
    <glyph glyph-name="Aacute" unicode="&#xc1;" horiz-adv-x="598" 
d="M539 0h-140l-18 165h-222l-84 -165h-141l374 700h128zM367 285l-27 247l-121 -247h148zM392 756h-95l93 148h168z" />
    <glyph glyph-name="Acircumflex" unicode="&#xc2;" horiz-adv-x="598" 
d="M539 0h-140l-18 165h-222l-84 -165h-141l374 700h128zM367 285l-27 247l-121 -247h148zM310 762h-128l200 186h41l132 -186h-121l-50 66z" />
    <glyph glyph-name="Atilde" unicode="&#xc3;" horiz-adv-x="598" 
d="M539 0h-140l-18 165h-222l-84 -165h-141l374 700h128zM367 285l-27 247l-121 -247h148zM246 765l-61 55q25 40 62.5 63.5t75.5 23.5q35 0 70 -21q35 -20 57 -20q26 0 66 43l61 -55q-25 -40 -62.5 -63.5t-75.5 -23.5q-35 0 -70 20q-35 21 -57 21q-26 0 -66 -43z" />
    <glyph glyph-name="Adieresis" unicode="&#xc4;" horiz-adv-x="598" 
d="M539 0h-140l-18 165h-222l-84 -165h-141l374 700h128zM367 285l-27 247l-121 -247h148zM246 796q-20 20 -20 51t20 51t51 20t51 -20t20 -51t-20 -51t-51 -20t-51 20zM453 796q-20 20 -20 51t20 51t51 20t51 -20t20 -51t-20 -51t-51 -20t-51 20z" />
    <glyph glyph-name="Aring" unicode="&#xc5;" horiz-adv-x="598" 
d="M539 0h-140l-18 165h-222l-84 -165h-141l374 700h128zM367 285l-27 247l-121 -247h148zM323 778q-29 29 -29 73t29 73t74 29t74 -29t29 -73t-29 -73t-74 -29t-74 29zM397 883q-30 0 -30 -32t30 -32t30 32t-30 32z" />
    <glyph glyph-name="AE" unicode="&#xc6;" horiz-adv-x="854" 
d="M-66 0l442 700h490l-24 -120h-292l-28 -147h232l-24 -120h-232l-37 -193h302l-24 -120h-433l33 165h-160l-99 -165h-146zM409 527h-13l-145 -242h111z" />
    <glyph glyph-name="Ccedilla" unicode="&#xc7;" horiz-adv-x="694" 
d="M690 487l-123 -30q-14 68 -50.5 99.5t-99.5 31.5q-108 0 -179 -89q-70 -88 -70 -201q0 -89 42 -137.5t114 -48.5q62 0 106.5 32t82.5 104l115 -36q-48 -114 -127 -167t-200 -53q-113 0 -190 81q-76 80 -76 214q0 173 114 297q115 124 291 124q110 0 175 -62t75 -159z
M300 -60h88l-122 -206l-133 66z" />
    <glyph glyph-name="Egrave" unicode="&#xc8;" horiz-adv-x="574" 
d="M26 0l137 700h423l-24 -120h-292l-28 -147h232l-24 -120h-232l-37 -193h302l-24 -120h-433zM262 904h168l35 -148h-95z" />
    <glyph glyph-name="Eacute" unicode="&#xc9;" horiz-adv-x="574" 
d="M26 0l137 700h423l-24 -120h-292l-28 -147h232l-24 -120h-232l-37 -193h302l-24 -120h-433zM380 756h-95l93 148h168z" />
    <glyph glyph-name="Ecircumflex" unicode="&#xca;" horiz-adv-x="574" 
d="M26 0l137 700h423l-24 -120h-292l-28 -147h232l-24 -120h-232l-37 -193h302l-24 -120h-433zM323 762h-128l200 186h41l132 -186h-121l-50 66z" />
    <glyph glyph-name="Edieresis" unicode="&#xcb;" horiz-adv-x="574" 
d="M26 0l137 700h423l-24 -120h-292l-28 -147h232l-24 -120h-232l-37 -193h302l-24 -120h-433zM239 796q-20 20 -20 51t20 51t51 20t51 -20t20 -51t-20 -51t-51 -20t-51 20zM446 796q-20 20 -20 51t20 51t51 20t51 -20t20 -51t-20 -51t-51 -20t-51 20z" />
    <glyph glyph-name="Igrave" unicode="&#xcc;" horiz-adv-x="320" 
d="M163 700h131l-137 -700h-131zM110 904h168l35 -148h-95z" />
    <glyph glyph-name="Iacute" unicode="&#xcd;" horiz-adv-x="320" 
d="M163 700h131l-137 -700h-131zM245 756h-95l93 148h168z" />
    <glyph glyph-name="Icircumflex" unicode="&#xce;" horiz-adv-x="320" 
d="M163 700h131l-137 -700h-131zM171 762h-128l200 186h41l132 -186h-121l-50 66z" />
    <glyph glyph-name="Idieresis" unicode="&#xcf;" horiz-adv-x="320" 
d="M163 700h131l-137 -700h-131zM94 796q-20 20 -20 51t20 51t51 20t51 -20t20 -51t-20 -51t-51 -20t-51 20zM301 796q-20 20 -20 51t20 51t51 20t51 -20t20 -51t-20 -51t-51 -20t-51 20z" />
    <glyph glyph-name="Eth" unicode="&#xd0;" horiz-adv-x="680" 
d="M239 0h-213l58 297h-66l21 106h66l58 297h199q125 0 202 -73q79 -73 79 -208q0 -195 -112 -307q-111 -112 -292 -112zM215 297l-34 -177h55q127 0 199 76q73 76 73 202q0 96 -48.5 139t-141.5 43h-48l-34 -177h118l-21 -106h-118z" />
    <glyph glyph-name="Ntilde" unicode="&#xd1;" horiz-adv-x="712" 
d="M465 238l90 462h131l-137 -700h-138l-164 462l-90 -462h-131l137 700h138zM301 765l-61 55q25 40 62.5 63.5t75.5 23.5q36 0 70 -21q35 -20 57 -20q26 0 66 43l61 -55q-25 -40 -62.5 -63.5t-75.5 -23.5q-35 0 -70 20q-34 21 -57 21q-26 0 -66 -43z" />
    <glyph glyph-name="Ograve" unicode="&#xd2;" horiz-adv-x="732" 
d="M309 -8q-116 0 -195 76t-79 218q0 175 97 290q110 132 289 132q115 0 195 -77q79 -76 79 -217q0 -175 -97 -290q-110 -132 -289 -132zM319 112q97 0 166 80q75 89 75 212q0 87 -38.5 135.5t-110.5 48.5q-97 0 -166 -80q-75 -88 -75 -212q0 -87 38.5 -135.5t110.5 -48.5z
M283 904h168l35 -148h-95z" />
    <glyph glyph-name="Oacute" unicode="&#xd3;" horiz-adv-x="732" 
d="M309 -8q-116 0 -195 76t-79 218q0 175 97 290q110 132 289 132q115 0 195 -77q79 -76 79 -217q0 -175 -97 -290q-110 -132 -289 -132zM319 112q97 0 166 80q75 89 75 212q0 87 -38.5 135.5t-110.5 48.5q-97 0 -166 -80q-75 -88 -75 -212q0 -87 38.5 -135.5t110.5 -48.5z
M429 756h-95l93 148h168z" />
    <glyph glyph-name="Ocircumflex" unicode="&#xd4;" horiz-adv-x="732" 
d="M309 -8q-116 0 -195 76t-79 218q0 175 97 290q110 132 289 132q115 0 195 -77q79 -76 79 -217q0 -175 -97 -290q-110 -132 -289 -132zM319 112q97 0 166 80q75 89 75 212q0 87 -38.5 135.5t-110.5 48.5q-97 0 -166 -80q-75 -88 -75 -212q0 -87 38.5 -135.5t110.5 -48.5z
M365 762h-128l200 186h41l132 -186h-121l-50 66z" />
    <glyph glyph-name="Otilde" unicode="&#xd5;" horiz-adv-x="732" 
d="M309 -8q-116 0 -195 76t-79 218q0 175 97 290q110 132 289 132q115 0 195 -77q79 -76 79 -217q0 -175 -97 -290q-110 -132 -289 -132zM319 112q97 0 166 80q75 89 75 212q0 87 -38.5 135.5t-110.5 48.5q-97 0 -166 -80q-75 -88 -75 -212q0 -87 38.5 -135.5t110.5 -48.5z
M310 765l-61 55q25 40 62.5 63.5t75.5 23.5q35 0 70 -21q35 -20 57 -20q26 0 66 43l61 -55q-25 -40 -62.5 -63.5t-75.5 -23.5q-35 0 -70 20q-35 21 -57 21q-26 0 -66 -43z" />
    <glyph glyph-name="Odieresis" unicode="&#xd6;" horiz-adv-x="732" 
d="M309 -8q-116 0 -195 76t-79 218q0 175 97 290q110 132 289 132q115 0 195 -77q79 -76 79 -217q0 -175 -97 -290q-110 -132 -289 -132zM319 112q97 0 166 80q75 89 75 212q0 87 -38.5 135.5t-110.5 48.5q-97 0 -166 -80q-75 -88 -75 -212q0 -87 38.5 -135.5t110.5 -48.5z
M301 796q-20 20 -20 51t20 51t51 20t51 -20t20 -51t-20 -51t-51 -20t-51 20zM508 796q-20 20 -20 51t20 51t51 20t51 -20t20 -51t-20 -51t-51 -20t-51 20z" />
    <glyph glyph-name="multiply" unicode="&#xd7;" horiz-adv-x="582" 
d="M367 317l159 -158l-77 -77l-158 159l-158 -159l-77 77l159 158l-159 158l77 77l158 -159l158 159l77 -77z" />
    <glyph glyph-name="Oslash" unicode="&#xd8;" horiz-adv-x="732" 
d="M309 -8q-98 0 -168 53l-89 -93l-73 70l95 99q-39 67 -39 165q0 175 97 290q110 132 289 132q96 0 167 -53l89 93l73 -70l-95 -99q40 -70 40 -165q0 -175 -97 -290q-110 -132 -289 -132zM319 112q97 0 166 80q75 89 75 212q0 32 -8 69l-321 -335q35 -26 88 -26zM170 296
q0 -41 7 -68l321 334q-35 26 -87 26q-97 0 -166 -80q-75 -88 -75 -212z" />
    <glyph glyph-name="Ugrave" unicode="&#xd9;" horiz-adv-x="681" 
d="M530 700h132l-84 -434q-29 -146 -104.5 -210t-205.5 -64q-95 0 -152.5 54t-57.5 149q0 29 8 71l84 434h131l-84 -436q-6 -32 -6 -53q0 -47 25.5 -73t74.5 -26q125 0 155 152zM284 904h168l35 -148h-95z" />
    <glyph glyph-name="Uacute" unicode="&#xda;" horiz-adv-x="681" 
d="M530 700h132l-84 -434q-29 -146 -104.5 -210t-205.5 -64q-95 0 -152.5 54t-57.5 149q0 29 8 71l84 434h131l-84 -436q-6 -32 -6 -53q0 -47 25.5 -73t74.5 -26q125 0 155 152zM418 756h-95l93 148h168z" />
    <glyph glyph-name="Ucircumflex" unicode="&#xdb;" horiz-adv-x="681" 
d="M530 700h132l-84 -434q-29 -146 -104.5 -210t-205.5 -64q-95 0 -152.5 54t-57.5 149q0 29 8 71l84 434h131l-84 -436q-6 -32 -6 -53q0 -47 25.5 -73t74.5 -26q125 0 155 152zM356 762h-128l200 186h41l132 -186h-121l-50 66z" />
    <glyph glyph-name="Udieresis" unicode="&#xdc;" horiz-adv-x="681" 
d="M530 700h132l-84 -434q-29 -146 -104.5 -210t-205.5 -64q-95 0 -152.5 54t-57.5 149q0 29 8 71l84 434h131l-84 -436q-6 -32 -6 -53q0 -47 25.5 -73t74.5 -26q125 0 155 152zM273 796q-20 20 -20 51t20 51t51 20t51 -20t20 -51t-20 -51t-51 -20t-51 20zM480 796
q-20 20 -20 51t20 51t51 20t51 -20t20 -51t-20 -51t-51 -20t-51 20z" />
    <glyph glyph-name="Yacute" unicode="&#xdd;" horiz-adv-x="508" 
d="M173 298l-125 402h138l73 -272l182 272h140l-278 -402l-57 -298h-131zM327 756h-95l93 148h168z" />
    <glyph glyph-name="Thorn" unicode="&#xde;" horiz-adv-x="595" 
d="M296 137h-112l-27 -137h-131l137 700h131l-27 -137h114q91 0 143.5 -48t52.5 -137q0 -112 -78 -177q-76 -64 -203 -64zM243 443l-36 -186h110q57 0 91 29.5t34 80.5q0 36 -21 56t-60 20h-118z" />
    <glyph glyph-name="germandbls" unicode="&#xdf;" horiz-adv-x="584" 
d="M97 326h-51l21 112h52l12 62q40 208 239 208q77 0 119.5 -40.5t42.5 -110.5q0 -60 -26.5 -105t-74.5 -60q36 -9 66 -53q31 -43 31 -105q0 -242 -255 -242q-48 0 -80 8l21 108q43 -8 58 -8q67 0 100 30.5t33 95.5q0 48 -26.5 74t-74.5 26h-32l22 112h20q46 0 74 25t28 69
q0 70 -64 70q-37 0 -63.5 -26t-36.5 -73l-98 -503h-120z" />
    <glyph glyph-name="agrave" unicode="&#xe0;" horiz-adv-x="603" 
d="M310 512q36 0 66.5 -14.5t45.5 -36.5l8 43h125l-97 -504h-125l10 52q-17 -23 -55 -41.5t-79 -18.5q-89 0 -139 57q-48 59 -48 147q0 142 76 228q76 88 212 88zM155 219q0 -56 25 -88.5t67 -32.5q71 0 111 58t40 139q0 53 -24.5 82t-67.5 29q-70 0 -111 -59
q-40 -58 -40 -128zM197 708h168l35 -148h-95z" />
    <glyph glyph-name="aacute" unicode="&#xe1;" horiz-adv-x="603" 
d="M310 512q36 0 66.5 -14.5t45.5 -36.5l8 43h125l-97 -504h-125l10 52q-17 -23 -55 -41.5t-79 -18.5q-89 0 -139 57q-48 59 -48 147q0 142 76 228q76 88 212 88zM155 219q0 -56 25 -88.5t67 -32.5q71 0 111 58t40 139q0 53 -24.5 82t-67.5 29q-70 0 -111 -59
q-40 -58 -40 -128zM331 560h-95l93 148h168z" />
    <glyph glyph-name="acircumflex" unicode="&#xe2;" horiz-adv-x="603" 
d="M310 512q36 0 66.5 -14.5t45.5 -36.5l8 43h125l-97 -504h-125l10 52q-17 -23 -55 -41.5t-79 -18.5q-89 0 -139 57q-48 59 -48 147q0 142 76 228q76 88 212 88zM155 219q0 -56 25 -88.5t67 -32.5q71 0 111 58t40 139q0 53 -24.5 82t-67.5 29q-70 0 -111 -59
q-40 -58 -40 -128zM291 566h-128l200 186h41l132 -186h-121l-50 66z" />
    <glyph glyph-name="atilde" unicode="&#xe3;" horiz-adv-x="603" 
d="M310 512q36 0 66.5 -14.5t45.5 -36.5l8 43h125l-97 -504h-125l10 52q-17 -23 -55 -41.5t-79 -18.5q-89 0 -139 57q-48 59 -48 147q0 142 76 228q76 88 212 88zM155 219q0 -56 25 -88.5t67 -32.5q71 0 111 58t40 139q0 53 -24.5 82t-67.5 29q-70 0 -111 -59
q-40 -58 -40 -128zM215 569l-61 55q25 40 62.5 63.5t75.5 23.5q36 0 70 -21q35 -20 57 -20q26 0 66 43l61 -55q-25 -40 -62.5 -63.5t-75.5 -23.5q-35 0 -70 20q-34 21 -57 21q-26 0 -66 -43z" />
    <glyph glyph-name="adieresis" unicode="&#xe4;" horiz-adv-x="603" 
d="M310 512q36 0 66.5 -14.5t45.5 -36.5l8 43h125l-97 -504h-125l10 52q-17 -23 -55 -41.5t-79 -18.5q-89 0 -139 57q-48 59 -48 147q0 142 76 228q76 88 212 88zM155 219q0 -56 25 -88.5t67 -32.5q71 0 111 58t40 139q0 53 -24.5 82t-67.5 29q-70 0 -111 -59
q-40 -58 -40 -128zM205 600q-20 20 -20 51t20 51t51 20t51 -20t20 -51t-20 -51t-51 -20t-51 20zM412 600q-20 20 -20 51t20 51t51 20t51 -20t20 -51t-20 -51t-51 -20t-51 20z" />
    <glyph glyph-name="aring" unicode="&#xe5;" horiz-adv-x="603" 
d="M310 512q36 0 66.5 -14.5t45.5 -36.5l8 43h125l-97 -504h-125l10 52q-17 -23 -55 -41.5t-79 -18.5q-89 0 -139 57q-48 59 -48 147q0 142 76 228q76 88 212 88zM155 219q0 -56 25 -88.5t67 -32.5q71 0 111 58t40 139q0 53 -24.5 82t-67.5 29q-70 0 -111 -59
q-40 -58 -40 -128zM274 582q-29 29 -29 73t29 73t74 29t74 -29t29 -73t-29 -73t-74 -29t-74 29zM348 687q-30 0 -30 -32t30 -32t30 32t-30 32z" />
    <glyph glyph-name="ae" unicode="&#xe6;" horiz-adv-x="897" 
d="M847 263l-10 -51h-359q-1 -4 -1 -19q0 -40 27 -67.5t73 -27.5q79 0 138 86l99 -51q-49 -74 -107.5 -107.5t-140.5 -33.5q-128 0 -185 97q-38 -47 -87.5 -72t-99.5 -25q-82 0 -127 38.5t-45 106.5q0 85 63 129q65 44 155 44h126l4 22q2 16 2 18q0 27 -21.5 41.5
t-55.5 14.5q-67 0 -98 -58l-104 24q48 140 212 140q111 0 156 -63q79 63 188 63q97 0 149 -57q53 -58 53 -145q0 -31 -4 -47zM347 212h-92q-45 0 -68.5 -13.5t-23.5 -49.5q0 -25 16 -39t44 -14q45 0 78.5 29t43.5 77zM633 406q-44 0 -80 -27t-54 -69h229q-6 96 -95 96z" />
    <glyph glyph-name="ccedilla" unicode="&#xe7;" horiz-adv-x="559" 
d="M379 185l99 -42q-45 -80 -106 -115.5t-148 -35.5q-94 0 -148 60t-54 151q0 125 84 217t219 92q162 0 198 -145l-114 -42q-23 81 -105 81q-69 0 -110 -59q-39 -59 -39 -135q0 -114 90 -114q73 0 134 87zM215 -60h88l-122 -206l-133 66z" />
    <glyph glyph-name="egrave" unicode="&#xe8;" horiz-adv-x="567" 
d="M517 263l-10 -51h-362v-16q0 -42 28 -70t74 -28q79 0 138 86l99 -51q-49 -74 -107.5 -107.5t-140.5 -33.5q-94 0 -156 60q-60 60 -60 163q0 120 83 209q82 88 216 88q97 0 149 -57q53 -58 53 -145q0 -31 -4 -47zM303 406q-44 0 -80 -27t-54 -69h230q-6 96 -96 96z
M193 708h168l35 -148h-95z" />
    <glyph glyph-name="eacute" unicode="&#xe9;" horiz-adv-x="567" 
d="M517 263l-10 -51h-362v-16q0 -42 28 -70t74 -28q79 0 138 86l99 -51q-49 -74 -107.5 -107.5t-140.5 -33.5q-94 0 -156 60q-60 60 -60 163q0 120 83 209q82 88 216 88q97 0 149 -57q53 -58 53 -145q0 -31 -4 -47zM303 406q-44 0 -80 -27t-54 -69h230q-6 96 -96 96z
M318 560h-95l93 148h168z" />
    <glyph glyph-name="ecircumflex" unicode="&#xea;" horiz-adv-x="567" 
d="M517 263l-10 -51h-362v-16q0 -42 28 -70t74 -28q79 0 138 86l99 -51q-49 -74 -107.5 -107.5t-140.5 -33.5q-94 0 -156 60q-60 60 -60 163q0 120 83 209q82 88 216 88q97 0 149 -57q53 -58 53 -145q0 -31 -4 -47zM303 406q-44 0 -80 -27t-54 -69h230q-6 96 -96 96z
M268 566h-128l200 186h41l132 -186h-121l-50 66z" />
    <glyph glyph-name="edieresis" unicode="&#xeb;" horiz-adv-x="567" 
d="M517 263l-10 -51h-362v-16q0 -42 28 -70t74 -28q79 0 138 86l99 -51q-49 -74 -107.5 -107.5t-140.5 -33.5q-94 0 -156 60q-60 60 -60 163q0 120 83 209q82 88 216 88q97 0 149 -57q53 -58 53 -145q0 -31 -4 -47zM303 406q-44 0 -80 -27t-54 -69h230q-6 96 -96 96z
M196 600q-20 20 -20 51t20 51t51 20t51 -20t20 -51t-20 -51t-51 -20t-51 20zM403 600q-20 20 -20 51t20 51t51 20t51 -20t20 -51t-20 -51t-51 -20t-51 20z" />
    <glyph glyph-name="igrave" unicode="&#xec;" horiz-adv-x="288" 
d="M18 0l98 504h125l-98 -504h-125zM62 708h168l35 -148h-95z" />
    <glyph glyph-name="iacute" unicode="&#xed;" horiz-adv-x="288" 
d="M18 0l98 504h125l-98 -504h-125zM207 560h-95l93 148h168z" />
    <glyph glyph-name="icircumflex" unicode="&#xee;" horiz-adv-x="288" 
d="M18 0l98 504h125l-98 -504h-125zM125 566h-128l200 186h41l132 -186h-121l-50 66z" />
    <glyph glyph-name="idieresis" unicode="&#xef;" horiz-adv-x="288" 
d="M18 0l98 504h125l-98 -504h-125zM50 600q-20 20 -20 51t20 51t51 20t51 -20t20 -51t-20 -51t-51 -20t-51 20zM257 600q-20 20 -20 51t20 51t51 20t51 -20t20 -51t-20 -51t-51 -20t-51 20z" />
    <glyph glyph-name="eth" unicode="&#xf0;" horiz-adv-x="593" 
d="M340 581l-41 -47l-65 53l37 42q-53 30 -78 39l79 91q38 -18 76 -42l43 48l66 -52l-42 -47q60 -51 92 -132.5t32 -176.5q0 -150 -68 -253q-34 -53 -96 -82.5t-142 -29.5q-98 0 -155 61q-56 62 -56 151q0 134 84 221q86 87 221 87q43 0 78 -20q-20 50 -65 89zM307 406
q-71 0 -113 -57q-41 -58 -41 -126q0 -61 24 -93t70 -32q69 0 111 56t42 130q0 122 -93 122z" />
    <glyph glyph-name="ntilde" unicode="&#xf1;" horiz-adv-x="585" 
d="M18 0l98 504h125l-16 -81q71 89 169 89q60 0 93 -29.5t33 -83.5q0 -22 -4 -39l-70 -360h-125l63 323q3 17 3 29q0 26 -14.5 40t-39.5 14q-49 0 -91 -55.5t-60 -149.5l-39 -201h-125zM208 569l-61 55q25 40 62.5 63.5t75.5 23.5q35 0 70 -21q35 -20 57 -20q26 0 66 43
l61 -55q-25 -40 -62.5 -63.5t-75.5 -23.5q-35 0 -70 20q-35 21 -57 21q-26 0 -66 -43z" />
    <glyph glyph-name="ograve" unicode="&#xf2;" horiz-adv-x="588" 
d="M22 205q0 144 86 227q45 44 92.5 62t113.5 18q100 0 160 -61q60 -60 60 -152q0 -144 -86 -227q-45 -44 -92.5 -62t-113.5 -18q-100 0 -160 60q-60 62 -60 153zM303 406q-71 0 -111 -54q-37 -46 -37 -128q0 -58 26.5 -92t71.5 -34q71 0 111 54q37 46 37 128q0 58 -26.5 92
t-71.5 34zM186 708h168l35 -148h-95z" />
    <glyph glyph-name="oacute" unicode="&#xf3;" horiz-adv-x="588" 
d="M22 205q0 144 86 227q45 44 92.5 62t113.5 18q100 0 160 -61q60 -60 60 -152q0 -144 -86 -227q-45 -44 -92.5 -62t-113.5 -18q-100 0 -160 60q-60 62 -60 153zM303 406q-71 0 -111 -54q-37 -46 -37 -128q0 -58 26.5 -92t71.5 -34q71 0 111 54q37 46 37 128q0 58 -26.5 92
t-71.5 34zM321 560h-95l93 148h168z" />
    <glyph glyph-name="ocircumflex" unicode="&#xf4;" horiz-adv-x="588" 
d="M22 205q0 144 86 227q45 44 92.5 62t113.5 18q100 0 160 -61q60 -60 60 -152q0 -144 -86 -227q-45 -44 -92.5 -62t-113.5 -18q-100 0 -160 60q-60 62 -60 153zM303 406q-71 0 -111 -54q-37 -46 -37 -128q0 -58 26.5 -92t71.5 -34q71 0 111 54q37 46 37 128q0 58 -26.5 92
t-71.5 34zM258 566h-128l200 186h41l132 -186h-121l-50 66z" />
    <glyph glyph-name="otilde" unicode="&#xf5;" horiz-adv-x="588" 
d="M22 205q0 144 86 227q45 44 92.5 62t113.5 18q100 0 160 -61q60 -60 60 -152q0 -144 -86 -227q-45 -44 -92.5 -62t-113.5 -18q-100 0 -160 60q-60 62 -60 153zM303 406q-71 0 -111 -54q-37 -46 -37 -128q0 -58 26.5 -92t71.5 -34q71 0 111 54q37 46 37 128q0 58 -26.5 92
t-71.5 34zM201 569l-61 55q25 40 62.5 63.5t75.5 23.5q36 0 70 -21q35 -20 57 -20q26 0 66 43l61 -55q-25 -40 -62.5 -63.5t-75.5 -23.5q-35 0 -70 20q-34 21 -57 21q-26 0 -66 -43z" />
    <glyph glyph-name="odieresis" unicode="&#xf6;" horiz-adv-x="588" 
d="M22 205q0 144 86 227q45 44 92.5 62t113.5 18q100 0 160 -61q60 -60 60 -152q0 -144 -86 -227q-45 -44 -92.5 -62t-113.5 -18q-100 0 -160 60q-60 62 -60 153zM303 406q-71 0 -111 -54q-37 -46 -37 -128q0 -58 26.5 -92t71.5 -34q71 0 111 54q37 46 37 128q0 58 -26.5 92
t-71.5 34zM194 600q-20 20 -20 51t20 51t51 20t51 -20t20 -51t-20 -51t-51 -20t-51 20zM401 600q-20 20 -20 51t20 51t51 20t51 -20t20 -51t-20 -51t-51 -20t-51 20z" />
    <glyph glyph-name="divide" unicode="&#xf7;" horiz-adv-x="601" 
d="M243 64q-24 24 -24 60t24 60t60 24t60 -24t24 -60t-24 -60t-60 -24t-60 24zM243 446q-24 24 -24 60t24 60t60 24t60 -24t24 -60t-24 -60t-60 -24t-60 24zM541 261h-476v108h476v-108z" />
    <glyph glyph-name="oslash" unicode="&#xf8;" horiz-adv-x="588" 
d="M22 206q0 143 86 226q47 44 93 62q48 18 113 18q64 0 117 -29l83 85l74 -69l-84 -86q30 -53 30 -114q0 -144 -86 -227q-45 -44 -92.5 -62t-113.5 -18q-70 0 -120 29l-83 -85l-74 69l86 88q-29 50 -29 113zM401 280q0 4 -2 26l-191 -197q20 -11 45 -11q71 0 111 54
q37 46 37 128zM303 406q-71 0 -111 -54q-37 -46 -37 -128q0 -19 1 -24l190 196q-21 10 -43 10z" />
    <glyph glyph-name="ugrave" unicode="&#xf9;" horiz-adv-x="589" 
d="M543 504l-98 -504h-125l16 81q-71 -89 -169 -89q-60 0 -93 29.5t-33 83.5q0 22 4 39l70 360h125l-63 -323q-3 -17 -3 -29q0 -54 54 -54q49 0 91 55.5t60 149.5l39 201h125zM193 708h168l35 -148h-95z" />
    <glyph glyph-name="uacute" unicode="&#xfa;" horiz-adv-x="589" 
d="M543 504l-98 -504h-125l16 81q-71 -89 -169 -89q-60 0 -93 29.5t-33 83.5q0 22 4 39l70 360h125l-63 -323q-3 -17 -3 -29q0 -54 54 -54q49 0 91 55.5t60 149.5l39 201h125zM355 560h-95l93 148h168z" />
    <glyph glyph-name="ucircumflex" unicode="&#xfb;" horiz-adv-x="589" 
d="M543 504l-98 -504h-125l16 81q-71 -89 -169 -89q-60 0 -93 29.5t-33 83.5q0 22 4 39l70 360h125l-63 -323q-3 -17 -3 -29q0 -54 54 -54q49 0 91 55.5t60 149.5l39 201h125zM279 566h-128l200 186h41l132 -186h-121l-50 66z" />
    <glyph glyph-name="udieresis" unicode="&#xfc;" horiz-adv-x="589" 
d="M543 504l-98 -504h-125l16 81q-71 -89 -169 -89q-60 0 -93 29.5t-33 83.5q0 22 4 39l70 360h125l-63 -323q-3 -17 -3 -29q0 -54 54 -54q49 0 91 55.5t60 149.5l39 201h125zM200 600q-20 20 -20 51t20 51t51 20t51 -20t20 -51t-20 -51t-51 -20t-51 20zM407 600
q-20 20 -20 51t20 51t51 20t51 -20t20 -51t-20 -51t-51 -20t-51 20z" />
    <glyph glyph-name="yacute" unicode="&#xfd;" horiz-adv-x="493" 
d="M119 28l-82 476h125l50 -316l166 316h131l-394 -708h-125zM270 560h-95l93 148h168z" />
    <glyph glyph-name="thorn" unicode="&#xfe;" horiz-adv-x="606" 
d="M552 303q0 -135 -72 -224q-72 -87 -202 -87q-42 0 -75 17.5t-47 42.5l-49 -256h-125l176 912h125l-49 -250q58 54 134 54q84 0 134 -55.5t50 -153.5zM275 98q67 0 105 59q39 58 39 130q0 57 -24.5 88t-67.5 31q-67 0 -108 -56t-41 -134q0 -56 25.5 -87t71.5 -31z" />
    <glyph glyph-name="ydieresis" unicode="&#xff;" horiz-adv-x="493" 
d="M119 28l-82 476h125l50 -316l166 316h131l-394 -708h-125zM139 600q-20 20 -20 51t20 51t51 20t51 -20t20 -51t-20 -51t-51 -20t-51 20zM346 600q-20 20 -20 51t20 51t51 20t51 -20t20 -51t-20 -51t-51 -20t-51 20z" />
    <glyph glyph-name="dotlessi" unicode="&#x131;" horiz-adv-x="288" 
d="M18 0l98 504h125l-98 -504h-125z" />
    <glyph glyph-name="Lslash" unicode="&#x141;" horiz-adv-x="535" 
d="M114 366l66 334h131l-51 -261l98 49l34 -95l-156 -78l-38 -195h286l-24 -120h-417l47 242l-71 -36l-34 95z" />
    <glyph glyph-name="lslash" unicode="&#x142;" horiz-adv-x="348" 
d="M122 391l63 317h125l-49 -249l54 27l34 -95l-112 -56l-66 -335h-125l52 267l-53 -26l-34 95z" />
    <glyph glyph-name="OE" unicode="&#x152;" horiz-adv-x="1042" 
d="M617 630l14 70h423l-24 -120h-292l-28 -147h232l-24 -120h-232l-37 -193h302l-24 -120h-433l8 40q-81 -48 -193 -48q-116 0 -195 76t-79 218q0 175 97 290q110 132 289 132q119 0 196 -78zM319 112q97 0 166 80q75 89 75 212q0 87 -38.5 135.5t-110.5 48.5
q-97 0 -166 -80q-75 -88 -75 -212q0 -87 38.5 -135.5t110.5 -48.5z" />
    <glyph glyph-name="oe" unicode="&#x153;" horiz-adv-x="946" 
d="M896 263l-10 -51h-359q-1 -4 -1 -19q0 -40 27 -67.5t73 -27.5q79 0 138 86l99 -51q-49 -74 -107.5 -107.5t-140.5 -33.5q-111 0 -171 76q-80 -76 -202 -76q-100 0 -160 60q-60 62 -60 153q0 144 86 227q45 44 92.5 62t113.5 18q115 0 177 -80q83 80 207 80q96 0 149 -57
q53 -58 53 -145q0 -31 -4 -47zM303 406q-71 0 -111 -54q-37 -46 -37 -128q0 -58 26.5 -92t71.5 -34q71 0 111 54q37 46 37 128q0 58 -26.5 92t-71.5 34zM682 406q-44 0 -80 -27t-54 -69h229q-6 96 -95 96z" />
    <glyph glyph-name="Scaron" unicode="&#x160;" horiz-adv-x="540" 
d="M512 577l-108 -60q-29 71 -91 71q-33 0 -53 -19.5t-20 -52.5q0 -30 23.5 -53.5t76.5 -50.5q76 -39 107 -77q34 -38 34 -114q0 -112 -75 -172q-39 -32 -82 -44.5t-108 -12.5q-84 0 -145 60q-60 60 -60 138l111 60q13 -138 125 -138q46 0 72.5 25t26.5 69q0 37 -21 60
t-78 54q-70 38 -104 82.5t-34 109.5q0 88 60 142q61 54 156 54q67 0 119 -38q51 -37 68 -93zM432 948h128l-200 -186h-41l-132 186h121l50 -66z" />
    <glyph glyph-name="scaron" unicode="&#x161;" horiz-adv-x="459" 
d="M262 512q52 0 96 -25q45 -24 61 -61l-89 -64q-26 44 -77 44q-21 0 -35 -12t-14 -33t21 -34q9 -7 20 -12l46 -20q51 -23 77.5 -53t26.5 -75q0 -86 -53 -130.5t-145 -44.5q-82 0 -130 45q-48 47 -60 103l106 44q21 -86 98 -86q28 0 46 13.5t18 38.5q0 20 -19 36t-67 38
q-103 49 -103 134q0 71 47 112.5t129 41.5zM372 752h128l-200 -186h-41l-132 186h121l50 -66z" />
    <glyph glyph-name="Ydieresis" unicode="&#x178;" horiz-adv-x="508" 
d="M173 298l-125 402h138l73 -272l182 272h140l-278 -402l-57 -298h-131zM181 796q-20 20 -20 51t20 51t51 20t51 -20t20 -51t-20 -51t-51 -20t-51 20zM388 796q-20 20 -20 51t20 51t51 20t51 -20t20 -51t-20 -51t-51 -20t-51 20z" />
    <glyph glyph-name="Zcaron" unicode="&#x17d;" horiz-adv-x="577" 
d="M385 580h-287l24 120h467l-12 -60l-401 -520h316l-24 -120h-497l12 60zM459 948h128l-200 -186h-41l-132 186h121l50 -66z" />
    <glyph glyph-name="zcaron" unicode="&#x17e;" horiz-adv-x="463" 
d="M267 398h-203l20 106h365l-9 -48l-271 -350h225l-20 -106h-390l8 48zM372 752h128l-200 -186h-41l-132 186h121l50 -66z" />
    <glyph glyph-name="florin" unicode="&#x192;" horiz-adv-x="435" 
d="M184 398h-79l21 106h80l5 26q17 88 71 133t137 45q58 0 90 -20l-46 -100q-31 14 -57 14q-56 0 -70 -63l-6 -35h108l-21 -106h-108l-85 -432q-17 -88 -71 -133t-137 -45q-58 0 -90 20l46 100q31 -14 57 -14q57 0 70 63z" />
    <glyph glyph-name="circumflex" unicode="&#x2c6;" horiz-adv-x="423" 
d="M190 566h-128l200 186h41l132 -186h-121l-50 66z" />
    <glyph glyph-name="caron" unicode="&#x2c7;" horiz-adv-x="400" 
d="M324 752h128l-200 -186h-41l-132 186h121l50 -66z" />
    <glyph glyph-name="breve" unicode="&#x2d8;" horiz-adv-x="248" 
d="M65 700h91q-1 -2 -1 -6q0 -22 23 -22q12 0 21 8t11 20h91q-8 -48 -46.5 -78.5t-92.5 -30.5q-46 0 -72.5 24t-26.5 64q0 3 2 21z" />
    <glyph glyph-name="dotaccent" unicode="&#x2d9;" horiz-adv-x="288" 
d="M145 592q-23 23 -23 57t23 57t57 23t57 -23t23 -57t-23 -57t-57 -23t-57 23z" />
    <glyph glyph-name="ring" unicode="&#x2da;" horiz-adv-x="204" 
d="M82 582q-29 29 -29 73t29 73t74 29t74 -29t29 -73t-29 -73t-74 -29t-74 29zM156 687q-30 0 -30 -32t30 -32t30 32t-30 32z" />
    <glyph glyph-name="ogonek" unicode="&#x2db;" horiz-adv-x="238" 
d="M43 -60h80l-13 -10q-28 -21 -33 -25q-28 -26 -28 -47q0 -23 20 -22q25 1 61 44l45 -48q-59 -77 -133 -77q-39 0 -60.5 21t-21.5 58q0 61 83 106z" />
    <glyph glyph-name="tilde" unicode="&#x2dc;" horiz-adv-x="412" 
d="M122 569l-61 55q25 40 62.5 63.5t75.5 23.5q35 0 70 -21q35 -20 57 -20q26 0 66 43l61 -55q-25 -40 -62.5 -63.5t-75.5 -23.5q-35 0 -70 20q-35 21 -57 21q-26 0 -66 -43z" />
    <glyph glyph-name="hungarumlaut" unicode="&#x2dd;" horiz-adv-x="461" 
d="M139 560h-95l93 148h168zM354 560h-95l93 148h168z" />
    <glyph glyph-name="Omega" unicode="&#x3a9;" horiz-adv-x="690" 
d="M496 108h128v-108h-245v40l27 61q18 42 44 144q28 105 28 195q0 75 -35 117.5t-98 42.5t-98 -42.5t-35 -117.5q0 -90 25 -189q26 -101 49 -155l25 -56v-40h-245v108h128q-20 32 -37 66q-21 45 -32 74q-37 95 -37 192q0 118 69 193q71 75 188 75q118 0 187 -75
q70 -74 70 -193q0 -78 -27 -160q-25 -82 -53 -128z" />
    <glyph glyph-name="pi" unicode="&#x3c0;" horiz-adv-x="576" 
d="M118 394h-83v110h519v-110h-83v-394h-124v394h-105v-394h-124v394z" />
    <glyph glyph-name="endash" unicode="&#x2013;" horiz-adv-x="570" 
d="M491 263h-445l21 108h445z" />
    <glyph glyph-name="emdash" unicode="&#x2014;" horiz-adv-x="759" 
d="M680 263h-634l21 108h634z" />
    <glyph glyph-name="quoteleft" unicode="&#x2018;" horiz-adv-x="324" 
d="M88 708h162l31 -244h-91z" />
    <glyph glyph-name="quoteright" unicode="&#x2019;" horiz-adv-x="275" 
d="M131 464h-92l125 244h163z" />
    <glyph glyph-name="quotesinglbase" unicode="&#x201a;" horiz-adv-x="365" 
d="M86 -14h-92l125 244h163z" />
    <glyph glyph-name="quotedblleft" unicode="&#x201c;" horiz-adv-x="544" 
d="M308 708h162l31 -244h-91zM88 708h162l31 -244h-91z" />
    <glyph glyph-name="quotedblright" unicode="&#x201d;" horiz-adv-x="485" 
d="M131 464h-92l125 244h163zM341 464h-92l125 244h163z" />
    <glyph glyph-name="quotedblbase" unicode="&#x201e;" horiz-adv-x="570" 
d="M86 -15h-92l125 244h163zM296 -15h-92l125 244h163z" />
    <glyph glyph-name="dagger" unicode="&#x2020;" horiz-adv-x="523" 
d="M209 396h-149l21 108h149l48 246h123l-48 -246h149l-21 -108h-149l-86 -446h-123z" />
    <glyph glyph-name="daggerdbl" unicode="&#x2021;" horiz-adv-x="523" 
d="M210 396h-149l21 108h149l48 246h123l-48 -246h148l-21 -108h-148l-18 -92h149l-21 -108h-149l-47 -246h-123l47 246h-148l21 108h148z" />
    <glyph glyph-name="bullet" unicode="&#x2022;" horiz-adv-x="387" 
d="M99 246q-34 34 -34 84q0 49 34 83q35 35 84 35q48 0 83 -35t35 -83q0 -49 -35 -84q-34 -34 -83 -34q-50 0 -84 34z" />
    <glyph glyph-name="ellipsis" unicode="&#x2026;" horiz-adv-x="948" 
d="M44 18q-24 24 -24 60t24 60t60 24t60 -24t24 -60t-24 -60t-60 -24t-60 24zM366 18q-24 24 -24 60t24 60t60 24t60 -24t24 -60t-24 -60t-60 -24t-60 24zM688 18q-24 24 -24 60t24 60t60 24t60 -24t24 -60t-24 -60t-60 -24t-60 24z" />
    <glyph glyph-name="perthousand" unicode="&#x2030;" horiz-adv-x="1279" 
d="M55 522q0 82 61 137q53 49 137 49q59 0 97.5 -37.5t38.5 -96.5q0 -82 -61 -137q-53 -49 -137 -49q-59 0 -97.5 37.5t-38.5 96.5zM235 613q-32 0 -54.5 -22.5t-22.5 -55.5q0 -52 51 -52q32 0 54.5 22.5t22.5 55.5q0 52 -51 52zM464 126q0 82 61 137q53 49 137 49
q59 0 97.5 -37.5t38.5 -96.5q0 -82 -61 -137q-53 -49 -137 -49q-59 0 -97.5 37.5t-38.5 96.5zM644 217q-32 0 -54.5 -22.5t-22.5 -55.5q0 -52 51 -52q32 0 54.5 22.5t22.5 55.5q0 52 -51 52zM867 126q0 82 61 137q53 49 137 49q59 0 97.5 -37.5t38.5 -96.5q0 -82 -61 -137
q-53 -49 -137 -49q-59 0 -97.5 37.5t-38.5 96.5zM1047 217q-32 0 -54.5 -22.5t-22.5 -55.5q0 -52 51 -52q32 0 54.5 22.5t22.5 55.5q0 52 -51 52zM63 21l677 719l63 -61l-677 -719z" />
    <glyph glyph-name="guilsinglleft" unicode="&#x2039;" horiz-adv-x="415" 
d="M296 51l-267 218l16 88l352 212l-27 -143l-205 -121l155 -129z" />
    <glyph glyph-name="guilsinglright" unicode="&#x203a;" horiz-adv-x="415" 
d="M113 569l267 -218l-16 -88l-352 -212l27 143l205 121l-155 129z" />
    <glyph glyph-name="fraction" unicode="&#x2044;" horiz-adv-x="744" 
d="M2 21l677 719l63 -61l-677 -719z" />
    <glyph glyph-name="zerosuperior" unicode="&#x2070;" horiz-adv-x="382" 
d="M245 704q64 0 100 -41.5t36 -112.5q0 -66 -21 -121q-21 -58 -71 -95.5t-117 -37.5q-64 0 -100 41.5t-36 112.5q0 63 20 120q22 59 72 96.5t117 37.5zM232 621q-50 0 -77 -51q-26 -52 -26 -107q0 -41 15 -62.5t41 -21.5q51 0 76 51q27 51 27 107q0 41 -15 62.5t-41 21.5z
" />
    <glyph glyph-name="foursuperior" unicode="&#x2074;" horiz-adv-x="401" 
d="M284 300h-90l12 65h-173l9 45l219 290h100l-49 -252h47l-16 -83h-47zM246 570l-87 -122h63z" />
    <glyph glyph-name="fivesuperior" unicode="&#x2075;" horiz-adv-x="364" 
d="M36 418l85 10q3 -23 17.5 -36t36.5 -13q58 0 58 66q0 21 -13 34.5t-34 13.5q-30 0 -62 -25l-68 15l64 217h228l-16 -83h-153l-23 -67q28 15 66 15q48 0 76.5 -29t28.5 -78q0 -75 -44.5 -118.5t-120.5 -43.5q-54 0 -89.5 34t-36.5 88z" />
    <glyph glyph-name="sixsuperior" unicode="&#x2076;" horiz-adv-x="360" 
d="M234 704h103l-116 -147q14 2 18 2q43 0 71 -29t28 -80q0 -71 -44.5 -112.5t-119.5 -41.5q-54 0 -89.5 34t-35.5 85q0 55 38 105zM199 476q-24 0 -39.5 -15t-15.5 -39q0 -18 13 -30.5t31 -12.5q24 0 39 14.5t15 40.5q0 18 -11.5 30t-31.5 12z" />
    <glyph glyph-name="sevensuperior" unicode="&#x2077;" horiz-adv-x="326" 
d="M93 700h265l-6 -35l-221 -365h-96l192 317h-150z" />
    <glyph glyph-name="eightsuperior" unicode="&#x2078;" horiz-adv-x="319" 
d="M233 704q48 0 77 -26.5t29 -69.5q0 -60 -62 -92q42 -22 42 -77q0 -67 -45 -105t-116 -38q-54 0 -87 29t-33 77q0 39 21.5 69.5t57.5 44.5q-32 20 -32 67q0 61 51 95q38 26 97 26zM188 473q-24 0 -41 -15t-17 -38q0 -18 11 -29.5t29 -11.5q26 0 42 14.5t16 39.5
q0 18 -11 29t-29 11zM220 637q-23 0 -37 -14t-14 -38q0 -36 34 -36q22 0 36.5 14.5t14.5 37.5q0 36 -34 36z" />
    <glyph glyph-name="ninesuperior" unicode="&#x2079;" horiz-adv-x="360" 
d="M165 296h-103l116 147q-14 -2 -18 -2q-43 0 -71 29t-28 80q0 71 44.5 112.5t119.5 41.5q54 0 89.5 -34t35.5 -85q0 -55 -38 -105zM200 524q24 0 39.5 15t15.5 39q0 18 -13 30.5t-31 12.5q-24 0 -39 -14.5t-15 -40.5q0 -18 11.5 -30t31.5 -12z" />
    <glyph glyph-name="Euro" unicode="&#x20ac;" horiz-adv-x="627" 
d="M123 376h-90l71 108h50q42 104 126 164q86 60 184 60q149 0 196 -131l-108 -59q-15 35 -44 54.5t-66 19.5q-108 0 -161 -108h224l-71 -108h-188l-11 -52h238l-71 -108h-174q14 -108 119 -108q75 0 132 74l88 -61q-96 -129 -242 -129q-95 0 -153 63q-57 64 -64 161h-106
l70 108h40z" />
    <glyph glyph-name="trademark" unicode="&#x2122;" horiz-adv-x="852" 
d="M177 610h-104l17 90h306l-17 -90h-104l-60 -310h-98zM477 300h-98l77 400h98l50 -233l139 233h103l-77 -400h-98l37 193l-95 -156h-64l-35 156z" />
    <glyph glyph-name="partialdiff" unicode="&#x2202;" horiz-adv-x="635" 
d="M214 528l-113 35q20 63 81 103q62 42 135 42q133 0 194 -83.5t61 -256.5q0 -163 -68 -266q-75 -110 -243 -110q-95 0 -157 60q-61 60 -61 157q0 132 88 217q89 86 223 86q49 0 87 -22q-9 57 -36 84.5t-76 27.5q-79 0 -115 -74zM343 406q-70 0 -118 -59q-47 -59 -47 -130
q0 -52 27 -85.5t76 -33.5q71 0 111 55q42 56 42 134q0 119 -91 119z" />
    <glyph glyph-name="Delta" unicode="&#x2206;" horiz-adv-x="671" 
d="M590 0h-598v32l248 668h102l248 -668v-32zM444 108l-153 440l-153 -440h306z" />
    <glyph glyph-name="product" unicode="&#x220f;" horiz-adv-x="549" 
d="M194 0h-124v700h409v-700h-124v590h-161v-590z" />
    <glyph glyph-name="summation" unicode="&#x2211;" horiz-adv-x="557" 
d="M490 110v-110h-441v55l186 295l-186 295v55h441v-110h-272l141 -226v-28l-141 -226h272z" />
    <glyph glyph-name="minus" unicode="&#x2212;" horiz-adv-x="607" 
d="M517 263h-476l21 108h476z" />
    <glyph glyph-name="radical" unicode="&#x221a;" horiz-adv-x="562" 
d="M150 277h-116v112h184l71 -226l156 545h119l-219 -708h-104z" />
    <glyph glyph-name="infinity" unicode="&#x221e;" horiz-adv-x="882" 
d="M642 168q-59 0 -112.5 24t-85.5 71q-32 -47 -85.5 -71t-112.5 -24q-91 0 -143.5 52t-52.5 139t52.5 139t143.5 52q59 0 112.5 -24t85.5 -71q32 47 85.5 71t112.5 24q91 0 143.5 -52t52.5 -139t-52.5 -139t-143.5 -52zM263 272q32 0 63.5 22t54.5 65q-23 43 -54.5 65
t-63.5 22q-42 0 -66 -22.5t-24 -64.5t24 -64.5t66 -22.5zM625 272q42 0 66 22.5t24 64.5t-24 64.5t-66 22.5q-71 0 -117 -87q46 -87 117 -87z" />
    <glyph glyph-name="integral" unicode="&#x222b;" horiz-adv-x="435" 
d="M99 -43l112 573q34 178 204 178q62 0 94 -20l-46 -100q-31 14 -57 14q-56 0 -70 -63l-112 -573q-34 -178 -201 -178q-65 0 -97 20l46 100q31 -14 57 -14q57 0 70 63z" />
    <glyph glyph-name="approxequal" unicode="&#x2248;" horiz-adv-x="586" 
d="M82 144l-53 69q28 48 75 79q50 32 98 32q44 0 100 -30q56 -29 88 -29q50 0 99 51l53 -69q-28 -49 -76 -79q-49 -32 -97 -32q-44 0 -100 29q-55 30 -88 30q-49 0 -99 -51zM79 351l-53 69q28 48 75 79q50 32 98 32q45 0 100 -30q56 -29 88 -29q49 0 99 51l53 -69
q-28 -49 -76 -79q-49 -32 -97 -32q-44 0 -100 29q-56 30 -88 30q-50 0 -99 -51z" />
    <glyph glyph-name="notequal" unicode="&#x2260;" horiz-adv-x="621" 
d="M269 346h-177v108h238l59 103l94 -52l-29 -51h75v-108h-136l-41 -72h177v-108h-238l-59 -103l-94 52l29 51h-75v108h136z" />
    <glyph glyph-name="lessequal" unicode="&#x2264;" horiz-adv-x="585" 
d="M473 140l-391 203v118l391 203v-131l-252 -131l252 -131v-131zM516 0h-476v108h476v-108z" />
    <glyph glyph-name="greaterequal" unicode="&#x2265;" horiz-adv-x="585" 
d="M92 664l391 -203v-118l-391 -203v131l252 131l-252 131v131zM49 108h476v-108h-476v108z" />
    <glyph glyph-name="lozenge" unicode="&#x25ca;" horiz-adv-x="542" 
d="M332 0h-122l-181 350l181 350h122l181 -350zM153 350l118 -242l118 242l-118 241z" />
    <glyph glyph-name="apple" unicode="&#xf8ff;" horiz-adv-x="772" 
d="M682 617v-595q0 -9 -6.5 -15.5t-15.5 -6.5q-4 0 -7 1l-267 77l-267 -77q-3 -1 -7 -1q-9 0 -15.5 6.5t-6.5 15.5v595q0 18 16 22l270 78q10 4 20 0l270 -78q16 -4 16 -22zM364 366v303l-230 -67q6 -93 71 -161q66 -67 159 -75zM638 602l-230 67v-303q94 8 158 75
q66 68 72 161zM133 463v-412l231 67v204q-73 6 -134 43.5t-97 97.5zM408 118l231 -67v412q-37 -60 -98 -97.5t-133 -43.5v-204z" />
    <glyph glyph-name="No" horiz-adv-x="1313" 
d="M465 238l90 462h131l-137 -700h-138l-164 462l-90 -462h-131l137 700h138zM1146 0h-455l21 108h455zM747 401q0 144 86 227q45 44 92.5 62t113.5 18q100 0 160 -61q60 -60 60 -152q0 -144 -86 -227q-45 -44 -92.5 -62t-113.5 -18q-100 0 -160 60q-60 62 -60 153z
M1028 602q-70 0 -111 -54q-37 -46 -37 -128q0 -58 26.5 -92t71.5 -34q70 0 111 54q37 46 37 128q0 58 -26.5 92t-71.5 34z" />
    <glyph glyph-name="zero.tn" 
d="M573 449q0 -84 -19 -162t-58 -145.5t-108 -108.5t-158 -41q-88 0 -146 64q-57 64 -57 195q6 306 184 416q70 41 158 41q89 0 146 -65q58 -64 58 -194zM347 592q-62 0 -109 -59q-84 -109 -84 -277q0 -72 26.5 -110t72.5 -38q62 0 109 59q84 109 84 277q0 72 -26.5 110
t-72.5 38z" />
    <glyph glyph-name="one.tn" 
d="M171 580l229 120h56l-137 -700h-127l102 524l-149 -80z" />
    <glyph glyph-name="two.tn" 
d="M449 0h-447l9 50l312 326q44 45 63.5 78.5t19.5 71.5q0 31 -17.5 48.5t-49.5 17.5q-75 0 -106 -100l-119 20q22 91 84 143.5t151 52.5t136.5 -46t47.5 -128q0 -53 -19 -95t-62 -87l-223 -236h242z" />
    <glyph glyph-name="three.tn" 
d="M31 195l116 15q14 -102 103 -102q59 0 91.5 36.5t32.5 97.5q0 110 -92 110q-31 0 -64 -15l-36 66l164 189h-218l20 108h402l-8 -44l-210 -223q26 2 29 2q66 0 103 -45.5t37 -131.5q0 -125 -70 -195q-71 -71 -189 -71q-94 0 -153 59q-58 59 -58 144z" />
    <glyph glyph-name="four.tn" 
d="M393 0h-127l26 130h-300l12 64l393 506h133l-89 -454h78l-22 -116h-78zM363 500l-184 -254h135z" />
    <glyph glyph-name="five.tn" 
d="M44 190l122 18q2 -48 27 -74t67 -26q58 0 92.5 38.5t34.5 103.5q0 49 -23 76t-65 27q-77 0 -142 -63l-76 16l110 394h367l-22 -116h-260l-44 -146q50 26 99 26q88 0 135.5 -50t47.5 -145q0 -126 -74 -202q-74 -75 -197 -75q-92 0 -147 50q-53 51 -53 127q0 16 1 21z" />
    <glyph glyph-name="six.tn" 
d="M515 708l-204 -260h16q86 0 136 -51.5t50 -143.5q0 -123 -78 -192q-77 -69 -194 -69q-91 0 -149 53q-56 54 -56 136q0 93 66 178l268 349h145zM296 332q-53 0 -94 -38q-39 -38 -39 -94q0 -40 25.5 -66t63.5 -26q54 0 94 38q40 37 40 93q0 44 -24.5 68.5t-65.5 24.5z" />
    <glyph glyph-name="seven.tn" 
d="M166 700h426l-11 -52l-380 -648h-135l342 584h-265z" />
    <glyph glyph-name="eight.tn" 
d="M360 708q84 0 131 -45.5t47 -128.5q0 -52 -30 -95.5t-75 -63.5q29 -15 50 -58t21 -90q0 -104 -62 -164q-74 -71 -207 -71q-86 0 -142 52q-57 53 -57 133q0 69 36.5 122t97.5 81q-21 18 -35 49.5t-14 65.5q0 90 68 152q67 61 171 61zM290 310q-54 0 -90.5 -32t-36.5 -83
q0 -41 25 -64t65 -23q54 0 89 30t35 82q0 42 -23.5 66t-63.5 24zM345 604q-43 0 -74 -29t-31 -73q0 -33 20 -54.5t52 -21.5q45 0 76 28.5t31 72.5q0 35 -20 56t-54 21z" />
    <glyph glyph-name="nine.tn" 
d="M71 -8l204 260h-16q-86 0 -136 51.5t-50 143.5q0 123 77 192q78 69 195 69q93 0 148 -54q57 -52 57 -135q0 -93 -66 -178l-268 -349h-145zM290 368q53 0 93 38q40 37 40 94q0 42 -24.5 67t-64.5 25q-54 0 -95 -38q-39 -38 -39 -93q0 -44 24.5 -68.5t65.5 -24.5z" />
    </font>
</defs>
</svg>
