<?xml version="1.0" standalone="no"?>
<!DOCTYPE svg PUBLIC "-//W3C//DTD SVG 1.1//EN" "http://www.w3.org/Graphics/SVG/1.1/DTD/svg11.dtd" >
<svg>
<metadata>
Created by FontForge 20120731 at Mon Feb 15 05:07:10 2016
 By ,,,
Copyright (C) 2004 Hoefler &#38; Frere-Jones Typography, Inc. www.typography.com
</metadata>
<defs>
<font id="Whitney-Light" horiz-adv-x="457" >
  <font-face 
    font-family="Whitney-Light"
    font-weight="500"
    font-stretch="normal"
    units-per-em="1000"
    panose-1="2 0 6 3 4 0 0 2 0 3"
    ascent="800"
    descent="-200"
    x-height="470"
    cap-height="690"
    bbox="-74 -200 979 928"
    underline-thickness="20"
    underline-position="-123"
    unicode-range="U+0020-FB02"
  />
<missing-glyph horiz-adv-x="500" 
 />
    <glyph glyph-name=".notdef" horiz-adv-x="500" 
 />
    <glyph glyph-name="NUL" horiz-adv-x="0" 
 />
    <glyph glyph-name="nonmarkingreturn" horiz-adv-x="230" 
 />
    <glyph glyph-name="space" unicode=" " horiz-adv-x="230" 
 />
    <glyph glyph-name="exclam" unicode="!" horiz-adv-x="264" 
d="M161 690h-58l16 -511l26 6zM162 0v81h-60v-81h60z" />
    <glyph glyph-name="quotedbl" unicode="&#x22;" horiz-adv-x="369" 
d="M294 676h-63l19 -179l25 -5zM137 676h-62l18 -179l26 -5z" />
    <glyph glyph-name="numbersign" unicode="#" horiz-adv-x="637" 
d="M195 186h199l-30 -188h39l30 188h137l-6 41h-125l35 222h117v41h-110l29 185l-38 8l-31 -193h-198l29 188h-38l-30 -188h-137l6 -41h125l-35 -222h-117v-41h110l-29 -185l38 -8zM236 449h199l-35 -222h-198z" />
    <glyph glyph-name="dollar" unicode="$" horiz-adv-x="543" 
d="M343 674l12 72l-36 9l-1.5 -12t-4 -26t-4.5 -26l-2 -12q-8 1 -16 1h-16q-91 0 -144.5 -46t-53.5 -122q0 -36 12 -62.5t34.5 -46.5t55.5 -35.5t75 -30.5l-46 -297q-38 6 -72.5 18t-64.5 26l-7 -45q32 -13 66 -23.5t71 -15.5l-18 -116l35 -8l19 121q6 -1 12 -1h12
q48 0 87.5 13.5t67 38.5t42.5 59.5t15 75.5q0 34 -10 60.5t-31.5 48.5t-55.5 40t-81 35l42 267q26 -5 52.5 -13t49.5 -19l8 44q-23 9 -49 16.5t-55 11.5zM243 36l46 290q42 -15 69 -30.5t43 -33.5t22.5 -38.5t6.5 -45.5q0 -29 -11 -55t-32 -45.5t-51.5 -31t-69.5 -11.5h-12
t-11 1zM302 639l-41 -261q-36 13 -62 26t-43.5 28.5t-26 35t-8.5 46.5t9.5 50t28.5 40t47 27t65 10h15q8 0 16 -2z" />
    <glyph glyph-name="percent" unicode="%" horiz-adv-x="864" 
d="M363 501q0 42 -11 75.5t-31 57.5t-47 37t-58 13q-32 0 -59 -13t-47 -37t-31 -57.5t-11 -75.5t11 -76t31 -57.5t47 -36.5t59 -13q31 0 58 13t47 36.5t31 57.5t11 76zM667 674l-38 9l-434 -681l38 -9zM319 501q0 -63 -27 -104.5t-75 -41.5q-49 0 -77 41.5t-28 104.5
q0 31 7 58t20 46.5t32.5 30.5t43.5 11t43 -11t32.5 -30.5t21 -46.5t7.5 -58zM796 175q0 42 -11 75.5t-31 57.5t-47 37t-58 13q-32 0 -59 -13t-47 -37t-31 -57.5t-11 -75.5t11 -76t31 -57.5t47 -36.5t59 -13q31 0 58 13t47 36.5t31 57.5t11 76zM752 175q0 -63 -27 -104.5
t-75 -41.5q-49 0 -77 41.5t-28 104.5q0 31 7 58t20 46.5t32.5 30.5t43.5 11t43 -11t32.5 -30.5t21 -46.5t7.5 -58z" />
    <glyph glyph-name="ampersand" unicode="&#x26;" horiz-adv-x="685" 
d="M662 6l-145 147q27 47 46.5 107t32.5 133l-47 10q-10 -69 -26 -122.5t-38 -95.5l-211 217q-42 43 -60 74.5t-18 71.5q0 46 32 77.5t90 31.5q69 0 148 -50l11 49q-36 21 -75 32.5t-82 11.5q-40 0 -72 -12t-54.5 -32.5t-35 -49t-12.5 -61.5q0 -47 18.5 -81.5t56.5 -75.5
q-36 -16 -67 -36t-53.5 -45.5t-35.5 -57.5t-13 -72t15 -74t42.5 -59t67 -39.5t87.5 -14.5q138 0 228 123l119 -119zM461 145q-39 -58 -89.5 -85t-107.5 -27q-36 0 -65.5 11t-51.5 30.5t-34 46.5t-12 58q0 61 40 105t112 72z" />
    <glyph glyph-name="quotesingle" unicode="'" horiz-adv-x="212" 
d="M137 676h-62l18 -179l26 -5z" />
    <glyph glyph-name="parenleft" unicode="(" horiz-adv-x="392" 
d="M338 -87q-101 87 -157.5 182t-56.5 213q0 123 53 212.5t160 162.5l-9 44q-125 -80 -189 -182t-64 -236q0 -65 16 -121.5t44.5 -106t67.5 -94t85 -84.5z" />
    <glyph glyph-name="parenright" unicode=")" horiz-adv-x="392" 
d="M317 317q0 65 -16 121.5t-44.5 106t-67.5 93.5t-85 85l-50 -10q101 -87 157.5 -182t56.5 -213q0 -123 -53.5 -212.5t-159.5 -162.5l9 -44q125 80 189 182t64 236z" />
    <glyph glyph-name="asterisk" unicode="*" horiz-adv-x="410" 
d="M355 581l-4 13l-128 -30l-11 133h-14l-11 -133l-128 30l-4 -13l121 -50l-69 -116l11 -7l87 104l87 -104l11 7l-70 116z" />
    <glyph glyph-name="plus" unicode="+" horiz-adv-x="568" 
d="M508 319v38h-203v205h-41v-205h-204v-38h204v-205h41v205h203z" />
    <glyph glyph-name="comma" unicode="," horiz-adv-x="212" 
d="M151 81h-61l-53 -208l25 -6z" />
    <glyph glyph-name="hyphen" unicode="-" horiz-adv-x="372" 
d="M306 257v50h-240v-50h240z" />
    <glyph glyph-name="period" unicode="." horiz-adv-x="212" 
d="M136 0v81h-60v-81h60z" />
    <glyph glyph-name="slash" unicode="/" horiz-adv-x="501" 
d="M480 686l-42 9l-472 -808l42 -9z" />
    <glyph glyph-name="zero" unicode="0" horiz-adv-x="613" 
d="M546 339q0 77 -16 141.5t-47 111t-75 72t-101 25.5t-101.5 -26t-75 -72.5t-47 -111.5t-16.5 -142t16 -141.5t47 -111t75 -72t101 -25.5t101.5 26t75 72.5t47 111t16.5 142.5zM497 338q0 -66 -12 -123t-36 -98t-59.5 -64.5t-82.5 -23.5t-83 23.5t-60 64.5t-36 98t-12 123
t12 123t36 98t60 64.5t83 23.5t82.5 -23.5t59.5 -64.5t36 -98t12 -123z" />
    <glyph glyph-name="one" unicode="1" horiz-adv-x="354" 
d="M238 0v680h-34l-169 -77l7 -40l149 63v-626h47z" />
    <glyph glyph-name="two" unicode="2" horiz-adv-x="536" 
d="M469 0l-6 41h-344l221 237q31 33 53 62t36.5 56.5t21 55t6.5 59.5q0 80 -49.5 129t-140.5 49q-61 0 -109 -21.5t-86 -52.5l8 -49q41 35 86.5 58t98.5 23q66 0 104.5 -37t38.5 -102q0 -26 -5 -49.5t-17 -47.5t-32.5 -50.5t-50.5 -59.5l-248 -269v-32h414z" />
    <glyph glyph-name="three" unicode="3" horiz-adv-x="531" 
d="M460 181q0 73 -40 116t-106 63q26 9 50 22.5t42.5 33.5t29.5 46.5t11 60.5t-12.5 64.5t-36.5 53t-59.5 35.5t-82.5 13q-59 0 -105.5 -17t-85.5 -45l6 -46q39 29 84 47.5t99 18.5q71 0 107.5 -35.5t36.5 -90.5q0 -64 -47.5 -103t-138.5 -39h-41l5 -43h29q106 0 156 -43
t50 -113q0 -33 -12 -60.5t-34 -47.5t-53 -31.5t-70 -11.5q-54 0 -95 14.5t-85 44.5l-8 -48q35 -23 82 -38t104 -15q47 0 87.5 14.5t70 40.5t46 61.5t16.5 77.5z" />
    <glyph glyph-name="four" unicode="4" horiz-adv-x="596" 
d="M557 166v40h-114v474h-59l-339 -483v-31h353v-166h45v166h114zM398 206h-298l298 423v-423z" />
    <glyph glyph-name="five" unicode="5" horiz-adv-x="540" 
d="M476 205q0 94 -59.5 146t-162.5 52q-37 0 -65.5 -6t-52.5 -15l18 252h294l-7 42h-328l-23 -335l27 -7q28 11 59.5 19t75.5 8q85 0 129.5 -42t44.5 -116q0 -42 -15.5 -74.5t-41 -54.5t-59 -33t-69.5 -11q-55 0 -95.5 14.5t-80.5 38.5l-7 -48q35 -20 79 -33.5t102 -13.5
q48 0 91 15t75.5 43.5t51.5 68.5t19 90z" />
    <glyph glyph-name="six" unicode="6" horiz-adv-x="572" 
d="M121 334q30 233 297 311l-7 46q-78 -24 -141 -60.5t-107.5 -87.5t-68.5 -118t-24 -151q0 -65 17.5 -117.5t48.5 -90.5t73.5 -58.5t93.5 -20.5q45 0 84 15.5t67.5 43.5t44.5 68t16 90q0 45 -14.5 82t-41 62.5t-64 39.5t-82.5 14q-51 0 -98 -17.5t-94 -50.5zM118 285
q43 32 90 53.5t100 21.5q39 0 68 -12t49 -33t30 -50t10 -63q0 -39 -11 -71t-32 -55t-51 -35.5t-67 -12.5q-41 0 -75 18.5t-58.5 51.5t-38.5 79t-14 100v8z" />
    <glyph glyph-name="seven" unicode="7" horiz-adv-x="535" 
d="M474 643v33h-419l6 -42h359l-278 -630l45 -11z" />
    <glyph glyph-name="eight" unicode="8" horiz-adv-x="573" 
d="M316 369q-51 16 -85 32t-53.5 34.5t-27.5 39.5t-8 48q0 23 9.5 45.5t28.5 40t47 28.5t64 11q33 0 60 -9.5t46.5 -26.5t30 -40t10.5 -50q0 -48 -32.5 -87t-89.5 -66zM261 343q57 -19 95 -37t60.5 -37.5t32 -43t9.5 -52.5q0 -33 -13.5 -60t-37 -45.5t-54 -29t-63.5 -10.5
q-39 0 -71 10t-55 29t-36 45.5t-13 58.5q0 57 39.5 100.5t106.5 71.5zM216 359q-71 -33 -110.5 -79.5t-39.5 -111.5q0 -38 16 -71t45 -57.5t70 -38.5t91 -14q46 0 86 13.5t69.5 38.5t46.5 59t17 75q0 66 -38.5 110t-107.5 70q27 15 50 32.5t40 38.5t26.5 46.5t9.5 55.5
q0 34 -14 63.5t-39.5 51.5t-61.5 35t-79 13q-44 0 -80.5 -13t-63 -35.5t-41.5 -53t-15 -65.5q0 -62 35 -101.5t88 -61.5z" />
    <glyph glyph-name="nine" unicode="9" horiz-adv-x="572" 
d="M450 331q-17 -115 -93 -192t-213 -109l8 -45q81 22 145.5 58t110 88t70 119.5t24.5 151.5q0 64 -17 117t-47.5 91t-73 58.5t-94.5 20.5q-49 0 -88.5 -17t-67 -46.5t-42 -69t-14.5 -85.5q0 -48 15 -86t41.5 -64.5t63.5 -40.5t82 -14q51 0 97 16.5t93 48.5zM455 381
q-43 -33 -92 -53t-98 -20q-77 0 -117.5 46.5t-40.5 118.5q0 38 11 70t32 55.5t51 36.5t69 13q40 0 73.5 -18t58.5 -50.5t39 -78.5t14 -102v-18z" />
    <glyph glyph-name="colon" unicode=":" horiz-adv-x="220" 
d="M140 390v80h-60v-80h60zM140 0v81h-60v-81h60z" />
    <glyph glyph-name="semicolon" unicode=";" horiz-adv-x="220" 
d="M146 390v80h-60v-80h60zM143 81h-61l-53 -208l25 -6z" />
    <glyph glyph-name="less" unicode="&#x3c;" horiz-adv-x="568" 
d="M489 94v47l-382 198l382 197v46l-431 -225v-38z" />
    <glyph glyph-name="equal" unicode="=" horiz-adv-x="615" 
d="M535 425v43h-455v-43h455zM535 208v43h-455v-43h455z" />
    <glyph glyph-name="greater" unicode="&#x3e;" horiz-adv-x="568" 
d="M510 319v38l-431 225v-47l383 -198l-383 -197v-46z" />
    <glyph glyph-name="question" unicode="?" horiz-adv-x="482" 
d="M424 539q0 38 -14 68.5t-39.5 51.5t-60 32.5t-75.5 11.5q-55 0 -103 -18.5t-83 -45.5l7 -46q40 32 84.5 49.5t92.5 17.5q66 0 104 -33t38 -90q0 -26 -7.5 -48.5t-25.5 -44t-49.5 -44t-79.5 -47.5l-17 -9l11 -166l32 7l10 139q40 23 72.5 45t55.5 47.5t35 55t12 67.5z
M253 0v81h-60v-81h60z" />
    <glyph glyph-name="at" unicode="@" horiz-adv-x="845" 
d="M499 198q-45 -56 -76.5 -81t-60.5 -25q-28 0 -46 25t-18 73q0 49 13.5 87.5t36 65.5t51.5 41.5t61 14.5q20 0 35.5 -4t32.5 -12zM495 148q3 -42 31 -68t78 -26q34 0 66 17t57 51t40 83t15 114q0 70 -20.5 126t-60 95.5t-97.5 61t-133 21.5q-87 0 -162.5 -32.5
t-130.5 -90.5t-86.5 -139.5t-31.5 -178.5q0 -156 83 -239t235 -83q65 0 123 13.5t99 34.5l-4 24q-43 -23 -98.5 -35t-115.5 -12q-136 0 -214.5 75t-78.5 223q0 93 29.5 169.5t80.5 131t120 84.5t149 30q140 0 213 -74.5t73 -205.5q0 -59 -12.5 -103t-32.5 -74t-46.5 -45
t-53.5 -15q-39 0 -55.5 21t-16.5 50q0 17 1 29t3 20l32 207q-23 11 -51.5 19.5t-58.5 8.5q-42 0 -79.5 -18t-66 -51t-45 -78.5t-16.5 -100.5q0 -63 28.5 -98t70.5 -35q38 0 70 24t70 69z" />
    <glyph glyph-name="A" unicode="A" horiz-adv-x="694" 
d="M647 4l-274 690h-52l-274 -694h50l91 236h316l95 -243zM488 279h-282l140 361z" />
    <glyph glyph-name="B" unicode="B" horiz-adv-x="549" 
d="M490 196q0 71 -38 112t-103 58q48 20 79 60t31 97q0 76 -52 121.5t-153 45.5h-154v-690h154q52 0 95 13t74.5 38t49 61.5t17.5 83.5zM410 521q0 -28 -10 -53.5t-29.5 -44.5t-49 -30t-68.5 -11h-105v265h104q78 0 118 -33t40 -93zM441 191q0 -69 -49.5 -108.5
t-133.5 -39.5h-110v298h106q42 0 76 -8.5t59 -27t38.5 -47t13.5 -67.5z" />
    <glyph glyph-name="C" unicode="C" horiz-adv-x="650" 
d="M585 58l-7 46q-42 -33 -92.5 -53.5t-107.5 -20.5q-60 0 -108.5 23.5t-83 65.5t-53 100t-18.5 127t18.5 126.5t53 99.5t84 65t110.5 23q51 0 96 -18t88 -49l9 50q-39 27 -87.5 43.5t-104.5 16.5q-70 0 -128.5 -26.5t-100.5 -74t-65 -113.5t-23 -145q0 -80 23 -145.5
t64 -112.5t97.5 -73t124.5 -26q64 0 118 20.5t93 50.5z" />
    <glyph glyph-name="D" unicode="D" horiz-adv-x="699" 
d="M634 346q0 78 -24.5 141.5t-70.5 108.5t-112 69.5t-149 24.5h-178v-690h175q79 0 145 23.5t113.5 68t74 109t26.5 145.5zM584 345q0 -75 -22 -131.5t-62 -94.5t-96 -57t-124 -19h-132v604h129q69 0 125.5 -19.5t97 -58t62.5 -95t22 -129.5z" />
    <glyph glyph-name="E" unicode="E" horiz-adv-x="505" 
d="M459 0v43h-311v297h248l-6 43h-242v264h301v43h-349v-690h359z" />
    <glyph glyph-name="F" unicode="F" horiz-adv-x="477" 
d="M435 647v43h-335v-690h48v329h240l-7 43h-233v275h287z" />
    <glyph glyph-name="G" unicode="G" horiz-adv-x="691" 
d="M602 59v291h-227l7 -43h172v-226q-38 -25 -79 -38t-93 -13q-62 0 -111.5 23t-84 64.5t-53 99.5t-18.5 128t18.5 128.5t52.5 99.5t81.5 64t106.5 23t106 -18.5t86 -50.5l9 52q-40 29 -90 44.5t-110 15.5q-68 0 -125 -26.5t-98 -74t-64 -113.5t-23 -145t22.5 -144.5
t63.5 -113t99 -73.5t130 -26q66 0 118.5 19t103.5 53z" />
    <glyph glyph-name="H" unicode="H" horiz-adv-x="707" 
d="M607 0v690h-48v-307h-411v307h-48v-690h48v340h411v-340h48z" />
    <glyph glyph-name="I" unicode="I" horiz-adv-x="264" 
d="M156 0v690h-48v-690h48z" />
    <glyph glyph-name="J" unicode="J" horiz-adv-x="359" 
d="M262 166v524h-48v-529q0 -62 -30.5 -93t-84.5 -31q-17 0 -35 2.5t-33 7.5l7 -46q12 -3 27.5 -5t32.5 -2q72 0 118 42.5t46 129.5z" />
    <glyph glyph-name="K" unicode="K" horiz-adv-x="603" 
d="M580 5l-376 364l356 321h-64l-348 -318v318h-48v-690h48v361l378 -368z" />
    <glyph glyph-name="L" unicode="L" horiz-adv-x="465" 
d="M435 0l-7 43h-280v647h-48v-690h335z" />
    <glyph glyph-name="M" unicode="M" horiz-adv-x="913" 
d="M828 0l-56 690h-58l-257 -631l-256 631h-59l-56 -690h46l47 621l257 -625h40l257 625l47 -621h48z" />
    <glyph glyph-name="N" unicode="N" horiz-adv-x="707" 
d="M607 0v690h-46v-600l-412 600h-49v-690h46v617l423 -617h38z" />
    <glyph glyph-name="O" unicode="O" horiz-adv-x="744" 
d="M679 346q0 78 -23 144t-63.5 113t-97 73.5t-122.5 26.5t-122.5 -26.5t-98 -74t-64.5 -113.5t-23 -145q0 -78 23 -144t63.5 -113t97 -73.5t122.5 -26.5t122.5 26.5t98 74t64.5 113.5t23 145zM629 344q0 -69 -18.5 -126.5t-52.5 -99.5t-81 -65t-104 -23t-104.5 23t-81.5 65
t-53 100t-19 128q0 69 18.5 126.5t52.5 99.5t81 65t104 23t104.5 -23t81.5 -65t53 -100t19 -128z" />
    <glyph glyph-name="P" unicode="P" horiz-adv-x="530" 
d="M480 500q0 91 -60 140.5t-160 49.5h-160v-690h48v300h96q50 0 93.5 13t75 38t49.5 62.5t18 86.5zM430 498q0 -78 -49 -116.5t-135 -38.5h-98v304h108q85 0 129.5 -37.5t44.5 -111.5z" />
    <glyph glyph-name="Q" unicode="Q" horiz-adv-x="747" 
d="M679 346q0 78 -23 144t-63.5 113t-97 73.5t-122.5 26.5t-122.5 -26.5t-98 -74t-64.5 -113.5t-23 -145q0 -72 16 -128t45.5 -98t71 -72t91.5 -50l355 -142l8 49l-232 90q58 9 106 38.5t82 75.5t52.5 107t18.5 132zM629 343q0 -70 -18.5 -128t-52 -99.5t-81 -64.5
t-104.5 -23t-104.5 23t-81.5 65t-53 100t-19 129q0 70 18.5 128.5t52 99.5t81 64t104.5 23t104.5 -23t81.5 -65t53 -100.5t19 -128.5z" />
    <glyph glyph-name="R" unicode="R" horiz-adv-x="564" 
d="M430 506q0 -72 -48.5 -109.5t-131.5 -37.5h-102v288h115q81 0 124 -36t43 -105zM304 322q37 6 69 21t56 38t37.5 54.5t13.5 72.5q0 87 -58.5 134.5t-155.5 47.5h-166v-690h48v317h103l235 -324l50 11l-17 23.5t-43 59t-56 77t-56 76.5t-43 58.5z" />
    <glyph glyph-name="S" unicode="S" horiz-adv-x="512" 
d="M454 178q0 37 -11 66.5t-33 53.5t-56 44t-80 40q-41 17 -69 33t-45 33.5t-25 38t-8 47.5q0 25 9.5 47.5t27.5 38.5t43.5 25.5t56.5 9.5q45 0 79.5 -11t64.5 -28l7 48q-26 15 -63.5 24.5t-85.5 9.5q-39 0 -73.5 -12t-60 -34t-40 -52.5t-14.5 -67.5q0 -36 9.5 -63.5
t31 -50.5t56 -43.5t84.5 -41.5q39 -17 67 -33.5t45 -35.5t25 -40.5t8 -48.5q0 -32 -12.5 -58t-33.5 -44t-50 -28t-62 -10q-54 0 -98.5 14.5t-73.5 32.5l-7 -49q29 -17 72.5 -29t103.5 -12q43 0 81 12.5t67 36.5t46 58.5t17 78.5z" />
    <glyph glyph-name="T" unicode="T" horiz-adv-x="566" 
d="M536 647l-6 43h-493v-43h226v-647h48v647h225z" />
    <glyph glyph-name="U" unicode="U" horiz-adv-x="674" 
d="M589 260v430h-48v-433q0 -51 -13.5 -92t-39.5 -70.5t-64 -45.5t-87 -16q-50 0 -88 17t-64 47t-39 72t-13 93v428h-48v-435q0 -58 17 -106.5t49 -84t78.5 -55t105.5 -19.5q60 0 107 19.5t79.5 55t50 85.5t17.5 110z" />
    <glyph glyph-name="V" unicode="V" horiz-adv-x="683" 
d="M636 690h-50l-245 -636l-247 643l-47 -11l271 -690h44z" />
    <glyph glyph-name="W" unicode="W" horiz-adv-x="1033" 
d="M979 690h-48l-183 -619l-206 619h-51l-202 -619l-186 626l-48 -11l209 -688h43l208 626l211 -626h44z" />
    <glyph glyph-name="X" unicode="X" horiz-adv-x="635" 
d="M290 361l-245 -361h52l220 327l225 -332l45 10l-244 355l224 330h-52l-198 -295l-205 299l-45 -10z" />
    <glyph glyph-name="Y" unicode="Y" horiz-adv-x="621" 
d="M580 690h-52l-217 -354l-222 361l-48 -10l245 -391v-296h48v297z" />
    <glyph glyph-name="Z" unicode="Z" horiz-adv-x="610" 
d="M549 0l-6 41h-419l420 617v32h-457l6 -41h392l-420 -617v-32h484z" />
    <glyph glyph-name="bracketleft" unicode="[" horiz-adv-x="405" 
d="M342 -106l-6 39h-185v718h187v39h-233v-796h237z" />
    <glyph glyph-name="backslash" unicode="\" horiz-adv-x="501" 
d="M535 -113l-472 808l-42 -9l472 -808z" />
    <glyph glyph-name="bracketright" unicode="]" horiz-adv-x="405" 
d="M300 -106v796h-237l7 -39h184v-718h-186v-39h232z" />
    <glyph glyph-name="asciicircum" unicode="^" 
d="M354 555l-103 146h-43l-109 -149h32l97 91l100 -93z" />
    <glyph glyph-name="underscore" unicode="_" horiz-adv-x="476" 
d="M473 -106v41h-470v-41h470z" />
    <glyph glyph-name="grave" unicode="`" 
d="M308 552l-104 155l-69 -15l138 -140h35z" />
    <glyph glyph-name="a" unicode="a" horiz-adv-x="481" 
d="M404 0v340q0 68 -38 103.5t-110 35.5q-47 0 -88 -11.5t-81 -29.5l6 -44q39 20 79.5 31t81.5 11q49 0 76.5 -24t27.5 -74v-41q-85 -8 -143.5 -22.5t-94.5 -37t-52 -53t-16 -69.5q0 -32 11 -55.5t30.5 -39t45 -23t55.5 -7.5q45 0 87 20.5t79 52.5l11 -63h33zM358 106
q-38 -34 -81 -54.5t-81 -20.5q-40 0 -68 21.5t-28 66.5q0 29 13 51.5t43 39t79.5 28.5t122.5 20v-152z" />
    <glyph glyph-name="b" unicode="b" horiz-adv-x="524" 
d="M470 248q0 59 -15.5 103t-41.5 72.5t-61 42.5t-74 14q-50 0 -85.5 -23t-62.5 -54v312l-47 -10v-679q34 -14 74.5 -23t86.5 -9q47 0 88 15.5t72 47t48.5 79.5t17.5 112zM421 246q0 -54 -13.5 -94t-37 -66t-54.5 -38.5t-66 -12.5q-38 0 -67.5 6.5t-52.5 15.5v294
q35 40 70 63t77 23q63 0 103.5 -48.5t40.5 -142.5z" />
    <glyph glyph-name="c" unicode="c" horiz-adv-x="464" 
d="M417 47l-6 44q-37 -32 -73 -46t-74 -14q-40 0 -70.5 15.5t-51 42.5t-31 64.5t-10.5 81.5q0 45 11 82.5t31 64.5t49.5 42t67.5 15q41 0 75.5 -14.5t69.5 -44.5l9 48q-31 23 -69 37.5t-83 14.5q-44 0 -82 -16.5t-66.5 -47.5t-45 -77t-16.5 -104t16 -103.5t44 -77t66 -48
t81 -16.5q48 0 87 15t71 42z" />
    <glyph glyph-name="d" unicode="d" horiz-adv-x="526" 
d="M443 0v715l-47 -10v-253q-28 12 -59 18.5t-67 6.5q-43 0 -82 -16t-69 -47.5t-47.5 -79.5t-17.5 -112q0 -59 15.5 -103t42 -72.5t61.5 -42.5t74 -14q51 0 86.5 23.5t63.5 55.5l12 -69h34zM396 119q-35 -39 -70 -62.5t-78 -23.5q-63 0 -104 49t-41 142q0 54 13 94t36 66.5
t53.5 39t65.5 12.5t66 -8t59 -22v-287z" />
    <glyph glyph-name="e" unicode="e" horiz-adv-x="484" 
d="M432 245q0 49 -11.5 91.5t-34 74.5t-56 50.5t-78.5 18.5q-43 0 -79.5 -17t-63.5 -49t-42 -77.5t-15 -101.5q0 -57 15 -102.5t42 -77t65 -48.5t85 -17q51 0 95.5 20t76.5 49l-7 44q-35 -32 -77.5 -52t-85.5 -20q-39 0 -69.5 15t-50.5 42t-30.5 64.5t-10.5 82.5h332v10z
M382 274h-280q8 74 45.5 120.5t104.5 46.5q31 0 54.5 -13t40 -36t25.5 -53.5t10 -64.5z" />
    <glyph glyph-name="f" unicode="f" horiz-adv-x="288" 
d="M269 670l-7 45q-7 1 -14 1h-17q-59 0 -90 -31t-31 -92v-123h-73v-40h73v-430h46v430h106l-7 40h-99v121q0 44 20.5 63t56.5 19q14 0 21.5 -0.5t14.5 -2.5z" />
    <glyph glyph-name="g" unicode="g" horiz-adv-x="501" 
d="M185 55q13 -3 26 -5.5t30 -6.5l36 -7q73 -14 103 -32t30 -50q0 -20 -12.5 -37t-34.5 -30t-53 -20t-68 -7q-35 0 -65 5.5t-52.5 16t-35.5 27t-13 37.5q0 63 109 109zM357 322q0 -52 -33 -86.5t-91 -34.5q-29 0 -51.5 9.5t-38.5 26t-24.5 38.5t-8.5 47q0 53 32.5 87
t88.5 34q28 0 51.5 -9.5t40 -26t25.5 -38.5t9 -47zM348 440q-48 40 -117 40q-33 0 -63.5 -11t-54 -31.5t-37.5 -49.5t-14 -66q0 -49 24 -84.5t63 -54.5q-23 -14 -35 -28t-12 -33q0 -28 40 -50q-57 -26 -85.5 -59.5t-28.5 -68.5q0 -30 16 -52.5t44 -38t66.5 -23.5t83.5 -8
t85 9.5t70 27.5t47 43.5t17 57.5q0 50 -40 75.5t-121 41.5l-36 7q-33 6 -54.5 11.5t-34 10.5t-17 11t-4.5 14q0 9 9 18t29 20q23 -5 45 -5q34 0 65 11t54.5 31.5t37.5 49.5t14 66q0 54 -31 93l100 11l-9 52z" />
    <glyph glyph-name="h" unicode="h" horiz-adv-x="520" 
d="M443 0v333q0 70 -35 108.5t-108 38.5q-47 0 -87 -21.5t-83 -58.5v315l-47 -10v-705h47v352q45 42 85.5 63.5t79.5 21.5q51 0 76 -28t25 -82v-327h47z" />
    <glyph glyph-name="i" unicode="i" horiz-adv-x="225" 
d="M153 638q0 17 -11.5 28.5t-28.5 11.5t-29 -11.5t-12 -28.5q0 -16 12 -28.5t29 -12.5t28.5 12.5t11.5 28.5zM136 0v470h-46v-470h46z" />
    <glyph glyph-name="j" unicode="j" horiz-adv-x="225" 
d="M153 638q0 17 -11.5 28.5t-28.5 11.5t-29 -11.5t-12 -28.5q0 -16 12 -28.5t29 -12.5t28.5 12.5t11.5 28.5zM136 -83v553h-46v-548q0 -32 -14 -45t-39 -13q-10 0 -17.5 0.5t-18.5 2.5l7 -43q7 -1 17.5 -1.5t18.5 -0.5q38 0 65 22t27 73z" />
    <glyph glyph-name="k" unicode="k" horiz-adv-x="454" 
d="M435 5l-252 254l236 211h-64l-225 -206v451l-47 -10v-705h47v252l254 -259z" />
    <glyph glyph-name="l" unicode="l" horiz-adv-x="226" 
d="M136 0v715l-46 -10v-705h46z" />
    <glyph glyph-name="m" unicode="m" horiz-adv-x="822" 
d="M745 0v333q0 70 -33.5 108.5t-106.5 38.5q-48 0 -89.5 -23t-86.5 -62q-12 42 -44 63.5t-88 21.5q-46 0 -86 -21t-82 -57l-12 68h-34v-470h47v355q44 40 84 61t78 21q51 0 75 -28t24 -82v-327h46v354q45 41 84.5 62t77.5 21q51 0 75 -28t24 -82v-327h47z" />
    <glyph glyph-name="n" unicode="n" horiz-adv-x="520" 
d="M443 0v331q0 71 -35 110t-108 39q-47 0 -87.5 -21.5t-83.5 -59.5l-12 71h-34v-470h47v352q45 42 85.5 63.5t79.5 21.5q51 0 76 -28t25 -82v-327h47z" />
    <glyph glyph-name="o" unicode="o" horiz-adv-x="519" 
d="M467 235q0 58 -16 104t-44 77t-66 47.5t-82 16.5q-43 0 -80.5 -16.5t-65.5 -47.5t-44.5 -77t-16.5 -104t16 -103.5t43.5 -77t65.5 -48t82 -16.5q43 0 81 16.5t66 48t44.5 77t16.5 103.5zM418 235q0 -46 -10.5 -83.5t-31 -64.5t-50 -41.5t-67.5 -14.5t-67.5 15.5
t-49.5 42.5t-30.5 64.5t-10.5 81.5q0 45 10.5 82.5t30.5 64.5t49.5 42t67.5 15t67.5 -15.5t50 -42.5t31 -64.5t10.5 -81.5z" />
    <glyph glyph-name="p" unicode="p" horiz-adv-x="526" 
d="M472 248q0 59 -15.5 103t-42 72.5t-61.5 42.5t-74 14q-51 0 -86 -23t-64 -55l-12 68h-34v-651l47 10v189q28 -11 59.5 -17.5t66.5 -6.5q43 0 82 15.5t69 47t47.5 79.5t17.5 112zM423 246q0 -54 -13 -93.5t-35.5 -66t-53.5 -39t-66 -12.5t-66 7.5t-59 21.5v287
q35 40 70 63t78 23q63 0 104 -48.5t41 -142.5z" />
    <glyph glyph-name="q" unicode="q" horiz-adv-x="524" 
d="M441 -171v616q-34 13 -74.5 22.5t-86.5 9.5q-47 0 -88 -16t-71.5 -47.5t-48.5 -79.5t-18 -112q0 -59 15.5 -103t42 -72.5t61 -42.5t73.5 -14q50 0 86 23.5t62 54.5v-249zM394 119q-35 -39 -70 -62.5t-77 -23.5q-31 0 -57.5 12.5t-45.5 37t-30 60t-11 81.5q0 55 13.5 95
t36.5 66t54.5 38.5t66.5 12.5q38 0 67.5 -7t52.5 -15v-295z" />
    <glyph glyph-name="r" unicode="r" horiz-adv-x="332" 
d="M306 436l-8 44q-29 0 -54 -9.5t-46 -25t-38.5 -34.5t-30.5 -39l-15 98h-31v-470h47v309q12 24 30 46t41 39.5t49.5 28.5t55.5 13z" />
    <glyph glyph-name="s" unicode="s" horiz-adv-x="434" 
d="M382 124q0 59 -41 91t-121 54q-63 17 -87.5 36.5t-24.5 52.5q0 32 25.5 55t81.5 23q66 0 132 -34l8 45q-29 14 -63.5 23t-74.5 9q-35 0 -63.5 -9.5t-49 -26t-31.5 -39t-11 -49.5q0 -54 34.5 -83.5t109.5 -49.5q38 -11 63 -21t40 -22t21 -26.5t6 -32.5q0 -42 -31.5 -64
t-84.5 -22q-47 0 -88.5 13.5t-74.5 32.5l-9 -46q32 -17 75.5 -29.5t91.5 -12.5q74 0 120.5 34t46.5 98z" />
    <glyph glyph-name="t" unicode="t" horiz-adv-x="324" 
d="M280 2l-7 38q-8 -2 -22 -4.5t-25 -2.5q-39 0 -56.5 16t-17.5 58v323h121l-6 40h-115v177l-47 -10v-167h-73v-40h73v-331q0 -59 30.5 -83t80.5 -24q20 0 37.5 3t26.5 7z" />
    <glyph glyph-name="u" unicode="u" horiz-adv-x="520" 
d="M437 0v470h-47v-352q-45 -42 -85.5 -63.5t-79.5 -21.5q-51 0 -76 28t-25 82v327h-47v-331q0 -71 35 -110t108 -39q47 0 87.5 21.5t83.5 59.5l12 -71h34z" />
    <glyph glyph-name="v" unicode="v" horiz-adv-x="468" 
d="M433 470h-49l-150 -418l-152 423l-47 -10l176 -470h43z" />
    <glyph glyph-name="w" unicode="w" horiz-adv-x="736" 
d="M701 470h-48l-131 -418l-129 421h-43l-129 -421l-136 426l-46 -10l160 -473h43l128 410l128 -410h43z" />
    <glyph glyph-name="x" unicode="x" horiz-adv-x="468" 
d="M428 4l-168 240l160 226h-52l-134 -192l-137 200l-47 -12l158 -224l-168 -242h52l141 208l149 -215z" />
    <glyph glyph-name="y" unicode="y" horiz-adv-x="477" 
d="M442 470h-49l-151 -417l-160 422l-46 -10l183 -468l-25 -64q-15 -39 -33.5 -54t-49.5 -15q-11 0 -18 0.5t-12 0.5l7 -41q5 -1 10.5 -1.5t11.5 -0.5q48 0 76 23.5t50 82.5z" />
    <glyph glyph-name="z" unicode="z" horiz-adv-x="447" 
d="M399 0l-6 39h-292l294 396v35h-331l6 -39h270l-294 -395v-36h353z" />
    <glyph glyph-name="braceleft" unicode="{" horiz-adv-x="463" 
d="M400 -106l-7 39h-76q-52 0 -73.5 23.5t-21.5 66.5q0 31 6.5 68.5t6.5 70.5q0 62 -28 90t-73 39v2q45 10 73 38t28 90q0 33 -6.5 70t-6.5 68q0 43 22.5 67.5t73.5 24.5h77v39h-75q-74 0 -108.5 -34t-34.5 -98q0 -35 6 -68.5t6 -69.5q0 -63 -31.5 -86.5t-80.5 -23.5h-30
l5 -37h25q48 0 80 -24t32 -86q0 -37 -6 -70.5t-6 -68.5q0 -64 34.5 -97t108.5 -33h80z" />
    <glyph glyph-name="bar" unicode="|" horiz-adv-x="268" 
d="M155 -184v907l-42 -7v-907z" />
    <glyph glyph-name="braceright" unicode="}" horiz-adv-x="463" 
d="M416 274l-5 37h-25q-48 0 -80 24t-32 86q0 36 6 70t6 69q0 64 -34.5 97t-108.5 33h-80l7 -39h76q52 0 73.5 -23.5t21.5 -66.5q0 -31 -6.5 -68.5t-6.5 -70.5q0 -62 28 -90.5t73 -38.5v-2q-45 -10 -73 -38t-28 -90q0 -33 6.5 -70t6.5 -68q0 -43 -22.5 -67.5t-73.5 -24.5
h-77v-39h75q74 0 108.5 34t34.5 98q0 35 -6 68t-6 70q0 63 31.5 86.5t80.5 23.5h30z" />
    <glyph glyph-name="asciitilde" unicode="~" horiz-adv-x="408" 
d="M347 321l-34 7q-14 -54 -39 -54q-12 0 -25.5 6.5t-37.5 19.5q-26 14 -42 21t-37 7q-26 0 -44.5 -24t-26.5 -70l34 -7q13 54 39 54q12 0 25.5 -6t37.5 -20q26 -14 42 -20.5t37 -6.5q26 0 44.5 24t26.5 69z" />
    <glyph glyph-name="Adieresis" unicode="&#xc4;" horiz-adv-x="694" 
d="M647 4l-274 690h-52l-274 -694h50l91 236h316l95 -243zM488 279h-282l140 361zM466 753v79h-70v-79h70zM299 753v79h-69v-79h69z" />
    <glyph glyph-name="Aring" unicode="&#xc5;" horiz-adv-x="694" 
d="M647 4l-274 690h-52l-274 -694h50l91 236h316l95 -243zM488 279h-282l140 361zM441 834q0 39 -26.5 66.5t-66.5 27.5t-67 -27.5t-27 -66.5q0 -40 27 -66t67 -26t66.5 26t26.5 66zM407 834q0 -27 -16.5 -44.5t-42.5 -17.5t-43 17.5t-17 44.5t17 45t43 18t42.5 -18
t16.5 -45z" />
    <glyph glyph-name="Ccedilla" unicode="&#xc7;" horiz-adv-x="650" 
d="M585 58l-7 46q-42 -33 -92.5 -53.5t-107.5 -20.5q-60 0 -108.5 23.5t-83 65.5t-53 100t-18.5 127t18.5 126.5t53 99.5t84 65t110.5 23q51 0 96 -18t88 -49l9 50q-39 27 -87.5 43.5t-104.5 16.5q-70 0 -128.5 -26.5t-100.5 -74t-65 -113.5t-23 -145q0 -80 23 -145.5
t64 -112.5t97.5 -73t124.5 -26q64 0 118 20.5t93 50.5zM410 -67l-65 16l-90 -135h34z" />
    <glyph glyph-name="Eacute" unicode="&#xc9;" horiz-adv-x="505" 
d="M459 0v43h-311v297h248l-6 43h-242v264h301v43h-349v-690h359zM400 885l-68 15l-106 -155h36z" />
    <glyph glyph-name="Ntilde" unicode="&#xd1;" horiz-adv-x="707" 
d="M607 0v690h-46v-600l-412 600h-49v-690h46v617l423 -617h38zM499 838l-33 7q-15 -54 -40 -54q-12 0 -25 6.5t-37 19.5q-27 14 -41.5 21t-36.5 7q-26 0 -45 -25t-27 -71l34 -7q13 55 39 55q13 0 25.5 -7t36.5 -20q27 -14 42 -20.5t36 -6.5q26 0 45 25t27 70z" />
    <glyph glyph-name="Odieresis" unicode="&#xd6;" horiz-adv-x="744" 
d="M679 346q0 78 -23 144t-63.5 113t-97 73.5t-122.5 26.5t-122.5 -26.5t-98 -74t-64.5 -113.5t-23 -145q0 -78 23 -144t63.5 -113t97 -73.5t122.5 -26.5t122.5 26.5t98 74t64.5 113.5t23 145zM629 344q0 -69 -18.5 -126.5t-52.5 -99.5t-81 -65t-104 -23t-104.5 23t-81.5 65
t-53 100t-19 128q0 69 18.5 126.5t52.5 99.5t81 65t104 23t104.5 -23t81.5 -65t53 -100t19 -128zM488 762v79h-70v-79h70zM321 762v79h-69v-79h69z" />
    <glyph glyph-name="Udieresis" unicode="&#xdc;" horiz-adv-x="674" 
d="M589 260v430h-48v-433q0 -51 -13.5 -92t-39.5 -70.5t-64 -45.5t-87 -16q-50 0 -88 17t-64 47t-39 72t-13 93v428h-48v-435q0 -58 17 -106.5t49 -84t78.5 -55t105.5 -19.5q60 0 107 19.5t79.5 55t50 85.5t17.5 110zM455 744v79h-70v-79h70zM288 744v79h-69v-79h69z" />
    <glyph glyph-name="aacute" unicode="&#xe1;" horiz-adv-x="481" 
d="M404 0v340q0 68 -38 103.5t-110 35.5q-47 0 -88 -11.5t-81 -29.5l6 -44q39 20 79.5 31t81.5 11q49 0 76.5 -24t27.5 -74v-41q-85 -8 -143.5 -22.5t-94.5 -37t-52 -53t-16 -69.5q0 -32 11 -55.5t30.5 -39t45 -23t55.5 -7.5q45 0 87 20.5t79 52.5l11 -63h33zM358 106
q-38 -34 -81 -54.5t-81 -20.5q-40 0 -68 21.5t-28 66.5q0 29 13 51.5t43 39t79.5 28.5t122.5 20v-152zM382 692l-68 15l-106 -155h36z" />
    <glyph glyph-name="agrave" unicode="&#xe0;" horiz-adv-x="481" 
d="M404 0v340q0 68 -38 103.5t-110 35.5q-47 0 -88 -11.5t-81 -29.5l6 -44q39 20 79.5 31t81.5 11q49 0 76.5 -24t27.5 -74v-41q-85 -8 -143.5 -22.5t-94.5 -37t-52 -53t-16 -69.5q0 -32 11 -55.5t30.5 -39t45 -23t55.5 -7.5q45 0 87 20.5t79 52.5l11 -63h33zM358 106
q-38 -34 -81 -54.5t-81 -20.5q-40 0 -68 21.5t-28 66.5q0 29 13 51.5t43 39t79.5 28.5t122.5 20v-152zM271 552l-104 155l-69 -15l138 -140h35z" />
    <glyph glyph-name="acircumflex" unicode="&#xe2;" horiz-adv-x="481" 
d="M404 0v340q0 68 -38 103.5t-110 35.5q-47 0 -88 -11.5t-81 -29.5l6 -44q39 20 79.5 31t81.5 11q49 0 76.5 -24t27.5 -74v-41q-85 -8 -143.5 -22.5t-94.5 -37t-52 -53t-16 -69.5q0 -32 11 -55.5t30.5 -39t45 -23t55.5 -7.5q45 0 87 20.5t79 52.5l11 -63h33zM358 106
q-38 -34 -81 -54.5t-81 -20.5q-40 0 -68 21.5t-28 66.5q0 29 13 51.5t43 39t79.5 28.5t122.5 20v-152zM370 555l-103 146h-43l-109 -149h32l97 93l100 -95z" />
    <glyph glyph-name="adieresis" unicode="&#xe4;" horiz-adv-x="481" 
d="M404 0v340q0 68 -38 103.5t-110 35.5q-47 0 -88 -11.5t-81 -29.5l6 -44q39 20 79.5 31t81.5 11q49 0 76.5 -24t27.5 -74v-41q-85 -8 -143.5 -22.5t-94.5 -37t-52 -53t-16 -69.5q0 -32 11 -55.5t30.5 -39t45 -23t55.5 -7.5q45 0 87 20.5t79 52.5l11 -63h33zM358 106
q-38 -34 -81 -54.5t-81 -20.5q-40 0 -68 21.5t-28 66.5q0 29 13 51.5t43 39t79.5 28.5t122.5 20v-152zM363 561v79h-70v-79h70zM196 561v79h-69v-79h69z" />
    <glyph glyph-name="atilde" unicode="&#xe3;" horiz-adv-x="481" 
d="M404 0v340q0 68 -38 103.5t-110 35.5q-47 0 -88 -11.5t-81 -29.5l6 -44q39 20 79.5 31t81.5 11q49 0 76.5 -24t27.5 -74v-41q-85 -8 -143.5 -22.5t-94.5 -37t-52 -53t-16 -69.5q0 -32 11 -55.5t30.5 -39t45 -23t55.5 -7.5q45 0 87 20.5t79 52.5l11 -63h33zM358 106
q-38 -34 -81 -54.5t-81 -20.5q-40 0 -68 21.5t-28 66.5q0 29 13 51.5t43 39t79.5 28.5t122.5 20v-152zM387 655l-33 7q-15 -54 -40 -54q-12 0 -25 6.5t-37 19.5q-27 14 -41.5 21t-36.5 7q-26 0 -45 -25t-27 -71l34 -7q13 55 39 55q13 0 25.5 -7t36.5 -20q27 -14 42 -20.5
t36 -6.5q26 0 45 25t27 70z" />
    <glyph glyph-name="aring" unicode="&#xe5;" horiz-adv-x="481" 
d="M404 0v340q0 68 -38 103.5t-110 35.5q-47 0 -88 -11.5t-81 -29.5l6 -44q39 20 79.5 31t81.5 11q49 0 76.5 -24t27.5 -74v-41q-85 -8 -143.5 -22.5t-94.5 -37t-52 -53t-16 -69.5q0 -32 11 -55.5t30.5 -39t45 -23t55.5 -7.5q45 0 87 20.5t79 52.5l11 -63h33zM358 106
q-38 -34 -81 -54.5t-81 -20.5q-40 0 -68 21.5t-28 66.5q0 29 13 51.5t43 39t79.5 28.5t122.5 20v-152zM338 642q0 39 -26.5 66.5t-66.5 27.5t-67 -27.5t-27 -66.5q0 -40 27 -66t67 -26t66.5 26t26.5 66zM304 642q0 -27 -16.5 -44.5t-42.5 -17.5t-43 17.5t-17 44.5t17 45
t43 18t42.5 -18t16.5 -45z" />
    <glyph glyph-name="ccedilla" unicode="&#xe7;" horiz-adv-x="464" 
d="M417 47l-6 44q-37 -32 -73 -46t-74 -14q-40 0 -70.5 15.5t-51 42.5t-31 64.5t-10.5 81.5q0 45 11 82.5t31 64.5t49.5 42t67.5 15q41 0 75.5 -14.5t69.5 -44.5l9 48q-31 23 -69 37.5t-83 14.5q-44 0 -82 -16.5t-66.5 -47.5t-45 -77t-16.5 -104t16 -103.5t44 -77t66 -48
t81 -16.5q48 0 87 15t71 42zM308 -67l-65 16l-90 -135h34z" />
    <glyph glyph-name="eacute" unicode="&#xe9;" horiz-adv-x="484" 
d="M432 245q0 49 -11.5 91.5t-34 74.5t-56 50.5t-78.5 18.5q-43 0 -79.5 -17t-63.5 -49t-42 -77.5t-15 -101.5q0 -57 15 -102.5t42 -77t65 -48.5t85 -17q51 0 95.5 20t76.5 49l-7 44q-35 -32 -77.5 -52t-85.5 -20q-39 0 -69.5 15t-50.5 42t-30.5 64.5t-10.5 82.5h332v10z
M382 274h-280q8 74 45.5 120.5t104.5 46.5q31 0 54.5 -13t40 -36t25.5 -53.5t10 -64.5zM388 692l-68 15l-106 -155h36z" />
    <glyph glyph-name="egrave" unicode="&#xe8;" horiz-adv-x="484" 
d="M432 245q0 49 -11.5 91.5t-34 74.5t-56 50.5t-78.5 18.5q-43 0 -79.5 -17t-63.5 -49t-42 -77.5t-15 -101.5q0 -57 15 -102.5t42 -77t65 -48.5t85 -17q51 0 95.5 20t76.5 49l-7 44q-35 -32 -77.5 -52t-85.5 -20q-39 0 -69.5 15t-50.5 42t-30.5 64.5t-10.5 82.5h332v10z
M382 274h-280q8 74 45.5 120.5t104.5 46.5q31 0 54.5 -13t40 -36t25.5 -53.5t10 -64.5zM276 552l-104 155l-69 -15l138 -140h35z" />
    <glyph glyph-name="ecircumflex" unicode="&#xea;" horiz-adv-x="484" 
d="M432 245q0 49 -11.5 91.5t-34 74.5t-56 50.5t-78.5 18.5q-43 0 -79.5 -17t-63.5 -49t-42 -77.5t-15 -101.5q0 -57 15 -102.5t42 -77t65 -48.5t85 -17q51 0 95.5 20t76.5 49l-7 44q-35 -32 -77.5 -52t-85.5 -20q-39 0 -69.5 15t-50.5 42t-30.5 64.5t-10.5 82.5h332v10z
M382 274h-280q8 74 45.5 120.5t104.5 46.5q31 0 54.5 -13t40 -36t25.5 -53.5t10 -64.5zM377 555l-103 146h-43l-109 -149h32l97 93l100 -95z" />
    <glyph glyph-name="edieresis" unicode="&#xeb;" horiz-adv-x="484" 
d="M432 245q0 49 -11.5 91.5t-34 74.5t-56 50.5t-78.5 18.5q-43 0 -79.5 -17t-63.5 -49t-42 -77.5t-15 -101.5q0 -57 15 -102.5t42 -77t65 -48.5t85 -17q51 0 95.5 20t76.5 49l-7 44q-35 -32 -77.5 -52t-85.5 -20q-39 0 -69.5 15t-50.5 42t-30.5 64.5t-10.5 82.5h332v10z
M382 274h-280q8 74 45.5 120.5t104.5 46.5q31 0 54.5 -13t40 -36t25.5 -53.5t10 -64.5zM370 561v79h-70v-79h70zM203 561v79h-69v-79h69z" />
    <glyph glyph-name="iacute" unicode="&#xed;" horiz-adv-x="225" 
d="M241 692l-58 15l-90 -155h30zM136 0v470h-46v-470h46z" />
    <glyph glyph-name="igrave" unicode="&#xec;" horiz-adv-x="225" 
d="M132 552l-88 155l-59 -15l118 -140h29zM136 0v470h-46v-470h46z" />
    <glyph glyph-name="icircumflex" unicode="&#xee;" horiz-adv-x="225" 
d="M226 555l-92 146h-39l-98 -149h29l87 91l90 -93zM136 0v470h-46v-470h46z" />
    <glyph glyph-name="idieresis" unicode="&#xef;" horiz-adv-x="225" 
d="M222 561v79h-67v-79h67zM72 561v79h-66v-79h66zM136 0v470h-46v-470h46z" />
    <glyph glyph-name="ntilde" unicode="&#xf1;" horiz-adv-x="520" 
d="M443 0v331q0 71 -35 110t-108 39q-47 0 -87.5 -21.5t-83.5 -59.5l-12 71h-34v-470h47v352q45 42 85.5 63.5t79.5 21.5q51 0 76 -28t25 -82v-327h47zM409 655l-33 7q-15 -54 -40 -54q-12 0 -25 6.5t-37 19.5q-27 14 -41.5 21t-36.5 7q-26 0 -45 -25t-27 -71l34 -7
q13 55 39 55q13 0 25.5 -7t36.5 -20q27 -14 42 -20.5t36 -6.5q26 0 45 25t27 70z" />
    <glyph glyph-name="oacute" unicode="&#xf3;" horiz-adv-x="519" 
d="M412 692l-68 15l-106 -155h36zM467 235q0 58 -16 104t-44 77t-66 47.5t-82 16.5q-43 0 -80.5 -16.5t-65.5 -47.5t-44.5 -77t-16.5 -104t16 -103.5t43.5 -77t65.5 -48t82 -16.5q43 0 81 16.5t66 48t44.5 77t16.5 103.5zM418 235q0 -46 -10.5 -83.5t-31 -64.5t-50 -41.5
t-67.5 -14.5t-67.5 15.5t-49.5 42.5t-30.5 64.5t-10.5 81.5q0 45 10.5 82.5t30.5 64.5t49.5 42t67.5 15t67.5 -15.5t50 -42.5t31 -64.5t10.5 -81.5z" />
    <glyph glyph-name="ograve" unicode="&#xf2;" horiz-adv-x="519" 
d="M467 235q0 58 -16 104t-44 77t-66 47.5t-82 16.5q-43 0 -80.5 -16.5t-65.5 -47.5t-44.5 -77t-16.5 -104t16 -103.5t43.5 -77t65.5 -48t82 -16.5q43 0 81 16.5t66 48t44.5 77t16.5 103.5zM418 235q0 -46 -10.5 -83.5t-31 -64.5t-50 -41.5t-67.5 -14.5t-67.5 15.5
t-49.5 42.5t-30.5 64.5t-10.5 81.5q0 45 10.5 82.5t30.5 64.5t49.5 42t67.5 15t67.5 -15.5t50 -42.5t31 -64.5t10.5 -81.5zM281 552l-104 155l-69 -15l138 -140h35z" />
    <glyph glyph-name="ocircumflex" unicode="&#xf4;" horiz-adv-x="519" 
d="M467 235q0 58 -16 104t-44 77t-66 47.5t-82 16.5q-43 0 -80.5 -16.5t-65.5 -47.5t-44.5 -77t-16.5 -104t16 -103.5t43.5 -77t65.5 -48t82 -16.5q43 0 81 16.5t66 48t44.5 77t16.5 103.5zM418 235q0 -46 -10.5 -83.5t-31 -64.5t-50 -41.5t-67.5 -14.5t-67.5 15.5
t-49.5 42.5t-30.5 64.5t-10.5 81.5q0 45 10.5 82.5t30.5 64.5t49.5 42t67.5 15t67.5 -15.5t50 -42.5t31 -64.5t10.5 -81.5zM385 555l-103 146h-43l-109 -149h32l97 93l100 -95z" />
    <glyph glyph-name="odieresis" unicode="&#xf6;" horiz-adv-x="519" 
d="M467 235q0 58 -16 104t-44 77t-66 47.5t-82 16.5q-43 0 -80.5 -16.5t-65.5 -47.5t-44.5 -77t-16.5 -104t16 -103.5t43.5 -77t65.5 -48t82 -16.5q43 0 81 16.5t66 48t44.5 77t16.5 103.5zM418 235q0 -46 -10.5 -83.5t-31 -64.5t-50 -41.5t-67.5 -14.5t-67.5 15.5
t-49.5 42.5t-30.5 64.5t-10.5 81.5q0 45 10.5 82.5t30.5 64.5t49.5 42t67.5 15t67.5 -15.5t50 -42.5t31 -64.5t10.5 -81.5zM378 561v79h-70v-79h70zM211 561v79h-69v-79h69z" />
    <glyph glyph-name="otilde" unicode="&#xf5;" horiz-adv-x="519" 
d="M467 235q0 58 -16 104t-44 77t-66 47.5t-82 16.5q-43 0 -80.5 -16.5t-65.5 -47.5t-44.5 -77t-16.5 -104t16 -103.5t43.5 -77t65.5 -48t82 -16.5q43 0 81 16.5t66 48t44.5 77t16.5 103.5zM418 235q0 -46 -10.5 -83.5t-31 -64.5t-50 -41.5t-67.5 -14.5t-67.5 15.5
t-49.5 42.5t-30.5 64.5t-10.5 81.5q0 45 10.5 82.5t30.5 64.5t49.5 42t67.5 15t67.5 -15.5t50 -42.5t31 -64.5t10.5 -81.5zM404 655l-33 7q-15 -54 -40 -54q-12 0 -25 6.5t-37 19.5q-27 14 -41.5 21t-36.5 7q-26 0 -45 -25t-27 -71l34 -7q13 55 39 55q13 0 25.5 -7t36.5 -20
q27 -14 42 -20.5t36 -6.5q26 0 45 25t27 70z" />
    <glyph glyph-name="uacute" unicode="&#xfa;" horiz-adv-x="520" 
d="M437 0v470h-47v-352q-45 -42 -85.5 -63.5t-79.5 -21.5q-51 0 -76 28t-25 82v327h-47v-331q0 -71 35 -110t108 -39q47 0 87.5 21.5t83.5 59.5l12 -71h34zM402 692l-68 15l-106 -155h36z" />
    <glyph glyph-name="ugrave" unicode="&#xf9;" horiz-adv-x="520" 
d="M437 0v470h-47v-352q-45 -42 -85.5 -63.5t-79.5 -21.5q-51 0 -76 28t-25 82v327h-47v-331q0 -71 35 -110t108 -39q47 0 87.5 21.5t83.5 59.5l12 -71h34zM285 552l-104 155l-69 -15l138 -140h35z" />
    <glyph glyph-name="ucircumflex" unicode="&#xfb;" horiz-adv-x="520" 
d="M437 0v470h-47v-352q-45 -42 -85.5 -63.5t-79.5 -21.5q-51 0 -76 28t-25 82v327h-47v-331q0 -71 35 -110t108 -39q47 0 87.5 21.5t83.5 59.5l12 -71h34zM384 555l-103 146h-43l-109 -149h32l97 93l100 -95z" />
    <glyph glyph-name="udieresis" unicode="&#xfc;" horiz-adv-x="520" 
d="M437 0v470h-47v-352q-45 -42 -85.5 -63.5t-79.5 -21.5q-51 0 -76 28t-25 82v327h-47v-331q0 -71 35 -110t108 -39q47 0 87.5 21.5t83.5 59.5l12 -71h34zM377 561v79h-70v-79h70zM210 561v79h-69v-79h69z" />
    <glyph glyph-name="dagger" unicode="&#x2020;" horiz-adv-x="498" 
d="M269 577v113h-40v-113l13 -97h13zM442 427v41h-58l-101 -15v-11l101 -15h58zM215 442v11l-102 15h-57v-41h57zM268 -15v341l-13 89h-13l-12 -89v-341l14 -102h9z" />
    <glyph glyph-name="degree" unicode="&#xb0;" horiz-adv-x="428" 
d="M366 530q0 32 -11.5 59.5t-32 48t-48.5 32t-60 11.5t-59.5 -11.5t-48 -32t-32.5 -48t-12 -59.5q0 -33 12 -60.5t32.5 -48t48 -32t59.5 -11.5t60 11.5t48.5 32t32 48t11.5 60.5zM325 530q0 -49 -30 -83.5t-80 -34.5q-24 0 -44.5 9.5t-35.5 25.5t-23.5 37.5t-8.5 45.5
t8 45.5t22.5 37t35 25t44.5 9.5q25 0 45.5 -9.5t35.5 -25t23 -37t8 -45.5z" />
    <glyph glyph-name="cent" unicode="&#xa2;" horiz-adv-x="495" 
d="M248 98q6 -1 12 -1h12q46 0 86.5 14.5t72.5 37.5l-6 39q-37 -26 -74 -40t-75 -14h-12q-5 0 -11 1l64 402q26 -5 51 -17t51 -31l9 41q-44 33 -106 44l17 103l-35 8l-17 -108h-3q-47 0 -87 -17.5t-69.5 -49t-46.5 -76t-17 -98.5q0 -46 11.5 -84t32 -67.5t47.5 -49t59 -29.5
l-18 -108l34 -8l3 17t6 37.5t6 37zM219 144q-51 19 -81 70t-30 122q0 91 46 146.5t127 57.5z" />
    <glyph glyph-name="sterling" unicode="&#xa3;" horiz-adv-x="550" 
d="M173 353h-99v-42h86l-86 -282v-29h421l-6 41h-365l82 270h211l-6 42h-192l46 150q22 72 54.5 107.5t92.5 35.5q22 0 39 -2t34 -7l7 42q-19 5 -36 7.5t-39 2.5q-78 0 -123.5 -44.5t-71.5 -130.5z" />
    <glyph glyph-name="section" unicode="&#xa7;" horiz-adv-x="575" 
d="M508 350q0 48 -35.5 75t-94.5 44l-96 28q-30 9 -50 17t-32 16.5t-17 18.5t-5 24q0 30 27 50t80 20q74 0 143 -32l8 45q-38 15 -71.5 21.5t-75.5 6.5q-34 0 -63 -8.5t-50 -23.5t-33 -35.5t-12 -45.5q0 -45 31.5 -69t104.5 -45l94 -27q54 -16 78 -34.5t24 -48.5
q0 -23 -9 -42t-23 -34l41 -9q14 16 25 37.5t11 50.5zM67 326q0 -48 35.5 -75t94.5 -44l96 -28q30 -9 50 -17t32 -16.5t17 -19t5 -23.5q0 -30 -27 -50t-80 -20q-74 0 -143 32l-8 -45q38 -15 71.5 -21.5t75.5 -6.5q34 0 63 8.5t50 23.5t33 35.5t12 45.5q0 45 -31.5 69
t-104.5 45l-94 27q-54 16 -78 34.5t-24 48.5q0 23 9 42t23 34l-41 9q-14 -16 -25 -37.5t-11 -50.5z" />
    <glyph glyph-name="bullet" unicode="&#x2022;" horiz-adv-x="413" 
d="M310 350l-14 97l-89 16l-89 -16l-15 -97l15 -97l89 -17l89 17z" />
    <glyph glyph-name="paragraph" unicode="&#xb6;" horiz-adv-x="520" 
d="M412 0v676h-161q-94 0 -148 -44.5t-54 -126.5q0 -87 54 -130.5t146 -47.5l27 170v142h92v-639h44z" />
    <glyph glyph-name="germandbls" unicode="&#xdf;" horiz-adv-x="596" 
d="M554 146q0 77 -62 123.5t-178 74.5q24 28 43 54t31.5 51.5t19.5 52t7 56.5q0 72 -39.5 115t-111.5 43q-36 0 -65 -13t-48.5 -36t-30 -54.5t-10.5 -68.5v-74h-73v-40h73v-430h46v547q0 60 29 94t77 34q50 0 77.5 -32.5t27.5 -87.5q0 -54 -25 -102.5t-76 -105.5l6 -34
q65 -14 110 -31.5t72.5 -39t40 -47t12.5 -54.5q0 -54 -32.5 -81.5t-81.5 -27.5q-69 0 -140 38l-8 -44q34 -18 70.5 -26.5t72.5 -8.5q73 0 119.5 40t46.5 115z" />
    <glyph glyph-name="registered" unicode="&#xae;" horiz-adv-x="569" 
d="M511 465q0 51 -16.5 93.5t-46 73.5t-71 48.5t-92.5 17.5t-93 -17.5t-71.5 -48t-46 -73t-16.5 -92.5q0 -51 16.5 -94t46 -74t71.5 -48.5t93 -17.5t92.5 17.5t71 48t46 73t16.5 93.5zM490 465q0 -46 -14.5 -84.5t-41.5 -67t-65 -44.5t-84 -16t-84 16t-65 44.5t-41.5 67.5
t-14.5 86q0 45 14.5 84t41.5 67t64.5 44t83.5 16t84 -16t65 -44.5t42 -67.5t15 -85zM388 350l-78 107q23 7 40 24.5t17 47.5q0 35 -23.5 54.5t-64.5 19.5h-64v-258h31v107h30l78 -109zM336 527q0 -23 -16.5 -35.5t-43.5 -12.5h-31v96h32q29 0 44 -12.5t15 -35.5z" />
    <glyph glyph-name="copyright" unicode="&#xa9;" horiz-adv-x="811" 
d="M749 345q0 78 -24.5 143.5t-69.5 113.5t-109 74.5t-142 26.5t-141.5 -26.5t-108 -74.5t-69 -113.5t-24.5 -143.5t24.5 -143.5t70 -113.5t109 -74.5t141.5 -26.5t141.5 26.5t108.5 74.5t69 113.5t24 143.5zM722 345q0 -73 -22 -134.5t-62.5 -105.5t-99 -69t-131.5 -25
t-132 25t-100 69t-63.5 105.5t-22.5 134.5t22 134.5t62.5 105.5t99 69t131.5 25t131.5 -25t100 -69t64 -105.5t22.5 -134.5zM537 188l-5 41q-30 -23 -58.5 -35t-60.5 -12q-30 0 -55 12.5t-42.5 34.5t-27 52.5t-9.5 66.5q0 73 35.5 119.5t98.5 46.5q30 0 56.5 -10t53.5 -31
l8 43q-26 17 -55 26.5t-62 9.5q-39 0 -71.5 -15t-56 -42t-36.5 -64.5t-13 -82.5t13 -82t36 -64t55 -42t70 -15q37 0 68.5 12t57.5 31z" />
    <glyph glyph-name="trademark" unicode="&#x2122;" horiz-adv-x="802" 
d="M726 345l-27 345h-43l-116 -304l-116 304h-44l-26 -345h35l22 285l112 -286h31l114 287l21 -286h37zM294 656l-5 34h-249v-34h109v-311h37v311h108z" />
    <glyph glyph-name="acute" unicode="&#xb4;" 
d="M323 692l-68 15l-106 -155h36z" />
    <glyph glyph-name="dieresis" unicode="&#xa8;" 
d="M347 561v79h-70v-79h70zM180 561v79h-69v-79h69z" />
    <glyph glyph-name="notequal" unicode="&#x2260;" horiz-adv-x="531" 
d="M460 184q0 51 -18.5 87t-50 60t-75 35.5t-92.5 12.5l232 264v33h-393l6 -42h323l-226 -260l5 -34h25q105 0 160 -38t55 -118q0 -32 -11 -60t-33 -49t-53.5 -33.5t-71.5 -12.5q-51 0 -93 14.5t-87 44.5l-8 -48q35 -23 84 -38t100 -15q50 0 91 15.5t70 42.5t45 62.5
t16 76.5z" />
    <glyph glyph-name="AE" unicode="&#xc6;" horiz-adv-x="860" 
d="M814 0v43h-310v297h247l-6 43h-241v264h300v43h-378l-409 -690h52l139 236h249v-236h357zM457 278h-225l225 381v-381z" />
    <glyph glyph-name="Oslash" unicode="&#xd8;" horiz-adv-x="744" 
d="M683 688l-44 9l-64 -76q-40 39 -91 60.5t-111 21.5q-66 0 -122.5 -26.5t-98 -74t-64.5 -113.5t-23 -145q0 -74 20 -136t57 -109l-81 -97l44 -9l63 76q40 -39 91.5 -60.5t111.5 -21.5q66 0 122.5 26.5t98 74t64.5 113.5t23 145q0 74 -20 136t-57 109zM547 587l-374 -453
q-29 41 -44 94.5t-15 117.5q0 69 18.5 127t52.5 100t81.5 65t104.5 23q54 0 98 -19.5t78 -54.5zM630 344q0 -69 -18.5 -127t-52.5 -100t-81.5 -65t-104.5 -23q-54 0 -98.5 19.5t-77.5 54.5l374 453q28 -41 43.5 -94.5t15.5 -117.5z" />
    <glyph glyph-name="infinity" unicode="&#x221e;" horiz-adv-x="481" 
d="M404 0v340q0 68 -38 103.5t-110 35.5q-47 0 -88 -11.5t-81 -29.5l6 -44q39 20 79.5 31t81.5 11q49 0 76.5 -24t27.5 -74v-41q-85 -8 -143.5 -22.5t-94.5 -37t-52 -53t-16 -69.5q0 -32 11 -55.5t30.5 -39t45 -23t55.5 -7.5q45 0 87 20.5t79 52.5l11 -63h33zM358 106
q-38 -34 -81 -54.5t-81 -20.5q-40 0 -68 21.5t-28 66.5q0 29 13 51.5t43 39t79.5 28.5t122.5 20v-152z" />
    <glyph glyph-name="plusminus" unicode="&#xb1;" horiz-adv-x="596" 
d="M557 166v40h-114v210l-45 -11v-199h-296l329 467l-45 9l-341 -486v-30h353v-166h45v166h114z" />
    <glyph glyph-name="lessequal" unicode="&#x2264;" horiz-adv-x="886" 
d="M785 0v690h-60l-282 -634l-282 634h-60v-690h46v608l275 -611h40l275 611v-608h48z" />
    <glyph glyph-name="greaterequal" unicode="&#x2265;" horiz-adv-x="693" 
d="M547 87l13 -87h33v690h-48v-553q-51 -46 -104 -74t-114 -28q-88 0 -136 46.5t-48 142.5v466h-48v-469q0 -60 16.5 -103t46.5 -71t72 -41.5t94 -13.5q60 0 116 25.5t107 69.5z" />
    <glyph glyph-name="yen" unicode="&#xa5;" horiz-adv-x="620" 
d="M332 256h170l-7 38h-159l229 382h-50l-203 -352l-209 359l-44 -13l225 -376h-165v-38h170v-104h-173l7 -38h166v-114h43v114h167v38h-167v104z" />
    <glyph glyph-name="mu" unicode="&#xb5;" horiz-adv-x="568" 
d="M454 139l29 29l-172 171l171 170l-27 27l-170 -171l-171 172l-29 -29l172 -171l-171 -170l27 -27l170 171z" />
    <glyph glyph-name="mu" unicode="&#x3bc;" horiz-adv-x="568" 
d="M454 139l29 29l-172 171l171 170l-27 27l-170 -171l-171 172l-29 -29l172 -171l-171 -170l27 -27l170 171z" />
    <glyph glyph-name="partialdiff" unicode="&#x2202;" horiz-adv-x="748" 
d="M694 30l-92 71q37 47 57 109t20 136q0 78 -23 144t-63.5 113t-97 73.5t-122.5 26.5t-122.5 -26.5t-98 -74t-64.5 -113.5t-23 -145q0 -78 23 -144t63.5 -113t97 -73.5t122.5 -26.5q60 0 112 21.5t92 61.5l108 -84zM629 344q0 -67 -16 -121.5t-46 -96.5l-159 124l-57 -10
l191 -144q-32 -32 -75 -49t-94 -17q-57 0 -104.5 23t-81.5 65t-53 100t-19 128t18.5 127.5t52 99t81 64.5t104.5 23t104.5 -23t81.5 -65t53 -100t19 -128z" />
    <glyph glyph-name="summation" unicode="&#x2211;" horiz-adv-x="1011" 
d="M965 690h-51l-228 -626l-229 633l-52 -11l75 -201l-152 -421l-232 633l-49 -11l257 -688h43l157 425l158 -425h43z" />
    <glyph glyph-name="product" unicode="&#x220f;" horiz-adv-x="500" 
d="M25 -200h450v1000h-450v-1000z" />
    <glyph glyph-name="pi" unicode="&#x3c0;" horiz-adv-x="811" 
d="M749 345q0 78 -24.5 143.5t-69.5 113.5t-109 74.5t-142 26.5t-141.5 -26.5t-108 -74.5t-69 -113.5t-24.5 -143.5t24.5 -143.5t70 -113.5t109 -74.5t141.5 -26.5t141.5 26.5t108.5 74.5t69 113.5t24 143.5zM722 345q0 -73 -22 -134.5t-62.5 -105.5t-99 -69t-131.5 -25
t-132 25t-100 69t-63.5 105.5t-22.5 134.5t22 134.5t62.5 105.5t99 69t131.5 25t131.5 -25t100 -69t64 -105.5t22.5 -134.5zM541 428q0 54 -37 84.5t-94 30.5h-101v-393h41v159h53q28 0 53.5 7.5t44 22.5t29.5 37.5t11 51.5zM499 426q0 -40 -25.5 -60t-69.5 -20h-54v159h58
q42 0 66.5 -20t24.5 -59z" />
    <glyph glyph-name="integral" unicode="&#x222b;" horiz-adv-x="526" 
d="M443 6v439q-34 13 -74.5 22.5t-87.5 9.5t-88.5 -15.5t-72 -47t-48.5 -78.5t-18 -109q0 -58 15.5 -100.5t42 -71t61.5 -42.5t74 -14q26 0 48 6.5t40 17.5t33 25t28 29v-73q0 -68 -33 -104t-104 -36q-89 0 -168 38l-9 -45q41 -16 83.5 -25.5t88.5 -9.5q91 0 140 46.5
t49 137.5zM396 128q-35 -39 -70 -62.5t-78 -23.5q-63 0 -104 47.5t-41 139.5q0 53 13.5 92t37 64.5t54.5 38t67 12.5q39 0 68.5 -7t52.5 -15v-286z" />
    <glyph glyph-name="ordfeminine" unicode="&#xaa;" horiz-adv-x="403" 
d="M313 361v225q0 47 -27 70.5t-77 23.5q-30 0 -56.5 -6.5t-52.5 -17.5l4 -36q28 13 52.5 19.5t49.5 6.5q69 0 69 -62v-24q-104 -7 -151 -37.5t-47 -82.5q0 -41 26.5 -63t68.5 -22q28 0 55 12.5t50 31.5l7 -38h29zM320 236l-6 37h-234v-37h240zM275 432q-25 -21 -50.5 -32.5
t-48.5 -11.5q-28 0 -44.5 14.5t-16.5 39.5q0 17 8 31.5t26.5 26t49 19t76.5 10.5v-97z" />
    <glyph glyph-name="ordmasculine" unicode="&#xba;" horiz-adv-x="403" 
d="M339 518q0 34 -9 63.5t-26.5 51.5t-43.5 34.5t-59 12.5t-58.5 -12.5t-43.5 -34.5t-27 -51.5t-9 -63.5t9 -64t27 -52t43.5 -34.5t58.5 -12.5t59 12.5t43.5 34.5t26.5 52t9 64zM330 236l-6 37h-251v-37h257zM299 518q0 -26 -6 -49.5t-18 -41t-30.5 -27.5t-43.5 -10
t-43.5 10.5t-30.5 28t-18 40.5t-6 49t6 49t18 40.5t30.5 27.5t43.5 10t43.5 -10.5t30.5 -27.5t18 -40.5t6 -48.5z" />
    <glyph glyph-name="ae" unicode="&#xe6;" horiz-adv-x="790" 
d="M736 245q0 49 -11 91.5t-33.5 74.5t-56 50.5t-78.5 18.5q-54 0 -95 -26t-67 -74q-9 48 -43 73.5t-96 25.5q-47 0 -88.5 -11t-80.5 -30l6 -44q39 20 79.5 31t81.5 11q49 0 76.5 -23.5t27.5 -72.5v-43q-85 -8 -143.5 -22.5t-94.5 -37t-52 -52.5t-16 -69q0 -60 40.5 -93
t103.5 -33q60 0 108 25.5t92 66.5q28 -44 70.5 -68t95.5 -24q51 0 95 20t78 49l-8 44q-35 -32 -77.5 -52t-85.5 -20q-37 0 -66.5 15t-50.5 42t-32 64.5t-11 82.5h332v10zM686 274h-281q8 74 46.5 120.5t105.5 46.5q30 0 53.5 -13t40 -36t25.5 -53.5t10 -64.5zM379 117
q-42 -38 -87.5 -62t-92.5 -24q-45 0 -72 24t-27 65q0 28 13 50.5t43 39.5t79.5 29t122.5 20v-24q0 -33 5.5 -62.5t15.5 -55.5z" />
    <glyph glyph-name="oslash" unicode="&#xf8;" horiz-adv-x="519" 
d="M472 468l-41 10l-38 -48q-26 25 -60.5 37.5t-73.5 12.5q-43 0 -80.5 -16.5t-65.5 -47.5t-44.5 -77t-16.5 -104q0 -52 13 -94t36 -73l-53 -66l42 -9l36 46q55 -49 133 -49q43 0 81 16.5t66 48t44.5 77t16.5 103.5q0 53 -13 94.5t-36 72.5zM367 396l-237 -293
q-32 53 -32 132q0 46 10.5 84t31 65t50.5 42t69 15q65 0 108 -45zM389 367q32 -53 32 -132q0 -46 -11 -84t-32 -65t-51 -42t-68 -15q-33 0 -59.5 12t-46.5 32z" />
    <glyph glyph-name="questiondown" unicode="&#xbf;" horiz-adv-x="482" 
d="M289 609v81h-60v-81h60zM433 51l-7 46q-40 -32 -84.5 -49.5t-92.5 -17.5q-66 0 -104 33t-38 90q0 26 7.5 48.5t25.5 44t49.5 43.5t79.5 48l17 9l-11 166l-32 -7l-10 -139q-41 -23 -73 -45t-55 -47.5t-35 -55t-12 -67.5t14 -68.5t39.5 -51.5t60 -32.5t75.5 -11.5
q55 0 103 18.5t83 45.5z" />
    <glyph glyph-name="exclamdown" unicode="&#xa1;" horiz-adv-x="264" 
d="M162 609v81h-60v-81h60zM161 0l-16 511l-26 -6l-16 -505h58z" />
    <glyph glyph-name="logicalnot" unicode="&#xac;" horiz-adv-x="568" 
d="M508 317v42h-448v-42h448z" />
    <glyph glyph-name="radical" unicode="&#x221a;" horiz-adv-x="802" 
d="M713 0v715l-47 -10v-705h47zM557 670l-7 45q-6 1 -13 1h-17q-60 0 -91 -31t-31 -92v-123h-73v-40h73v-430h47v430h105l-6 40h-99v121q0 44 20 63t57 19q14 0 21 -0.5t14 -2.5zM269 670l-7 45q-7 1 -14 1h-17q-59 0 -90 -31t-31 -92v-123h-73v-40h73v-430h46v430h106
l-7 40h-99v121q0 44 20.5 63t56.5 19q14 0 21.5 -0.5t14.5 -2.5z" />
    <glyph glyph-name="florin" unicode="&#x192;" horiz-adv-x="381" 
d="M155 453h-69l-6 -41h69l-66 -412h45l66 412h114v41h-107l16 101q8 45 27 66t63 21q21 0 44 -5v44q-8 1 -19.5 2.5t-22.5 1.5q-60 0 -93 -30t-44 -96z" />
    <glyph glyph-name="approxequal" unicode="&#x2248;" horiz-adv-x="802" 
d="M729 638q0 17 -11.5 28.5t-28.5 11.5q-16 0 -28 -11.5t-12 -28.5q0 -16 12 -28.5t28 -12.5q17 0 28.5 12.5t11.5 28.5zM557 670l-7 45q-6 1 -13 1h-17q-60 0 -91 -31t-31 -92v-123h-73v-40h73v-430h47v430h105l-6 40h-99v121q0 44 20 63t57 19q14 0 21 -0.5t14 -2.5z
M269 670l-7 45q-7 1 -14 1h-17q-59 0 -90 -31t-31 -92v-123h-73v-40h73v-430h46v430h106l-7 40h-99v121q0 44 20.5 63t56.5 19q14 0 21.5 -0.5t14.5 -2.5zM713 0v470h-47v-470h47z" />
    <glyph glyph-name="guillemotleft" unicode="&#xab;" horiz-adv-x="503" 
d="M443 470h-35l-166 -234l168 -241l31 9l-140 232zM243 470h-34l-166 -234l167 -241l32 9l-140 232z" />
    <glyph glyph-name="guillemotright" unicode="&#xbb;" horiz-adv-x="503" 
d="M460 234l-167 241l-31 -8l140 -233l-142 -234h35zM261 234l-168 241l-31 -8l140 -233l-142 -234h35z" />
    <glyph glyph-name="ellipsis" unicode="&#x2026;" horiz-adv-x="666" 
d="M586 0v81h-61v-81h61zM363 0v81h-60v-81h60zM141 0v81h-60v-81h60z" />
    <glyph glyph-name="nonbreakingspace" unicode="&#xa0;" horiz-adv-x="115" 
 />
    <glyph glyph-name="Agrave" unicode="&#xc0;" horiz-adv-x="694" 
d="M647 4l-274 690h-52l-274 -694h50l91 236h316l95 -243zM488 279h-282l140 361zM366 744l-104 155l-69 -15l138 -140h35z" />
    <glyph glyph-name="Atilde" unicode="&#xc3;" horiz-adv-x="694" 
d="M647 4l-274 690h-52l-274 -694h50l91 236h316l95 -243zM488 279h-282l140 361zM491 847l-33 7q-15 -54 -40 -54q-12 0 -25 6.5t-37 19.5q-27 14 -41.5 21t-36.5 7q-26 0 -45 -25t-27 -71l34 -7q13 55 39 55q13 0 25.5 -7t36.5 -20q27 -14 42 -20.5t36 -6.5q26 0 45 25
t27 70z" />
    <glyph glyph-name="Otilde" unicode="&#xd5;" horiz-adv-x="744" 
d="M679 346q0 78 -23 144t-63.5 113t-97 73.5t-122.5 26.5t-122.5 -26.5t-98 -74t-64.5 -113.5t-23 -145q0 -78 23 -144t63.5 -113t97 -73.5t122.5 -26.5t122.5 26.5t98 74t64.5 113.5t23 145zM629 344q0 -69 -18.5 -126.5t-52.5 -99.5t-81 -65t-104 -23t-104.5 23t-81.5 65
t-53 100t-19 128q0 69 18.5 126.5t52.5 99.5t81 65t104 23t104.5 -23t81.5 -65t53 -100t19 -128zM512 861l-33 7q-15 -54 -40 -54q-12 0 -25 6.5t-37 19.5q-27 14 -41.5 21t-36.5 7q-26 0 -45 -25t-27 -71l34 -7q13 55 39 55q13 0 25.5 -7t36.5 -20q27 -14 42 -20.5t36 -6.5
q26 0 45 25t27 70z" />
    <glyph glyph-name="OE" unicode="&#x152;" horiz-adv-x="874" 
d="M828 0v43h-308v297h245l-7 43h-238v264h298v43h-399q-79 0 -145 -23.5t-113.5 -68t-74 -109t-26.5 -145.5q0 -78 24.5 -141.5t71 -108.5t112 -69.5t148.5 -24.5h412zM472 43h-55q-69 0 -125.5 19.5t-97 58t-62.5 94.5t-22 130q0 75 22 131.5t62 94.5t96 57t124 19h58
v-604z" />
    <glyph glyph-name="oe" unicode="&#x153;" horiz-adv-x="851" 
d="M797 245q0 49 -11 91.5t-33.5 74.5t-56 50.5t-77.5 18.5q-62 0 -108 -34.5t-69 -97.5q-23 65 -72 98.5t-113 33.5q-42 0 -79.5 -16.5t-65 -47.5t-44 -77t-16.5 -104t16 -103.5t43.5 -77t65 -48t80.5 -16.5q63 0 112 34t72 98q23 -63 72 -97.5t110 -34.5q51 0 95 20t78 49
l-7 44q-36 -32 -78 -52t-86 -20q-37 0 -66.5 15t-50.5 42t-32 64.5t-11 82.5h332v10zM748 274h-281q8 74 46.5 120.5t105.5 46.5q30 0 53.5 -13t39.5 -36t25 -53.5t11 -64.5zM419 235q0 -46 -11 -83.5t-32 -64.5t-51 -41.5t-68 -14.5q-37 0 -66 15.5t-49 42.5t-30.5 64.5
t-10.5 81.5q0 45 10.5 82.5t30 64.5t48.5 42t67 15t68 -15.5t51 -42.5t32 -64.5t11 -81.5z" />
    <glyph glyph-name="endash" unicode="&#x2013;" 
d="M395 259v47h-333v-47h333z" />
    <glyph glyph-name="emdash" unicode="&#x2014;" horiz-adv-x="915" 
d="M853 259v47h-791v-47h791z" />
    <glyph glyph-name="quotedblleft" unicode="&#x201c;" horiz-adv-x="370" 
d="M158 688l-26 6l-74 -214h61zM316 688l-26 6l-74 -214h61z" />
    <glyph glyph-name="quotedblright" unicode="&#x201d;" horiz-adv-x="370" 
d="M154 690h-61l-39 -208l26 -6zM312 690h-61l-39 -208l26 -6z" />
    <glyph glyph-name="quoteleft" unicode="&#x2018;" horiz-adv-x="212" 
d="M158 688l-26 6l-74 -214h61z" />
    <glyph glyph-name="quoteright" unicode="&#x2019;" horiz-adv-x="212" 
d="M154 690h-61l-39 -208l26 -6z" />
    <glyph glyph-name="divide" unicode="&#xf7;" horiz-adv-x="568" 
d="M314 486v76h-59v-76h59zM508 319v38h-448v-38h448zM314 114v76h-59v-76h59z" />
    <glyph glyph-name="lozenge" unicode="&#x25ca;" horiz-adv-x="802" 
d="M726 345l-27 345h-43l-116 -304l-116 304h-44l-26 -345h35l22 285l112 -286h31l114 287l21 -286h37zM164 340q22 0 42 6.5t35.5 18.5t24.5 30t9 41q0 39 -22.5 61.5t-68.5 42.5q-40 17 -57 31.5t-17 38.5q0 23 17.5 38t46.5 15q21 0 40 -5.5t38 -16.5l6 34
q-17 9 -38 14.5t-45 5.5q-41 0 -70 -24.5t-29 -62.5q0 -19 5.5 -33t17 -25t29.5 -21.5t44 -21.5q35 -15 51.5 -31t16.5 -42q0 -30 -22.5 -46t-51.5 -16t-50 7.5t-41 19.5l-4 -36q18 -9 41 -16t52 -7z" />
    <glyph glyph-name="ydieresis" unicode="&#xff;" horiz-adv-x="477" 
d="M442 470h-49l-151 -417l-160 422l-46 -10l183 -468l-25 -64q-15 -39 -33.5 -54t-49.5 -15q-11 0 -18 0.5t-12 0.5l7 -41q5 -1 10.5 -1.5t11.5 -0.5q48 0 76 23.5t50 82.5zM357 561v79h-70v-79h70zM190 561v79h-69v-79h69z" />
    <glyph glyph-name="Ydieresis" unicode="&#x178;" horiz-adv-x="621" 
d="M580 690h-52l-217 -354l-222 361l-48 -10l245 -391v-296h48v297zM430 744v79h-70v-79h70zM263 744v79h-69v-79h69z" />
    <glyph glyph-name="currency" unicode="&#xa4;" horiz-adv-x="612" 
d="M128 414q-2 -18 -3.5 -37.5t-1.5 -39.5q0 -13 0.5 -26t1.5 -25h-91l6 -40h90q10 -60 33 -108t56.5 -81.5t76 -51.5t90.5 -18q56 0 100.5 17t82.5 43l-5 43q-43 -30 -83.5 -46.5t-91.5 -16.5q-82 0 -137.5 58.5t-73.5 160.5h278v40h-283q-3 25 -3 52q0 40 6 76h283l-7 40
h-269q22 89 76 141.5t134 52.5q49 0 85 -15.5t73 -41.5l8 47q-36 24 -75.5 37.5t-89.5 13.5q-47 0 -88.5 -16t-75 -46.5t-57.5 -74t-37 -98.5h-99v-40h91z" />
    <glyph glyph-name="guilsinglleft" unicode="&#x2039;" horiz-adv-x="304" 
d="M243 470h-34l-166 -234l167 -241l32 9l-140 232z" />
    <glyph glyph-name="guilsinglright" unicode="&#x203a;" horiz-adv-x="304" 
d="M261 234l-168 241l-31 -8l140 -233l-142 -234h35z" />
    <glyph glyph-name="fi" unicode="&#xfb01;" horiz-adv-x="514" 
d="M441 638q0 17 -11.5 28.5t-28.5 11.5q-16 0 -28 -11.5t-12 -28.5q0 -16 12 -28.5t28 -12.5q17 0 28.5 12.5t11.5 28.5zM269 670l-7 45q-7 1 -14 1h-17q-59 0 -90 -31t-31 -92v-123h-73v-40h73v-430h46v430h106l-7 40h-99v121q0 44 20.5 63t56.5 19q14 0 21.5 -0.5
t14.5 -2.5zM425 0v470h-47v-470h47z" />
    <glyph glyph-name="fl" unicode="&#xfb02;" horiz-adv-x="514" 
d="M425 0v715l-47 -10v-705h47zM269 670l-7 45q-7 1 -14 1h-17q-59 0 -90 -31t-31 -92v-123h-73v-40h73v-430h46v430h106l-7 40h-99v121q0 44 20.5 63t56.5 19q14 0 21.5 -0.5t14.5 -2.5z" />
    <glyph glyph-name="daggerdbl" unicode="&#x2021;" horiz-adv-x="516" 
d="M278 577v113h-40v-113l14 -97h12zM451 427v41h-58l-101 -15v-11l101 -15h58zM224 442v11l-101 15h-58v-41h58zM277 178v148l-13 89h-12l-13 -89v-148l13 -90h12zM451 35v41h-58l-101 -15v-11l101 -15h58zM224 50v11l-101 15h-58v-41h58zM278 -187v113l-14 97h-12l-14 -97
v-113h40z" />
    <glyph glyph-name="periodcentered" unicode="&#xb7;" horiz-adv-x="203" 
d="M132 242v81h-61v-81h61z" />
    <glyph glyph-name="quotesinglbase" unicode="&#x201a;" horiz-adv-x="212" 
d="M147 81h-61l-39 -208l26 -6z" />
    <glyph glyph-name="quotedblbase" unicode="&#x201e;" horiz-adv-x="369" 
d="M154 81h-61l-39 -208l26 -6zM312 81h-61l-39 -208l26 -6z" />
    <glyph glyph-name="perthousand" unicode="&#x2030;" horiz-adv-x="811" 
d="M749 345q0 78 -24.5 143.5t-69.5 113.5t-109 74.5t-142 26.5t-141.5 -26.5t-108 -74.5t-69 -113.5t-24.5 -143.5t24.5 -143.5t70 -113.5t109 -74.5t141.5 -26.5t141.5 26.5t108.5 74.5t69 113.5t24 143.5zM722 345q0 -73 -22 -134.5t-62.5 -105.5t-99 -69t-131.5 -25
t-132 25t-100 69t-63.5 105.5t-22.5 134.5t22 134.5t62.5 105.5t99 69t131.5 25t131.5 -25t100 -69t64 -105.5t22.5 -134.5zM434 327q39 11 65 38t26 72q0 51 -34 80.5t-91 29.5h-104v-393h40v168h56l126 -171l44 8zM399 509q41 0 62.5 -19t21.5 -54q0 -37 -24.5 -57
t-66.5 -20h-56v150h63z" />
    <glyph glyph-name="Acircumflex" unicode="&#xc2;" horiz-adv-x="694" 
d="M647 4l-274 690h-52l-274 -694h50l91 236h316l95 -243zM488 279h-282l140 361zM473 738l-103 146h-43l-109 -149h32l97 93l100 -95z" />
    <glyph glyph-name="Ecircumflex" unicode="&#xca;" horiz-adv-x="505" 
d="M459 0v43h-311v297h248l-6 43h-242v264h301v43h-349v-690h359zM396 748l-103 146h-43l-109 -149h32l97 93l100 -95z" />
    <glyph glyph-name="Aacute" unicode="&#xc1;" horiz-adv-x="694" 
d="M502 884l-68 15l-106 -155h36zM647 4l-274 690h-52l-274 -694h50l91 236h316l95 -243zM488 279h-282l140 361z" />
    <glyph glyph-name="Edieresis" unicode="&#xcb;" horiz-adv-x="505" 
d="M459 0v43h-311v297h248l-6 43h-242v264h301v43h-349v-690h359zM389 754v79h-70v-79h70zM222 754v79h-69v-79h69z" />
    <glyph glyph-name="Egrave" unicode="&#xc8;" horiz-adv-x="505" 
d="M459 0v43h-311v297h248l-6 43h-242v264h301v43h-349v-690h359zM308 745l-104 155l-69 -15l138 -140h35z" />
    <glyph glyph-name="Iacute" unicode="&#xcd;" horiz-adv-x="264" 
d="M287 884l-68 15l-106 -155h36zM156 0v690h-48v-690h48z" />
    <glyph glyph-name="Icircumflex" unicode="&#xce;" horiz-adv-x="264" 
d="M156 0v690h-48v-690h48zM258 738l-103 146h-43l-109 -149h32l97 93l100 -95z" />
    <glyph glyph-name="Idieresis" unicode="&#xcf;" horiz-adv-x="264" 
d="M156 0v690h-48v-690h48zM251 753v79h-70v-79h70zM84 753v79h-69v-79h69z" />
    <glyph glyph-name="Igrave" unicode="&#xcc;" horiz-adv-x="264" 
d="M156 0v690h-48v-690h48zM151 744l-104 155l-69 -15l138 -140h35z" />
    <glyph glyph-name="Oacute" unicode="&#xd3;" horiz-adv-x="744" 
d="M520 893l-68 15l-106 -155h36zM679 346q0 78 -23 144t-63.5 113t-97 73.5t-122.5 26.5t-122.5 -26.5t-98 -74t-64.5 -113.5t-23 -145q0 -78 23 -144t63.5 -113t97 -73.5t122.5 -26.5t122.5 26.5t98 74t64.5 113.5t23 145zM629 344q0 -69 -18.5 -126.5t-52.5 -99.5
t-81 -65t-104 -23t-104.5 23t-81.5 65t-53 100t-19 128q0 69 18.5 126.5t52.5 99.5t81 65t104 23t104.5 -23t81.5 -65t53 -100t19 -128z" />
    <glyph glyph-name="Ocircumflex" unicode="&#xd4;" horiz-adv-x="744" 
d="M679 346q0 78 -23 144t-63.5 113t-97 73.5t-122.5 26.5t-122.5 -26.5t-98 -74t-64.5 -113.5t-23 -145q0 -78 23 -144t63.5 -113t97 -73.5t122.5 -26.5t122.5 26.5t98 74t64.5 113.5t23 145zM629 344q0 -69 -18.5 -126.5t-52.5 -99.5t-81 -65t-104 -23t-104.5 23t-81.5 65
t-53 100t-19 128q0 69 18.5 126.5t52.5 99.5t81 65t104 23t104.5 -23t81.5 -65t53 -100t19 -128zM495 752l-103 146h-43l-109 -149h32l97 93l100 -95z" />
    <glyph glyph-name="apple" unicode="&#xf8ff;" horiz-adv-x="694" 
d="M644 -200v921h-101l-29 79h-334l-30 -79h-100v-554q14 0 23 -9.5t9 -22.5q0 -14 -9 -23t-23 -9v-303h207l8 14h163l8 -14h208zM400 563h58v-14h-43v-66h38v-14h-38v-78h-15v172zM184 563h15v-79h47v79h15v-172h-15v79h-47v-79h-15v172zM460 394v16q4 -2 10 -4t10 -2
q16 0 16 22v137h16v-137q0 -36 -31 -36q-5 0 -11.5 1t-9.5 3zM523 323h8v-24l21 24h10l-18 -20l19 -26h-9l-16 20l-7 -7v-13h-8v46zM488 292h-12v-15h-8v46h21q8 0 12 -4.5t4 -9.5q0 -12 -10 -15l12 -17h-9zM426 276q-11 0 -17 7t-6 17q0 9 6 16.5t17 7.5t17.5 -7.5
t6.5 -16.5q0 -10 -6.5 -17t-17.5 -7zM370 301l13 22h9l-18 -29v-17h-8v17l-18 29h9zM193 323h33v-7h-25v-12h22v-7h-22v-13h25v-7h-33v46zM132 323h7l25 -32v32h8v-46h-7l-25 32v-32h-8v46zM241 323h8l10 -35h1l11 35h8l10 -35h1l10 35h8l-14 -47h-8l-11 34h-1l-10 -34h-8z
M327 479q15 16 15 32q0 8 -3.5 13.5t-9.5 5.5t-10 -5.5t-4 -13.5t3.5 -15zM342 423l-20 39q-15 -15 -15 -33q0 -11 4.5 -19t12.5 -8q5 0 10.5 6.5t7.5 14.5zM488 299q9 0 9 9q0 8 -10 8h-11v-17h12zM426 283q7 0 11.5 5t4.5 12q0 6 -4.5 11.5t-11.5 5.5t-11 -5.5t-4 -11.5
q0 -7 4 -12t11 -5zM349 438q2 7 4.5 15t4.5 15l13 -3q-2 -11 -5.5 -20.5t-7.5 -18.5l16 -30l-11 -8l-12 24h-1q-4 -9 -10.5 -16.5t-16.5 -7.5q-14 0 -22.5 11t-8.5 28q0 27 23 45q-6 11 -10 19.5t-4 19.5t7.5 21t20.5 10q14 0 20.5 -10t6.5 -21q0 -12 -6.5 -22.5
t-16.5 -19.5z" />
    <glyph glyph-name="Ograve" unicode="&#xd2;" horiz-adv-x="744" 
d="M679 346q0 78 -23 144t-63.5 113t-97 73.5t-122.5 26.5t-122.5 -26.5t-98 -74t-64.5 -113.5t-23 -145q0 -78 23 -144t63.5 -113t97 -73.5t122.5 -26.5t122.5 26.5t98 74t64.5 113.5t23 145zM629 344q0 -69 -18.5 -126.5t-52.5 -99.5t-81 -65t-104 -23t-104.5 23t-81.5 65
t-53 100t-19 128q0 69 18.5 126.5t52.5 99.5t81 65t104 23t104.5 -23t81.5 -65t53 -100t19 -128zM398 753l-104 155l-69 -15l138 -140h35z" />
    <glyph glyph-name="Uacute" unicode="&#xda;" horiz-adv-x="674" 
d="M476 871l-68 15l-106 -155h36zM589 260v430h-48v-433q0 -51 -13.5 -92t-39.5 -70.5t-64 -45.5t-87 -16q-50 0 -88 17t-64 47t-39 72t-13 93v428h-48v-435q0 -58 17 -106.5t49 -84t78.5 -55t105.5 -19.5q60 0 107 19.5t79.5 55t50 85.5t17.5 110z" />
    <glyph glyph-name="Ucircumflex" unicode="&#xdb;" horiz-adv-x="674" 
d="M589 260v430h-48v-433q0 -51 -13.5 -92t-39.5 -70.5t-64 -45.5t-87 -16q-50 0 -88 17t-64 47t-39 72t-13 93v428h-48v-435q0 -58 17 -106.5t49 -84t78.5 -55t105.5 -19.5q60 0 107 19.5t79.5 55t50 85.5t17.5 110zM462 738l-103 146h-43l-109 -149h32l97 93l100 -95z" />
    <glyph glyph-name="Ugrave" unicode="&#xd9;" horiz-adv-x="674" 
d="M589 260v430h-48v-433q0 -51 -13.5 -92t-39.5 -70.5t-64 -45.5t-87 -16q-50 0 -88 17t-64 47t-39 72t-13 93v428h-48v-435q0 -58 17 -106.5t49 -84t78.5 -55t105.5 -19.5q60 0 107 19.5t79.5 55t50 85.5t17.5 110zM371 731l-104 155l-69 -15l138 -140h35z" />
    <glyph glyph-name="dotlessi" unicode="&#x131;" horiz-adv-x="225" 
d="M136 0v470h-46v-470h46z" />
    <glyph glyph-name="circumflex" unicode="&#x2c6;" 
d="M354 555l-103 146h-43l-109 -149h32l97 93l100 -95z" />
    <glyph glyph-name="tilde" unicode="&#x2dc;" 
d="M371 655l-33 7q-15 -54 -40 -54q-12 0 -25 6.5t-37 19.5q-27 14 -41.5 21t-36.5 7q-26 0 -45 -25t-27 -71l34 -7q13 55 39 55q13 0 25.5 -7t36.5 -20q27 -14 42 -20.5t36 -6.5q26 0 45 25t27 70z" />
    <glyph glyph-name="macron" unicode="&#xaf;" 
d="M352 581v51h-247v-51h247z" />
    <glyph glyph-name="macron" unicode="&#x2c9;" 
d="M352 581v51h-247v-51h247z" />
    <glyph glyph-name="breve" unicode="&#x2d8;" 
d="M351 696h-37q-9 -89 -83 -89q-40 0 -60 23t-26 68l-37 -8q4 -64 36 -100t85 -36q57 0 88 36t34 106z" />
    <glyph glyph-name="dotaccent" unicode="&#x2d9;" 
d="M264 556v81h-71v-81h71z" />
    <glyph glyph-name="ring" unicode="&#x2da;" 
d="M322 642q0 39 -26.5 66.5t-66.5 27.5t-67 -27.5t-27 -66.5q0 -40 27 -66t67 -26t66.5 26t26.5 66zM288 642q0 -27 -16.5 -44.5t-42.5 -17.5t-43 17.5t-17 44.5t17 45t43 18t42.5 -18t16.5 -45z" />
    <glyph glyph-name="cedilla" unicode="&#xb8;" 
d="M287 -67l-65 16l-90 -135h34z" />
    <glyph glyph-name="hungarumlaut" unicode="&#x2dd;" 
d="M394 696l-66 17l-105 -157h33zM231 696l-66 17l-106 -157h33z" />
    <glyph glyph-name="ogonek" unicode="&#x2db;" 
d="M326 -186l-89 135l-67 -16l122 -119h34z" />
    <glyph glyph-name="caron" unicode="&#x2c7;" 
d="M359 701h-32l-97 -94l-101 96l-26 -6l104 -145h43z" />
    <glyph glyph-name="Lslash" unicode="&#x141;" horiz-adv-x="484" 
d="M454 0l-7 43h-280v300l160 49v43l-160 -49v304h-48v-319l-88 -26l7 -41l81 24v-328h335z" />
    <glyph glyph-name="lslash" unicode="&#x142;" horiz-adv-x="263" 
d="M242 386v43l-87 -26v312l-47 -10v-316l-89 -28l8 -40l81 25v-346h47v360z" />
    <glyph glyph-name="Scaron" unicode="&#x160;" horiz-adv-x="512" 
d="M454 178q0 37 -11 66.5t-33 53.5t-56 44t-80 40q-41 17 -69 33t-45 33.5t-25 38t-8 47.5q0 25 9.5 47.5t27.5 38.5t43.5 25.5t56.5 9.5q45 0 79.5 -11t64.5 -28l7 48q-26 15 -63.5 24.5t-85.5 9.5q-39 0 -73.5 -12t-60 -34t-40 -52.5t-14.5 -67.5q0 -36 9.5 -63.5
t31 -50.5t56 -43.5t84.5 -41.5q39 -17 67 -33.5t45 -35.5t25 -40.5t8 -48.5q0 -32 -12.5 -58t-33.5 -44t-50 -28t-62 -10q-54 0 -98.5 14.5t-73.5 32.5l-7 -49q29 -17 72.5 -29t103.5 -12q43 0 81 12.5t67 36.5t46 58.5t17 78.5zM386 902h-32l-97 -94l-101 96l-26 -6
l104 -145h43z" />
    <glyph glyph-name="scaron" unicode="&#x161;" horiz-adv-x="434" 
d="M382 124q0 59 -41 91t-121 54q-63 17 -87.5 36.5t-24.5 52.5q0 32 25.5 55t81.5 23q66 0 132 -34l8 45q-29 14 -63.5 23t-74.5 9q-35 0 -63.5 -9.5t-49 -26t-31.5 -39t-11 -49.5q0 -54 34.5 -83.5t109.5 -49.5q38 -11 63 -21t40 -22t21 -26.5t6 -32.5q0 -42 -31.5 -64
t-84.5 -22q-47 0 -88.5 13.5t-74.5 32.5l-9 -46q32 -17 75.5 -29.5t91.5 -12.5q74 0 120.5 34t46.5 98zM344 701h-32l-97 -94l-101 96l-26 -6l104 -145h43z" />
    <glyph glyph-name="Yacute" unicode="&#xdd;" horiz-adv-x="621" 
d="M580 690h-52l-217 -354l-222 361l-48 -10l245 -391v-296h48v297zM455 866l-68 15l-106 -155h36z" />
    <glyph glyph-name="yacute" unicode="&#xfd;" horiz-adv-x="477" 
d="M442 470h-49l-151 -417l-160 422l-46 -10l183 -468l-25 -64q-15 -39 -33.5 -54t-49.5 -15q-11 0 -18 0.5t-12 0.5l7 -41q5 -1 10.5 -1.5t11.5 -0.5q48 0 76 23.5t50 82.5zM384 683l-68 15l-106 -155h36z" />
    <glyph glyph-name="Thorn" unicode="&#xde;" horiz-adv-x="538" 
d="M485 358q0 91 -60 140.5t-160 49.5h-117v142h-48v-690h48v158h101q50 0 93.5 13t75 38t49.5 62.5t18 86.5zM435 356q0 -78 -49 -116.5t-135 -38.5h-103v304h113q85 0 129.5 -37.5t44.5 -111.5z" />
    <glyph glyph-name="thorn" unicode="&#xfe;" horiz-adv-x="526" 
d="M472 248q0 59 -15.5 103t-42 72.5t-61.5 42.5t-74 14q-50 0 -85 -22t-64 -55v312l-47 -10v-892l47 10v195q28 -11 59.5 -17.5t66.5 -6.5q43 0 82 15.5t69 47t47.5 79.5t17.5 112zM423 246q0 -54 -13 -93.5t-35.5 -66t-53.5 -39t-66 -12.5t-66 7.5t-59 21.5v286
q35 41 69 64t79 23q63 0 104 -48.5t41 -142.5z" />
    <glyph glyph-name="Zcaron" unicode="&#x17d;" horiz-adv-x="610" 
d="M549 0l-6 41h-419l420 617v32h-457l6 -41h392l-420 -617v-32h484zM441 893h-32l-97 -94l-101 96l-26 -6l104 -145h43z" />
    <glyph glyph-name="zcaron" unicode="&#x17e;" horiz-adv-x="447" 
d="M399 0l-6 39h-292l294 396v35h-331l6 -39h270l-294 -395v-36h353zM357 701h-32l-97 -94l-101 96l-26 -6l104 -145h43z" />
    <glyph glyph-name="onehalf" unicode="&#xbd;" horiz-adv-x="500" 
d="M25 -200h450v1000h-450v-1000z" />
    <glyph glyph-name="onequarter" unicode="&#xbc;" horiz-adv-x="500" 
d="M25 -200h450v1000h-450v-1000z" />
    <glyph glyph-name="onesuperior" unicode="&#xb9;" horiz-adv-x="500" 
d="M25 -200h450v1000h-450v-1000z" />
    <glyph glyph-name="threequarters" unicode="&#xbe;" horiz-adv-x="500" 
d="M25 -200h450v1000h-450v-1000z" />
    <glyph glyph-name="threesuperior" unicode="&#xb3;" horiz-adv-x="500" 
d="M25 -200h450v1000h-450v-1000z" />
    <glyph glyph-name="twosuperior" unicode="&#xb2;" horiz-adv-x="500" 
d="M25 -200h450v1000h-450v-1000z" />
    <glyph glyph-name="brokenbar" unicode="&#xa6;" horiz-adv-x="500" 
d="M25 -200h450v1000h-450v-1000z" />
    <glyph glyph-name="minus" unicode="&#x2212;" horiz-adv-x="500" 
d="M25 -200h450v1000h-450v-1000z" />
    <glyph glyph-name="multiply" unicode="&#xd7;" horiz-adv-x="500" 
d="M25 -200h450v1000h-450v-1000z" />
    <glyph glyph-name="eth" unicode="&#xf0;" horiz-adv-x="523" 
d="M459 304q0 109 -30 190.5t-94 135.5l49 75l-39 10l-40 -62q-30 20 -65 35.5t-77 26.5l-7 -40q76 -20 127 -56l-69 -104h45l53 81q41 -38 65 -90t32 -124q-31 27 -69.5 45t-90.5 18q-41 0 -76.5 -18.5t-62.5 -50t-42.5 -73.5t-15.5 -90q0 -53 15.5 -94.5t42 -70t62 -43.5
t75.5 -15q75 0 129 54q41 41 62 103.5t21 156.5zM413 325v-24q0 -66 -12 -116.5t-33.5 -84.5t-51.5 -51.5t-65 -17.5q-69 0 -109.5 49t-40.5 136q0 38 11 72t31 60t47 41t60 15q48 0 88.5 -20.5t74.5 -58.5z" />
    <glyph glyph-name="Omega" unicode="&#x3a9;" horiz-adv-x="576" 
d="M557 670l-7 45q-6 1 -13 1h-17q-60 0 -91 -31t-31 -92v-123h-73v-40h73v-430h47v430h105l-6 40h-99v121q0 44 20 63t57 19q14 0 21 -0.5t14 -2.5zM269 670l-7 45q-7 1 -14 1h-17q-59 0 -90 -31t-31 -92v-123h-73v-40h73v-430h46v430h106l-7 40h-99v121q0 44 20.5 63
t56.5 19q14 0 21.5 -0.5t14.5 -2.5z" />
    <glyph glyph-name="Delta" unicode="&#x394;" horiz-adv-x="500" 
d="M25 -200h450v1000h-450v-1000z" />
    <glyph glyph-name="fraction" unicode="&#x2215;" horiz-adv-x="429" 
d="M507 774l-39 10l-542 -882l39 -10z" />
    <glyph glyph-name="Eth" unicode="&#xd0;" horiz-adv-x="718" 
d="M653 346q0 78 -24.5 141.5t-70.5 108.5t-112 69.5t-149 24.5h-178v-307h-85l7 -42h78v-341h176q79 0 144.5 23.5t113 68t74 109t26.5 145.5zM603 345q0 -75 -22 -131.5t-62 -94.5t-96 -57t-124 -19h-132v298h172v42h-172v264h129q69 0 125.5 -19.5t97 -58t62.5 -95
t22 -129.5z" />
    </font>
</defs>
</svg>
