<?xml version="1.0" standalone="no"?>
<!DOCTYPE svg PUBLIC "-//W3C//DTD SVG 1.1//EN" "http://www.w3.org/Graphics/SVG/1.1/DTD/svg11.dtd" >
<svg xmlns="http://www.w3.org/2000/svg" xmlns:xlink="http://www.w3.org/1999/xlink" version="1.1">
<metadata>
Created by FontForge 20161013 at Sun Oct  3 21:18:51 2010
 By ,,,
Copyright (c) 2009 by The Entente (AS &#38; EH). All rights reserved.
</metadata>
<defs>
<font id="Apercu-Regular" horiz-adv-x="560" >
  <font-face 
    font-family="Apercu"
    font-weight="400"
    font-stretch="normal"
    units-per-em="1000"
    panose-1="2 0 5 6 4 0 0 2 0 4"
    ascent="800"
    descent="-200"
    x-height="504"
    cap-height="700"
    bbox="-85 -235 1200 949"
    underline-thickness="50"
    underline-position="-200"
    unicode-range="U+000D-FB02"
  />
<missing-glyph horiz-adv-x="621" 
d="M524 0h-427v700h427v-700zM440 76v548h-259v-548h259z" />
    <glyph glyph-name="fi" unicode="fi" horiz-adv-x="544" 
d="M119 428h-72v76h72v16q0 89 56 139q55 49 139 49q82 0 129 -33l-18 -72q-49 29 -112 29q-52 0 -81 -28.5t-29 -82.5v-17h257v-504h-84v428h-173v-428h-84v428z" />
    <glyph glyph-name="fl" unicode="fl" horiz-adv-x="589" 
d="M119 428h-72v76h72v26q0 87 52 132q52 46 133 46h201v-708h-84v632h-118q-46 0 -73 -26.5t-27 -74.5v-27h116v-76h-116v-428h-84v428z" />
    <glyph glyph-name=".notdef" horiz-adv-x="621" 
d="M524 0h-427v700h427v-700zM440 76v548h-259v-548h259z" />
    <glyph glyph-name=".null" horiz-adv-x="0" 
 />
    <glyph glyph-name=".null" horiz-adv-x="0" 
 />
    <glyph glyph-name="nonmarkingreturn" horiz-adv-x="333" 
 />
    <glyph glyph-name="CR" unicode="&#xd;" horiz-adv-x="268" 
 />
    <glyph glyph-name="space" unicode=" " horiz-adv-x="268" 
 />
    <glyph glyph-name="exclam" unicode="!" horiz-adv-x="345" 
d="M142 200l-24 500h114l-24 -500h-66zM105 65q0 30 20 50.5t50 20.5t50 -20.5t20 -50.5q0 -29 -20 -48.5t-50 -19.5t-50 19.5t-20 48.5z" />
    <glyph glyph-name="quotedbl" unicode="&#x22;" horiz-adv-x="441" 
d="M175 476h-62l-25 232h112zM328 476h-62l-25 232h112z" />
    <glyph glyph-name="numbersign" unicode="#" horiz-adv-x="722" 
d="M232 424h-120v68h134l43 208h73l-43 -208h142l42 208h73l-42 -208h116v-68h-130l-30 -148h120v-68h-134l-43 -208h-73l43 208h-142l-42 -208h-73l42 208h-116v68h130zM447 424h-142l-30 -148h142z" />
    <glyph glyph-name="dollar" unicode="$" horiz-adv-x="523" 
d="M440 596l-71 -46q-23 42 -49 58.5t-62 16.5q-35 0 -59.5 -26t-24.5 -62q0 -49 41 -81q29 -20 40 -26l54 -28q57 -29 92 -55q71 -53 75 -146q0 -85 -54 -143q-47 -51 -116 -62v-86h-80v85q-71 12 -121 62.5t-65 123.5l76 46q22 -76 56.5 -113.5t93.5 -37.5q61 0 95 40
q27 33 27 83q0 43 -31.5 73t-100.5 63q-73 33 -118 72q-52 46 -52 123q0 66 39.5 114.5t100.5 60.5v85h80v-86q88 -17 134 -108z" />
    <glyph glyph-name="percent" unicode="%" horiz-adv-x="842" 
d="M104 434q-46 46 -46 114q0 67 46 113q47 47 114 47t114 -47q46 -46 46 -113q0 -68 -46 -114t-114 -46t-114 46zM154 612q-23 -26 -23 -64q0 -39 23 -65q24 -25 64 -25q41 0 63 25q24 25 24 65q0 38 -24 64q-23 26 -63 26t-64 -26zM510 38q-46 46 -46 114q0 67 46 113
q47 47 114 47t114 -47q46 -46 46 -113q0 -68 -46 -114t-114 -46t-114 46zM560 216q-23 -26 -23 -64q0 -39 23 -65q24 -25 64 -25q41 0 63 25q24 25 24 65q0 38 -24 64q-23 26 -63 26t-64 -26zM126 11l538 718l50 -39l-538 -719z" />
    <glyph glyph-name="ampersand" unicode="&#x26;" horiz-adv-x="677" 
d="M286 -8q-97 0 -154 56t-57 152q0 72 39 128q42 57 96 85q-61 82 -61 146q0 65 44 107q45 42 111 42q71 0 113.5 -39.5t42.5 -100.5q0 -42 -25 -85q-28 -47 -111 -91l146 -185q21 43 47 119l56 -61q-27 -75 -52 -123l112 -142h-101l-59 74q-72 -82 -187 -82zM286 70
q86 0 139 65l-172 221q-96 -54 -96 -158q0 -59 36.5 -93.5t92.5 -34.5zM229 555q0 -45 49 -109q53 26 78 53t25 64q0 31 -22 52t-55 21t-54 -22.5t-21 -58.5z" />
    <glyph glyph-name="quotesingle" unicode="'" horiz-adv-x="288" 
d="M175 476h-62l-25 232h112z" />
    <glyph glyph-name="parenleft" unicode="(" horiz-adv-x="292" 
d="M178 750h84q-105 -166 -105 -400t105 -400h-84q-107 169 -107 400t107 400z" />
    <glyph glyph-name="parenright" unicode=")" horiz-adv-x="292" 
d="M30 750h84q107 -169 107 -400t-107 -400h-84q105 166 105 400t-105 400z" />
    <glyph glyph-name="asterisk" unicode="*" horiz-adv-x="488" 
d="M210 708h68v-138l131 43l21 -65l-130 -43l80 -111l-55 -39l-81 111l-81 -111l-55 39l80 111l-130 43l21 65l131 -43v138z" />
    <glyph glyph-name="plus" unicode="+" horiz-adv-x="568" 
d="M248 356v183h74v-183h183v-74h-183v-183h-74v183h-183v74h183z" />
    <glyph glyph-name="comma" unicode="," horiz-adv-x="318" 
d="M132 -107h-64l66 217h114z" />
    <glyph glyph-name="hyphen" unicode="-" horiz-adv-x="481" 
d="M410 280h-339v74h339v-74z" />
    <glyph glyph-name="period" unicode="." horiz-adv-x="306" 
d="M90 59q0 26 18 44.5t45 18.5q26 0 44.5 -18.5t18.5 -44.5q0 -27 -18.5 -45t-44.5 -18q-27 0 -45 18t-18 45z" />
    <glyph glyph-name="slash" unicode="/" horiz-adv-x="543" 
d="M19 -50l436 800h84l-436 -800h-84z" />
    <glyph glyph-name="zero" unicode="0" horiz-adv-x="624" 
d="M129 612q63 96 183 96t183 -96q63 -94 63 -262q0 -167 -63 -263q-63 -95 -183 -95t-183 95q-63 96 -63 263q0 168 63 262zM430 555q-40 73 -118 73t-118 -73t-40 -205t40 -205t118 -73t118 73t40 205t-40 205z" />
    <glyph glyph-name="one" unicode="1" horiz-adv-x="376" 
d="M74 591l180 109h31v-700h-82v574l-129 -75v92z" />
    <glyph glyph-name="two" unicode="2" horiz-adv-x="570" 
d="M495 0h-423v39l267 342q33 41 45 70t12 63q0 48 -26 80q-28 34 -84 34q-48 0 -79 -32.5t-36 -87.5l-84 16q4 78 61 131q58 53 138 53q98 0 152 -61q44 -50 44 -133q0 -78 -56 -152l-218 -282h287v-80z" />
    <glyph glyph-name="three" unicode="3" horiz-adv-x="578" 
d="M61 192l84 11q20 -131 139 -131q64 0 102 39.5t38 108.5t-38 108.5t-102 39.5q-36 0 -62 -13l-35 47l160 218h-253v80h380v-27l-178 -241q9 3 28 3q80 0 133 -60q53 -59 53 -155q0 -100 -63 -165q-63 -63 -163 -63q-89 0 -151 55q-63 56 -72 145z" />
    <glyph glyph-name="four" unicode="4" horiz-adv-x="596" 
d="M454 0h-86v149h-304v35l296 516h94v-471h87v-80h-87v-149zM368 568l-190 -339h190v339z" />
    <glyph glyph-name="five" unicode="5" horiz-adv-x="579" 
d="M78 183l85 16q7 -62 40 -94.5t87 -32.5q63 0 98.5 42t35.5 114t-35.5 114t-98.5 42q-82 0 -141 -78l-53 12l38 382h334v-80h-261l-26 -203q45 47 115 47q100 0 157 -66q57 -64 57 -170q0 -105 -60 -171q-60 -65 -160 -65q-89 0 -145.5 50t-66.5 141z" />
    <glyph glyph-name="six" unicode="6" horiz-adv-x="577" 
d="M297 448q97 0 158 -66q63 -64 63 -162q0 -97 -63 -163q-62 -65 -158 -65t-159 65q-62 67 -62 163q0 68 36 129l207 359h96l-152 -267q14 7 34 7zM164 220q0 -64 37.5 -106t95.5 -42t95.5 42t37.5 106q0 67 -37 107.5t-96 40.5t-96 -40.5t-37 -107.5z" />
    <glyph glyph-name="seven" unicode="7" horiz-adv-x="482" 
d="M454 663l-272 -663h-88l257 620h-296v80h399v-37z" />
    <glyph glyph-name="eight" unicode="8" horiz-adv-x="584" 
d="M484 521q0 -45 -22 -85t-57 -59q49 -22 76.5 -68t27.5 -108q0 -96 -63 -153q-64 -56 -154 -56t-154 56q-63 57 -63 153q0 62 27.5 108t76.5 68q-35 19 -57 59t-22 85q0 79 54 133t138 54t138 -54t54 -133zM385 295q-37 35 -93 35t-93 -35q-36 -35 -36 -94t36 -94
q37 -35 93 -35t93 35q36 35 36 94t-36 94zM370 601q-28 31 -78 31q-49 0 -79 -31q-29 -32 -29 -80t29 -80q30 -31 79 -31q50 0 78 31q30 31 30 80q0 48 -30 80z" />
    <glyph glyph-name="nine" unicode="9" horiz-adv-x="577" 
d="M297 252q-96 0 -159 65q-62 67 -62 163q0 97 62 162q63 66 159 66q97 0 158 -66q63 -64 63 -162q0 -68 -36 -129l-207 -359h-96l152 267q-14 -7 -34 -7zM430 480q0 64 -37.5 106t-95.5 42t-95.5 -42t-37.5 -106q0 -67 37 -107.5t96 -40.5t96 40.5t37 107.5z" />
    <glyph glyph-name="colon" unicode=":" horiz-adv-x="306" 
d="M90 59q0 26 18 44.5t45 18.5q26 0 44.5 -18.5t18.5 -44.5q0 -27 -18.5 -45t-44.5 -18q-27 0 -45 18t-18 45zM90 403q0 26 18 44.5t45 18.5q26 0 44.5 -18.5t18.5 -44.5q0 -27 -18.5 -45t-44.5 -18q-27 0 -45 18t-18 45z" />
    <glyph glyph-name="semicolon" unicode=";" horiz-adv-x="306" 
d="M88 403q0 26 18 44.5t45 18.5q26 0 44.5 -18.5t18.5 -44.5q0 -27 -18.5 -45t-44.5 -18q-27 0 -45 18t-18 45zM100 -107h-64l66 217h114z" />
    <glyph glyph-name="less" unicode="&#x3c;" horiz-adv-x="455" 
d="M399 81l-349 185v88l349 185v-86l-267 -143l267 -143v-86z" />
    <glyph glyph-name="equal" unicode="=" horiz-adv-x="599" 
d="M499 356h-399v74h399v-74zM499 190h-399v74h399v-74z" />
    <glyph glyph-name="greater" unicode="&#x3e;" horiz-adv-x="455" 
d="M56 539l349 -185v-88l-349 -185v86l267 143l-267 143v86z" />
    <glyph glyph-name="question" unicode="?" horiz-adv-x="448" 
d="M163 63q0 29 19 48.5t47 19.5q29 0 48.5 -19.5t19.5 -48.5q0 -28 -19.5 -47t-48.5 -19q-28 0 -47 19t-19 47zM298 330l65 -23q-36 -106 -134 -106q-60 0 -96 33.5t-36 91.5q0 83 85 126q16 9 49.5 22.5t42.5 18.5q44 24 44 71q0 33 -22 52q-25 22 -65 22q-38 0 -65.5 -25
t-39.5 -68l-78 13q15 70 62.5 110t120.5 40q77 0 124 -44q45 -42 45 -105q0 -82 -76 -119l-101 -49q-49 -27 -49 -69q0 -24 14 -37.5t38 -13.5q46 0 72 59z" />
    <glyph glyph-name="at" unicode="@" horiz-adv-x="920" 
d="M579 459l10 50h66l-23 -252q0 -5 -0.5 -11t-1 -8.5t-0.5 -3.5q0 -52 47 -52q87 0 87 170q0 294 -288 294q-128 0 -219.5 -92t-91.5 -256q0 -149 92 -235q91 -85 218 -85q67 0 119 12q56 13 125 49l28 -67q-87 -39 -137 -52q-56 -14 -135 -14q-171 0 -283 108
q-111 109 -111 287q0 191 117 303q119 114 283 114q171 0 268 -96q99 -94 99 -270q0 -118 -47.5 -181t-127.5 -63q-38 0 -67.5 19t-44.5 50q-45 -69 -131 -69q-80 0 -126 52t-46 135q0 91 57 156q59 65 153 65q78 0 111 -57zM461 442q-57 0 -89 -41t-32 -109q0 -52 25 -81
t72 -29q56 0 89 42.5t33 107.5q0 110 -98 110z" />
    <glyph glyph-name="A" unicode="A" horiz-adv-x="592" 
d="M12 0l242 700h84l242 -700h-88l-62 187h-268l-62 -187h-88zM402 271l-106 315l-106 -315h212z" />
    <glyph glyph-name="B" unicode="B" horiz-adv-x="618" 
d="M97 0v700h236q92 0 144.5 -47.5t52.5 -132.5q0 -44 -21.5 -81t-57.5 -56q53 -21 83 -67t30 -108q0 -97 -58 -152.5t-160 -55.5h-249zM333 331h-148v-247h148q140 0 140 124q0 123 -140 123zM328 616h-143v-201h143q52 0 81.5 26t29.5 74t-29.5 74.5t-81.5 26.5z" />
    <glyph glyph-name="C" unicode="C" horiz-adv-x="688" 
d="M560 229l85 -25q-24 -96 -96 -154q-71 -58 -178 -58q-131 0 -224 94q-92 95 -92 264t92 264q93 94 224 94q105 0 178 -59q72 -59 96 -153l-85 -25q-50 153 -189 153q-100 0 -163 -71q-62 -71 -62 -203t62 -203q63 -71 163 -71q139 0 189 153z" />
    <glyph glyph-name="D" unicode="D" horiz-adv-x="666" 
d="M97 0v700h192q136 0 229 -94q93 -93 93 -256q0 -162 -93 -257q-93 -93 -229 -93h-192zM274 616h-89v-532h89q50 0 92.5 14.5t77 44.5t54 83t19.5 124t-19.5 124t-54 83t-77 44.5t-92.5 14.5z" />
    <glyph glyph-name="E" unicode="E" horiz-adv-x="566" 
d="M97 0v700h402v-84h-314v-201h254v-84h-254v-247h324v-84h-412z" />
    <glyph glyph-name="F" unicode="F" horiz-adv-x="538" 
d="M97 0v700h407v-84h-319v-209h259v-84h-259v-323h-88z" />
    <glyph glyph-name="G" unicode="G" horiz-adv-x="714" 
d="M564 269h-151v84h235v-353h-75l-9 96q-27 -47 -79 -75.5t-118 -28.5q-129 0 -221 93q-91 92 -91 265q0 171 92 265q92 93 224 93q107 0 179 -56.5t96 -155.5l-85 -25q-49 153 -190 153q-100 0 -163 -71q-62 -71 -62 -203t62 -203q63 -71 163 -71q86 0 136.5 52t56.5 141z
" />
    <glyph glyph-name="H" unicode="H" horiz-adv-x="690" 
d="M505 414v286h88v-700h-88v330h-320v-330h-88v700h88v-286h320z" />
    <glyph glyph-name="I" unicode="I" horiz-adv-x="282" 
d="M97 0v700h88v-700h-88z" />
    <glyph glyph-name="J" unicode="J" horiz-adv-x="509" 
d="M339 219v481h88v-485q0 -106 -58 -164q-57 -59 -146 -59q-88 0 -142.5 50.5t-69.5 132.5l89 19q25 -118 123 -118q116 0 116 143z" />
    <glyph glyph-name="K" unicode="K" horiz-adv-x="597" 
d="M274 386l308 -386h-112l-285 353v-353h-88v700h88v-281l261 281h112z" />
    <glyph glyph-name="L" unicode="L" horiz-adv-x="521" 
d="M97 0v700h88v-616h318v-84h-406z" />
    <glyph glyph-name="M" unicode="M" horiz-adv-x="784" 
d="M97 0v700h108l187 -493l187 493h108v-700h-88v510l-176 -446h-62l-176 446v-510h-88z" />
    <glyph glyph-name="N" unicode="N" horiz-adv-x="701" 
d="M516 153v547h88v-700h-103l-316 545v-545h-88v700h103z" />
    <glyph glyph-name="O" unicode="O" horiz-adv-x="738" 
d="M146 612q92 96 223 96t223 -96q91 -94 91 -262t-91 -263q-92 -95 -223 -95t-223 95q-91 95 -91 263t91 262zM529 553q-62 71 -160 71t-161 -71q-62 -71 -62 -203t62 -203q63 -71 161 -71t160 71q63 71 63 203t-63 203z" />
    <glyph glyph-name="P" unicode="P" horiz-adv-x="584" 
d="M341 300h-156v-300h-88v700h244q98 0 153 -53.5t55 -146.5t-55 -146.5t-153 -53.5zM185 384h161q54 0 83 30t29 86t-29 86t-83 30h-161v-232z" />
    <glyph glyph-name="Q" unicode="Q" horiz-adv-x="738" 
d="M683 350q0 -132 -63 -227l68 -67l-64 -64l-65 65q-83 -65 -190 -65q-131 0 -223 95q-91 95 -91 263t91 262q92 96 223 96t223 -96q91 -94 91 -262zM498 117l-82 83l64 64l76 -77q36 66 36 163q0 132 -63 203q-62 71 -160 71t-161 -71q-62 -71 -62 -203t62 -203
q63 -71 161 -71q76 0 129 41z" />
    <glyph glyph-name="R" unicode="R" horiz-adv-x="641" 
d="M599 0h-104l-205 330h-105v-330h-88v700h233q95 0 150.5 -49.5t55.5 -135.5q0 -72 -38.5 -118.5t-107.5 -60.5zM332 616h-147v-202h147q113 0 113 101t-113 101z" />
    <glyph glyph-name="S" unicode="S" horiz-adv-x="523" 
d="M440 596l-71 -46q-23 41 -48.5 57.5t-62.5 16.5q-36 0 -60 -25.5t-24 -61.5q0 -49 41 -81q29 -20 40 -26l54 -28q57 -29 92 -55q71 -53 75 -146q0 -85 -54 -143q-60 -66 -156 -66q-85 0 -147 53q-61 52 -79 136l76 46q22 -76 56.5 -113.5t93.5 -37.5q61 0 95 40
q27 33 27 83q0 43 -31.5 73t-100.5 63q-73 33 -118 72q-52 46 -52 123q0 76 51 127t121 51q67 0 110 -28t72 -84z" />
    <glyph glyph-name="T" unicode="T" horiz-adv-x="522" 
d="M217 616h-202v84h492v-84h-202v-616h-88v616z" />
    <glyph glyph-name="U" unicode="U" horiz-adv-x="654" 
d="M82 238v462h88v-468q0 -70 42 -113t115 -43t115 43t42 113v468h88v-462q0 -117 -70 -181q-70 -65 -175 -65t-176 65q-69 65 -69 181z" />
    <glyph glyph-name="V" unicode="V" horiz-adv-x="586" 
d="M293 125l192 575h93l-241 -700h-88l-241 700h93z" />
    <glyph glyph-name="W" unicode="W" horiz-adv-x="904" 
d="M641 130l142 570h93l-187 -700h-92l-145 481l-145 -481h-92l-187 700h93l142 -570l149 496h80z" />
    <glyph glyph-name="X" unicode="X" horiz-adv-x="576" 
d="M238 376l-190 324h101l139 -238l139 238h101l-190 -324l221 -376h-101l-170 290l-170 -290h-101z" />
    <glyph glyph-name="Y" unicode="Y" horiz-adv-x="506" 
d="M209 0v302l-205 398h97l152 -310l152 310h97l-205 -398v-302h-88z" />
    <glyph glyph-name="Z" unicode="Z" horiz-adv-x="555" 
d="M371 616h-314v84h439v-42l-326 -574h336v-84h-461v42z" />
    <glyph glyph-name="bracketleft" unicode="[" horiz-adv-x="323" 
d="M285 -50h-188v800h188v-76h-108v-648h108v-76z" />
    <glyph glyph-name="backslash" unicode="\" horiz-adv-x="543" 
d="M440 -50l-436 800h84l436 -800h-84z" />
    <glyph glyph-name="bracketright" unicode="]" horiz-adv-x="323" 
d="M38 674v76h188v-800h-188v76h108v648h-108z" />
    <glyph glyph-name="asciicircum" unicode="^" horiz-adv-x="556" 
d="M58 421l186 279h68l186 -279h-83l-137 203l-137 -203h-83z" />
    <glyph glyph-name="underscore" unicode="_" horiz-adv-x="459" 
d="M429 -74h-399v74h399v-74z" />
    <glyph glyph-name="grave" unicode="`" horiz-adv-x="228" 
d="M19 704h121l68 -144h-68z" />
    <glyph glyph-name="a" unicode="a" horiz-adv-x="518" 
d="M142 145q0 -36 21.5 -56.5t61.5 -20.5q58 0 99 37q42 37 42 117v12h-90q-64 0 -99 -23t-35 -66zM450 322v-322h-66l-14 71q-55 -79 -158 -79q-71 0 -113.5 39t-42.5 114q0 79 60.5 122t167.5 43h82v22q0 104 -110 104q-40 0 -68.5 -21t-36.5 -58l-74 17q10 63 58.5 100.5
t120.5 37.5q90 0 142 -48t52 -142z" />
    <glyph glyph-name="b" unicode="b" horiz-adv-x="601" 
d="M323 -8q-44 0 -86 20t-61 50v-62h-84v708h84v-264q13 23 58 46q43 22 89 22q106 0 165 -70.5t59 -189.5t-59 -189.5t-165 -70.5zM315 436q-67 0 -106.5 -50.5t-39.5 -133.5t39.5 -133.5t106.5 -50.5q66 0 106 51t40 133t-40 133t-106 51z" />
    <glyph glyph-name="c" unicode="c" horiz-adv-x="538" 
d="M421 161l73 -30q-61 -139 -211 -139q-110 0 -170 75q-59 77 -59 185t59 184q60 76 170 76q150 0 211 -139l-73 -30q-41 93 -138 93q-68 0 -105.5 -50.5t-37.5 -133.5t37.5 -133.5t105.5 -50.5q97 0 138 93z" />
    <glyph glyph-name="d" unicode="d" horiz-adv-x="601" 
d="M278 512q46 0 89 -22q45 -23 58 -46v264h84v-708h-84v62q-19 -30 -61 -50t-86 -20q-106 0 -165 70.5t-59 189.5t59 189.5t165 70.5zM286 68q67 0 106.5 50.5t39.5 133.5t-39.5 133.5t-106.5 50.5q-66 0 -106 -51t-40 -133t40 -133t106 -51z" />
    <glyph glyph-name="e" unicode="e" 
d="M510 273v-39h-370q4 -76 41 -121t101 -45q52 0 85 23t55 73l74 -32q-35 -74 -85.5 -107t-128.5 -33q-109 0 -169 75q-59 77 -59 185t59 184q60 76 169 76q107 0 167 -70q61 -68 61 -169zM282 436q-55 0 -90 -33.5t-47 -92.5h277q-12 59 -48 92.5t-92 33.5z" />
    <glyph glyph-name="f" unicode="f" horiz-adv-x="364" 
d="M119 428h-72v76h72v33q0 84 42 127.5t121 43.5q44 0 72 -16l-17 -74q-30 14 -56 14q-41 0 -59.5 -23t-18.5 -72v-33h116v-76h-116v-428h-84v428z" />
    <glyph glyph-name="g" unicode="g" horiz-adv-x="507" 
d="M90 342q0 75 50 122t126 47q50 0 91 -22l90 51l38 -69l-68 -38q25 -38 25 -91q0 -76 -50 -123q-50 -45 -126 -45q-50 0 -87 18q-33 -16 -33 -49q0 -42 57 -42h119q73 0 115.5 -36.5t42.5 -102.5q0 -85 -58 -129.5t-155 -44.5q-98 0 -156 44.5t-58 121.5q0 64 47 105
q-34 28 -34 80q0 62 61 93q-37 44 -37 110zM309 29h-102q-7 0 -37 2q-33 -25 -33 -74q0 -44 34 -69.5t96 -25.5t94.5 25t32.5 67q0 75 -85 75zM199 413q-27 -25 -27 -71t27 -71t67 -25t67 25t27 71t-27 71q-27 26 -67 26t-67 -26z" />
    <glyph glyph-name="h" unicode="h" horiz-adv-x="585" 
d="M499 350v-350h-84v333q0 103 -87 103q-59 0 -106 -62q-46 -61 -46 -160v-214h-84v708h84v-298q24 47 70.5 74.5t104.5 27.5q70 0 109 -42t39 -120z" />
    <glyph glyph-name="i" unicode="i" horiz-adv-x="270" 
d="M93 0v504h84v-504h-84zM72 644q0 27 18 45.5t45 18.5t45 -18.5t18 -45.5q0 -26 -18 -44t-45 -18t-45 18t-18 44z" />
    <glyph glyph-name="j" unicode="j" horiz-adv-x="270" 
d="M25 -212l-22 80q50 13 71 37.5t21 76.5v522h84v-530q0 -156 -154 -186zM72 644q0 27 18 45.5t45 18.5t45 -18.5t18 -45.5q0 -26 -18 -44t-45 -18t-45 18t-18 44z" />
    <glyph glyph-name="k" unicode="k" horiz-adv-x="511" 
d="M92 0v708h84v-415l196 211h108l-214 -231l230 -273h-107l-213 253v-253h-84z" />
    <glyph glyph-name="l" unicode="l" horiz-adv-x="258" 
d="M90 0v708h84v-708h-84z" />
    <glyph glyph-name="m" unicode="m" horiz-adv-x="862" 
d="M774 355v-355h-84v337q0 99 -81 99q-58 0 -96 -62.5t-38 -166.5v-207h-84v337q0 99 -81 99q-58 0 -96 -62.5t-38 -166.5v-207h-84v504h84v-93q51 101 157 101q52 0 87.5 -27.5t47.5 -77.5q56 105 164 105q68 0 105 -41t37 -116z" />
    <glyph glyph-name="n" unicode="n" horiz-adv-x="577" 
d="M491 355v-355h-84v333q0 103 -87 103q-58 0 -102 -62q-42 -62 -42 -163v-211h-84v504h84v-93q57 101 167 101q69 0 108.5 -41t39.5 -116z" />
    <glyph glyph-name="o" unicode="o" horiz-adv-x="592" 
d="M120 68q-66 77 -66 184q0 106 66 183q68 77 176 77q109 0 175 -77q67 -76 67 -183q0 -108 -67 -184q-66 -76 -175 -76t-176 76zM181 381q-41 -55 -41 -129t41 -130q42 -54 115 -54q74 0 114 54q42 56 42 130q0 75 -42 129q-40 55 -114 55q-73 0 -115 -55z" />
    <glyph glyph-name="p" unicode="p" horiz-adv-x="601" 
d="M323 -8q-46 0 -89 22q-45 23 -58 46v-264h-84v708h84v-62q19 30 61 50t86 20q106 0 165 -70.5t59 -189.5t-59 -189.5t-165 -70.5zM315 436q-67 0 -106.5 -50.5t-39.5 -133.5t39.5 -133.5t106.5 -50.5q66 0 106 51t40 133t-40 133t-106 51z" />
    <glyph glyph-name="q" unicode="q" horiz-adv-x="601" 
d="M278 512q44 0 86 -20t61 -50v62h84v-708h-84v264q-13 -23 -58 -46q-43 -22 -89 -22q-106 0 -165 70.5t-59 189.5t59 189.5t165 70.5zM286 68q67 0 106.5 50.5t39.5 133.5t-39.5 133.5t-106.5 50.5q-66 0 -106 -51t-40 -133t40 -133t106 -51z" />
    <glyph glyph-name="r" unicode="r" horiz-adv-x="413" 
d="M393 497l-17 -75q-30 14 -59 14q-57 0 -99 -65t-42 -180v-191h-84v504h84v-86q21 41 63 67.5t85 26.5q40 0 69 -15z" />
    <glyph glyph-name="s" unicode="s" horiz-adv-x="461" 
d="M236 512q92 0 146 -77l-57 -49q-47 50 -92 50q-27 0 -44 -17.5t-17 -46.5q0 -24 24 -42.5t58.5 -32t69 -29.5t58.5 -45.5t24 -70.5q0 -75 -45 -117.5t-122 -42.5q-68 0 -116.5 37.5t-71.5 98.5l71 39q40 -99 117 -99q81 0 81 79q0 44 -82 73q-27 10 -42 16.5t-38.5 20.5
t-36.5 28t-23 37t-10 51q0 61 41 100t107 39z" />
    <glyph glyph-name="t" unicode="t" horiz-adv-x="378" 
d="M112 428h-87v76h87v151l84 53v-204h132v-76h-132v-277q0 -40 17.5 -61.5t49.5 -21.5q34 0 57 16l20 -73q-32 -19 -82 -19q-68 0 -107 43t-39 123v270z" />
    <glyph glyph-name="u" unicode="u" horiz-adv-x="577" 
d="M86 149v355h84v-333q0 -103 87 -103q59 0 101 62q43 61 43 163v211h84v-504h-84v93q-57 -101 -167 -101q-69 0 -108.5 41t-39.5 116z" />
    <glyph glyph-name="v" unicode="v" horiz-adv-x="456" 
d="M228 107l123 397h86l-166 -504h-86l-166 504h86z" />
    <glyph glyph-name="w" unicode="w" horiz-adv-x="738" 
d="M510 117l103 387h88l-153 -504h-80l-99 383l-99 -383h-80l-153 504h88l103 -387l99 387h84z" />
    <glyph glyph-name="x" unicode="x" horiz-adv-x="458" 
d="M182 266l-146 238h95l98 -160l98 160h95l-146 -238l164 -266h-95l-116 189l-116 -189h-95z" />
    <glyph glyph-name="y" unicode="y" horiz-adv-x="460" 
d="M235 140l125 364h88l-250 -708h-86l80 225l-177 483h92z" />
    <glyph glyph-name="z" unicode="z" horiz-adv-x="456" 
d="M288 428h-225v76h338v-36l-239 -392h248v-76h-360v36z" />
    <glyph glyph-name="braceleft" unicode="{" horiz-adv-x="318" 
d="M142 50v182q0 45 -17.5 62.5t-62.5 17.5v76q45 0 62.5 17.5t17.5 62.5v182q0 45 27.5 72.5t72.5 27.5h48v-76h-23q-24 0 -34.5 -10.5t-10.5 -34.5v-181q0 -45 -17.5 -66.5t-54.5 -31.5q37 -10 54.5 -31.5t17.5 -66.5v-181q0 -24 10.5 -34.5t34.5 -10.5h23v-76h-48
q-45 0 -72.5 27.5t-27.5 72.5z" />
    <glyph glyph-name="bar" unicode="|" horiz-adv-x="274" 
d="M97 -50v800h80v-800h-80z" />
    <glyph glyph-name="braceright" unicode="}" horiz-adv-x="318" 
d="M176 232v-182q0 -45 -27.5 -72.5t-72.5 -27.5h-48v76h23q24 0 34.5 10.5t10.5 34.5v181q0 45 17.5 66.5t54.5 31.5q-37 10 -54.5 31.5t-17.5 66.5v181q0 24 -10.5 34.5t-34.5 10.5h-23v76h48q45 0 72.5 -27.5t27.5 -72.5v-182q0 -45 17.5 -62.5t62.5 -17.5v-76
q-45 0 -62.5 -17.5t-17.5 -62.5z" />
    <glyph glyph-name="asciitilde" unicode="~" horiz-adv-x="628" 
d="M129 268l-49 50q22 41 57 65t75 24q45 0 102 -25t92 -25q56 0 93 45l49 -51q-22 -42 -56.5 -65t-75.5 -23q-45 0 -102 25q-56 25 -92 25q-56 0 -93 -45z" />
    <glyph glyph-name="nbspace" unicode="&#xa0;" horiz-adv-x="268" 
 />
    <glyph glyph-name="exclamdown" unicode="&#xa1;" horiz-adv-x="345" 
d="M203 294l24 -500h-114l24 500h66zM100 429q0 29 20 48.5t50 19.5t50 -19.5t20 -48.5q0 -30 -20 -50.5t-50 -20.5t-50 20.5t-20 50.5z" />
    <glyph glyph-name="cent" unicode="&#xa2;" 
d="M427 259l73 -30q-52 -120 -171 -137v-142h-80v143q-90 13 -140 86q-49 73 -49 171q0 99 49 170q50 74 140 87v143h80v-142q119 -17 171 -137l-73 -30q-39 92 -138 92q-68 0 -105.5 -50.5t-37.5 -132.5t37.5 -132.5t105.5 -50.5q99 0 138 92z" />
    <glyph glyph-name="sterling" unicode="&#xa3;" horiz-adv-x="543" 
d="M146 324h-81v80h53q-18 54 -18 103q0 92 52.5 146.5t140.5 54.5q70 0 121 -36t75 -102l-75 -35q-22 50 -50.5 71.5t-70.5 21.5q-49 0 -79 -31.5t-30 -90.5q0 -55 16 -102h164v-80h-138q7 -29 7 -63q0 -101 -79 -177q40 27 87 27q29 0 67 -20q37 -19 56 -19q27 0 47 14.5
t43 53.5l66 -36q-60 -112 -151 -112q-41 0 -87 20q-45 20 -67 20q-60 0 -113 -40l-57 62q60 57 85.5 102t25.5 95q0 37 -10 73z" />
    <glyph glyph-name="currency" unicode="&#xa4;" horiz-adv-x="554" 
d="M114 422l-88 67l69 69l67 -87q51 38 115 38t115 -38l67 87l69 -69l-88 -67q35 -51 35 -115t-35 -115l88 -67l-69 -69l-67 87q-51 -38 -115 -38t-115 38l-67 -87l-69 69l88 67q-35 51 -35 115t35 115zM191 398q-32 -35 -32 -91t32 -91q33 -35 86 -35t85 35q33 34 33 91
t-33 91q-32 35 -85 35t-86 -35z" />
    <glyph glyph-name="yen" unicode="&#xa5;" horiz-adv-x="504" 
d="M168 387l-157 313h97l144 -302l144 302h97l-157 -313h116v-80h-156v-80h156v-80h-156v-147h-88v147h-156v80h156v80h-156v80h116z" />
    <glyph glyph-name="brokenbar" unicode="&#xa6;" horiz-adv-x="274" 
d="M97 -50v349h80v-349h-80zM177 750v-349h-80v349h80z" />
    <glyph glyph-name="section" unicode="&#xa7;" horiz-adv-x="540" 
d="M66 274q0 47 17.5 78t55.5 59q-41 47 -41 111q0 86 51 135q53 51 122 51q150 0 187 -148l-77 -25q-27 93 -110 93q-38 0 -63.5 -28.5t-25.5 -73.5q0 -53 38 -81q17 -12 39 -25q24 -13 56 -27t60 -29q101 -54 101 -142q0 -47 -17.5 -78t-55.5 -59q41 -47 41 -111
q0 -86 -52 -135q-51 -51 -121 -51q-150 0 -187 148l77 25q27 -93 110 -93q38 0 63.5 28.5t25.5 73.5q0 53 -38 80q-18 14 -40 26q-20 11 -55 27q-32 14 -60 29q-101 54 -101 142zM143 283q0 -26 19 -49.5t46 -37.5l68 -31q41 -18 67 -33q56 30 56 81q0 26 -19.5 49.5
t-46.5 36.5q-17 10 -67 32q-41 18 -67 33q-56 -30 -56 -81z" />
    <glyph glyph-name="dieresis" unicode="&#xa8;" horiz-adv-x="319" 
d="M76 708q25 0 41 -16.5t16 -40.5t-16 -40t-41 -16q-23 0 -39.5 16t-16.5 40t16.5 40.5t39.5 16.5zM242 708q25 0 41 -16.5t16 -40.5t-16 -40t-41 -16q-23 0 -39.5 16t-16.5 40t16.5 40.5t39.5 16.5z" />
    <glyph glyph-name="copyright" unicode="&#xa9;" horiz-adv-x="900" 
d="M178 71q-108 113 -108 279q0 167 108 278q109 112 272 112t271 -112q109 -110 109 -278q0 -167 -109 -279q-108 -111 -271 -111q-162 0 -272 111zM233 574q-83 -91 -83 -224t83 -224q83 -90 217 -90t217 90q83 91 83 224t-83 224q-83 90 -217 90t-217 -90zM553 282
l70 -17q-12 -60 -59.5 -95.5t-113.5 -35.5q-79 0 -137 55q-59 56 -59 161q0 104 59 160t137 56q66 0 113.5 -35.5t59.5 -95.5l-70 -17q-25 78 -103 78q-55 0 -87.5 -37t-32.5 -109t32.5 -109t87.5 -37q78 0 103 78z" />
    <glyph glyph-name="ordfeminine" unicode="&#xaa;" horiz-adv-x="437" 
d="M129 416q0 -29 17.5 -44.5t48.5 -15.5q47 0 79 31t32 89v13h-71q-50 0 -78 -19.5t-28 -53.5zM372 555v-255h-54l-9 58q-44 -62 -125 -62q-55 0 -88 31t-33 89q0 62 47 95.5t131 33.5h65v17q0 82 -87 82q-31 0 -53.5 -16.5t-29.5 -45.5l-58 13q10 49 50 79t96 30
q70 0 109 -38t39 -111z" />
    <glyph glyph-name="guillemotleft" unicode="&#xab;" horiz-adv-x="611" 
d="M555 80l-277 199v62l277 199v-90l-195 -140l195 -140v-90zM325 80l-277 199v62l277 199v-90l-195 -140l195 -140v-90z" />
    <glyph glyph-name="logicalnot" unicode="&#xac;" horiz-adv-x="581" 
d="M418 313h-349v76h433v-247h-84v171z" />
    <glyph glyph-name="uni00AD" unicode="&#xad;" horiz-adv-x="481" 
d="M410 280h-339v74h339v-74z" />
    <glyph glyph-name="registered" unicode="&#xae;" horiz-adv-x="900" 
d="M178 71q-108 113 -108 279q0 167 108 278q109 112 272 112t271 -112q109 -110 109 -278q0 -167 -109 -279q-108 -111 -271 -111q-162 0 -272 111zM233 574q-83 -91 -83 -224t83 -224q83 -90 217 -90t217 90q83 91 83 224t-83 224q-83 90 -217 90t-217 -90zM628 137h-82
l-126 182h-38v-182h-72v426h153q63 0 97.5 -32.5t34.5 -89.5q0 -45 -26 -77.5t-68 -40.5zM462 493h-80v-104h80q61 0 61 52t-61 52z" />
    <glyph glyph-name="overscore" unicode="&#xaf;" horiz-adv-x="273" 
d="M261 632h-249v76h249v-76z" />
    <glyph glyph-name="degree" unicode="&#xb0;" horiz-adv-x="356" 
d="M97 513q-31 31 -31 80q0 48 31 79q32 32 81 32q48 0 80 -32t32 -79q0 -48 -32 -80q-31 -31 -80 -31q-50 0 -81 31zM143 628q-13 -13 -13 -35t13 -36q13 -13 35 -13t35 13q13 14 13 36t-13 35q-13 14 -35 14t-35 -14z" />
    <glyph glyph-name="plusminus" unicode="&#xb1;" horiz-adv-x="568" 
d="M248 436v183h74v-183h183v-74h-183v-183h-74v183h-183v74h183zM505 0h-440v74h440v-74z" />
    <glyph glyph-name="twosuperior" unicode="&#xb2;" horiz-adv-x="382" 
d="M131 575l-64 17q5 49 39 80.5t84 31.5q56 0 88 -31t32 -85q0 -56 -38 -103l-103 -125h151v-60h-258v25l149 184q33 41 33 77q0 58 -54 58q-24 0 -40 -18.5t-19 -50.5z" />
    <glyph glyph-name="threesuperior" unicode="&#xb3;" horiz-adv-x="389" 
d="M62 415l64 9q4 -32 22.5 -50t46.5 -18q32 0 49 20.5t17 54.5q0 33 -17 52t-49 19q-21 0 -37 -11l-31 41l82 108h-128v60h223v-23l-94 -126q52 0 84.5 -33.5t32.5 -86.5q0 -60 -36.5 -97.5t-95.5 -37.5q-56 0 -92.5 32.5t-40.5 86.5z" />
    <glyph glyph-name="acute" unicode="&#xb4;" horiz-adv-x="228" 
d="M88 560h-68l68 144h121z" />
    <glyph glyph-name="mu" unicode="&#xb5;" horiz-adv-x="577" 
d="M170 3v-207h-84v708h84v-333q0 -103 87 -103q59 0 101 62q43 61 43 163v211h84v-504h-84v93q-57 -101 -167 -101q-34 0 -64 11z" />
    <glyph glyph-name="paragraph" unicode="&#xb6;" horiz-adv-x="685" 
d="M253 700h366v-76h-62v-828h-84v828h-136v-828h-84v518q-79 0 -137 56q-56 58 -56 137q0 80 56 136q57 57 137 57z" />
    <glyph glyph-name="middot" unicode="&#xb7;" horiz-adv-x="306" 
d="M90 349q0 26 18 44.5t45 18.5q26 0 44.5 -18.5t18.5 -44.5q0 -27 -18.5 -45t-44.5 -18q-27 0 -45 18t-18 45z" />
    <glyph glyph-name="cedilla" unicode="&#xb8;" horiz-adv-x="198" 
d="M118 -60h70l-83 -175l-95 45z" />
    <glyph glyph-name="onesuperior" unicode="&#xb9;" horiz-adv-x="292" 
d="M57 639l127 61h22v-400h-63v309l-86 -40v70z" />
    <glyph glyph-name="ordmasculine" unicode="&#xba;" horiz-adv-x="516" 
d="M69 500q0 84 51 144q52 60 138 60q84 0 137 -60q52 -59 52 -144q0 -86 -52 -145q-53 -59 -137 -59q-85 0 -138 59q-51 60 -51 145zM258 355q58 0 89 43q33 44 33 102t-32 101q-31 43 -90 43q-58 0 -91 -43q-32 -43 -32 -101t32 -102q33 -43 91 -43z" />
    <glyph glyph-name="guillemotright" unicode="&#xbb;" horiz-adv-x="611" 
d="M56 540l277 -199v-62l-277 -199v90l195 140l-195 140v90zM286 540l277 -199v-62l-277 -199v90l195 140l-195 140v90z" />
    <glyph glyph-name="onequarter" unicode="&#xbc;" horiz-adv-x="794" 
d="M78 639l127 61h22v-400h-63v309l-86 -40v70zM104 11l538 718l50 -39l-538 -719zM661 0h-63v77h-170v26l161 297h72v-263h47v-60h-47v-77zM598 307l-88 -170h88v170z" />
    <glyph glyph-name="onehalf" unicode="&#xbd;" horiz-adv-x="859" 
d="M78 639l127 61h22v-400h-63v309l-86 -40v70zM568 275l-64 17q5 49 39 80.5t84 31.5q56 0 88 -31t32 -85q0 -56 -38 -103l-103 -125h151v-60h-258v25l149 184q33 41 33 77q0 58 -54 58q-24 0 -40 -18.5t-19 -50.5zM104 11l538 718l50 -39l-538 -719z" />
    <glyph glyph-name="threequarters" unicode="&#xbe;" horiz-adv-x="855" 
d="M168 11l538 718l50 -39l-538 -719zM62 415l64 9q4 -32 22.5 -50t46.5 -18q32 0 49 20.5t17 54.5q0 33 -17 52t-49 19q-21 0 -37 -11l-31 41l82 108h-128v60h223v-23l-94 -126q52 0 84.5 -33.5t32.5 -86.5q0 -60 -36.5 -97.5t-95.5 -37.5q-56 0 -92.5 32.5t-40.5 86.5z
M722 0h-63v77h-170v26l161 297h72v-263h47v-60h-47v-77zM659 307l-88 -170h88v170z" />
    <glyph glyph-name="questiondown" unicode="&#xbf;" horiz-adv-x="448" 
d="M285 431q0 -29 -19 -48.5t-47 -19.5q-29 0 -48.5 19.5t-19.5 48.5q0 28 19.5 47t48.5 19q28 0 47 -19t19 -47zM150 164l-65 23q36 106 134 106q60 0 96 -33.5t36 -91.5q0 -83 -85 -126q-16 -9 -49.5 -22.5t-42.5 -18.5q-44 -24 -44 -71q0 -33 22 -52q25 -22 65 -22
q38 0 65.5 25t39.5 68l78 -13q-15 -70 -62.5 -110t-120.5 -40q-77 0 -124 44q-45 42 -45 105q0 82 76 119l101 49q49 27 49 69q0 24 -14 37.5t-38 13.5q-46 0 -72 -59z" />
    <glyph glyph-name="Agrave" unicode="&#xc0;" horiz-adv-x="592" 
d="M12 0l242 700h84l242 -700h-88l-62 187h-268l-62 -187h-88zM402 271l-106 315l-106 -315h212zM158 900h121l68 -144h-68z" />
    <glyph glyph-name="Aacute" unicode="&#xc1;" horiz-adv-x="592" 
d="M12 0l242 700h84l242 -700h-88l-62 187h-268l-62 -187h-88zM402 271l-106 315l-106 -315h212zM303 756h-68l68 144h121z" />
    <glyph glyph-name="Acircumflex" unicode="&#xc2;" horiz-adv-x="592" 
d="M12 0l242 700h84l242 -700h-88l-62 187h-268l-62 -187h-88zM402 271l-106 315l-106 -315h212zM219 762h-86l153 164h26l153 -164h-86l-80 85z" />
    <glyph glyph-name="Atilde" unicode="&#xc3;" horiz-adv-x="592" 
d="M12 0l242 700h84l242 -700h-88l-62 187h-268l-62 -187h-88zM402 271l-106 315l-106 -315h212zM169 782l-49 38q41 76 107 76q35 0 72 -20t59 -20q38 0 66 36l49 -39q-18 -34 -46.5 -54.5t-60.5 -20.5q-35 0 -72 20t-59 20q-37 0 -66 -36z" />
    <glyph glyph-name="Adieresis" unicode="&#xc4;" horiz-adv-x="592" 
d="M12 0l242 700h84l242 -700h-88l-62 187h-268l-62 -187h-88zM402 271l-106 315l-106 -315h212zM213 904q25 0 41 -16.5t16 -40.5t-16 -40t-41 -16q-23 0 -39.5 16t-16.5 40t16.5 40.5t39.5 16.5zM379 904q25 0 41 -16.5t16 -40.5t-16 -40t-41 -16q-23 0 -39.5 16t-16.5 40
t16.5 40.5t39.5 16.5z" />
    <glyph glyph-name="Aring" unicode="&#xc5;" horiz-adv-x="592" 
d="M12 0l242 700h84l242 -700h-88l-62 187h-268l-62 -187h-88zM402 271l-106 315l-106 -315h212zM197 849q0 42 28.5 71t70.5 29t70.5 -29t28.5 -71q0 -41 -28 -68.5t-71 -27.5q-42 0 -70.5 27.5t-28.5 68.5zM253 850q-2 -27 20.5 -38t45 0t20.5 38q2 28 -20.5 40t-45 0
t-20.5 -40z" />
    <glyph glyph-name="AE" unicode="&#xc6;" horiz-adv-x="830" 
d="M10 0l305 700h448v-84h-314v-201h254v-84h-254v-247h324v-84h-412v187h-181l-80 -187h-90zM361 585h-10l-135 -314h145v314z" />
    <glyph glyph-name="Ccedilla" unicode="&#xc7;" horiz-adv-x="688" 
d="M560 229l85 -25q-24 -96 -96 -154q-71 -58 -178 -58q-131 0 -224 94q-92 95 -92 264t92 264q93 94 224 94q105 0 178 -59q72 -59 96 -153l-85 -25q-50 153 -189 153q-100 0 -163 -71q-62 -71 -62 -203t62 -203q63 -71 163 -71q139 0 189 153zM362 -60h70l-83 -175l-95 45
z" />
    <glyph glyph-name="Egrave" unicode="&#xc8;" horiz-adv-x="566" 
d="M97 0v700h402v-84h-314v-201h254v-84h-254v-247h324v-84h-412zM186 900h121l68 -144h-68z" />
    <glyph glyph-name="Eacute" unicode="&#xc9;" horiz-adv-x="566" 
d="M97 0v700h402v-84h-314v-201h254v-84h-254v-247h324v-84h-412zM297 756h-68l68 144h121z" />
    <glyph glyph-name="Ecircumflex" unicode="&#xca;" horiz-adv-x="566" 
d="M97 0v700h402v-84h-314v-201h254v-84h-254v-247h324v-84h-412zM236 762h-86l153 164h26l153 -164h-86l-80 85z" />
    <glyph glyph-name="Edieresis" unicode="&#xcb;" horiz-adv-x="566" 
d="M97 0v700h402v-84h-314v-201h254v-84h-254v-247h324v-84h-412zM220 904q25 0 41 -16.5t16 -40.5t-16 -40t-41 -16q-23 0 -39.5 16t-16.5 40t16.5 40.5t39.5 16.5zM386 904q25 0 41 -16.5t16 -40.5t-16 -40t-41 -16q-23 0 -39.5 16t-16.5 40t16.5 40.5t39.5 16.5z" />
    <glyph glyph-name="Igrave" unicode="&#xcc;" horiz-adv-x="282" 
d="M97 0v700h88v-700h-88zM16 900h121l68 -144h-68z" />
    <glyph glyph-name="Iacute" unicode="&#xcd;" horiz-adv-x="282" 
d="M97 0v700h88v-700h-88zM144 756h-68l68 144h121z" />
    <glyph glyph-name="Icircumflex" unicode="&#xce;" horiz-adv-x="282" 
d="M97 0v700h88v-700h-88zM64 762h-86l153 164h26l153 -164h-86l-80 85z" />
    <glyph glyph-name="Idieresis" unicode="&#xcf;" horiz-adv-x="282" 
d="M97 0v700h88v-700h-88zM58 904q25 0 41 -16.5t16 -40.5t-16 -40t-41 -16q-23 0 -39.5 16t-16.5 40t16.5 40.5t39.5 16.5zM224 904q25 0 41 -16.5t16 -40.5t-16 -40t-41 -16q-23 0 -39.5 16t-16.5 40t16.5 40.5t39.5 16.5z" />
    <glyph glyph-name="Eth" unicode="&#xd0;" horiz-adv-x="687" 
d="M118 308h-83v84h83v308h192q136 0 229 -94q93 -93 93 -256q0 -162 -93 -257q-93 -93 -229 -93h-192v308zM295 616h-89v-224h83v-84h-83v-224h89q50 0 92.5 14.5t77 44.5t54 83t19.5 124t-19.5 124t-54 83t-77 44.5t-92.5 14.5z" />
    <glyph glyph-name="Ntilde" unicode="&#xd1;" horiz-adv-x="701" 
d="M516 153v547h88v-700h-103l-316 545v-545h-88v700h103zM228 782l-49 38q41 76 107 76q35 0 72 -20t59 -20q37 0 66 36l49 -39q-18 -34 -46.5 -54.5t-60.5 -20.5q-35 0 -72 20t-59 20q-38 0 -66 -36z" />
    <glyph glyph-name="Ograve" unicode="&#xd2;" horiz-adv-x="738" 
d="M146 612q92 96 223 96t223 -96q91 -94 91 -262t-91 -263q-92 -95 -223 -95t-223 95q-91 95 -91 263t91 262zM529 553q-62 71 -160 71t-161 -71q-62 -71 -62 -203t62 -203q63 -71 161 -71t160 71q63 71 63 203t-63 203zM254 900h121l68 -144h-68z" />
    <glyph glyph-name="Oacute" unicode="&#xd3;" horiz-adv-x="738" 
d="M146 612q92 96 223 96t223 -96q91 -94 91 -262t-91 -263q-92 -95 -223 -95t-223 95q-91 95 -91 263t91 262zM529 553q-62 71 -160 71t-161 -71q-62 -71 -62 -203t62 -203q63 -71 161 -71t160 71q63 71 63 203t-63 203zM362 756h-68l68 144h121z" />
    <glyph glyph-name="Ocircumflex" unicode="&#xd4;" horiz-adv-x="738" 
d="M146 612q92 96 223 96t223 -96q91 -94 91 -262t-91 -263q-92 -95 -223 -95t-223 95q-91 95 -91 263t91 262zM529 553q-62 71 -160 71t-161 -71q-62 -71 -62 -203t62 -203q63 -71 161 -71t160 71q63 71 63 203t-63 203zM292 762h-86l153 164h26l153 -164h-86l-80 85z" />
    <glyph glyph-name="Otilde" unicode="&#xd5;" horiz-adv-x="738" 
d="M146 612q92 96 223 96t223 -96q91 -94 91 -262t-91 -263q-92 -95 -223 -95t-223 95q-91 95 -91 263t91 262zM529 553q-62 71 -160 71t-161 -71q-62 -71 -62 -203t62 -203q63 -71 161 -71t160 71q63 71 63 203t-63 203zM242 782l-49 38q41 76 107 76q35 0 72 -20t59 -20
q37 0 66 36l49 -39q-18 -34 -46.5 -54.5t-60.5 -20.5q-35 0 -72 20t-59 20q-38 0 -66 -36z" />
    <glyph glyph-name="Odieresis" unicode="&#xd6;" horiz-adv-x="738" 
d="M146 612q92 96 223 96t223 -96q91 -94 91 -262t-91 -263q-92 -95 -223 -95t-223 95q-91 95 -91 263t91 262zM529 553q-62 71 -160 71t-161 -71q-62 -71 -62 -203t62 -203q63 -71 161 -71t160 71q63 71 63 203t-63 203zM286 904q25 0 41 -16.5t16 -40.5t-16 -40t-41 -16
q-23 0 -39.5 16t-16.5 40t16.5 40.5t39.5 16.5zM452 904q25 0 41 -16.5t16 -40.5t-16 -40t-41 -16q-23 0 -39.5 16t-16.5 40t16.5 40.5t39.5 16.5z" />
    <glyph glyph-name="multiply" unicode="&#xd7;" horiz-adv-x="554" 
d="M277 371l158 158l52 -52l-158 -158l158 -158l-52 -52l-158 158l-158 -158l-52 52l158 158l-158 158l52 52z" />
    <glyph glyph-name="Oslash" unicode="&#xd8;" horiz-adv-x="738" 
d="M369 708q105 0 183 -60l61 79l59 -44l-67 -86q78 -98 78 -247q0 -168 -91 -263q-92 -95 -223 -95q-105 0 -183 60l-61 -79l-59 44l67 86q-78 97 -78 247q0 168 91 262q92 96 223 96zM592 350q0 107 -43 174l-311 -405q55 -43 131 -43q98 0 160 71q63 71 63 203zM369 624
q-98 0 -161 -71q-62 -71 -62 -203q0 -107 43 -174l311 405q-55 43 -131 43z" />
    <glyph glyph-name="Ugrave" unicode="&#xd9;" horiz-adv-x="654" 
d="M82 238v462h88v-468q0 -70 42 -113t115 -43t115 43t42 113v468h88v-462q0 -117 -70 -181q-70 -65 -175 -65t-176 65q-69 65 -69 181zM217 900h121l68 -144h-68z" />
    <glyph glyph-name="Uacute" unicode="&#xda;" horiz-adv-x="654" 
d="M82 238v462h88v-468q0 -70 42 -113t115 -43t115 43t42 113v468h88v-462q0 -117 -70 -181q-70 -65 -175 -65t-176 65q-69 65 -69 181zM315 756h-68l68 144h121z" />
    <glyph glyph-name="Ucircumflex" unicode="&#xdb;" horiz-adv-x="654" 
d="M82 238v462h88v-468q0 -70 42 -113t115 -43t115 43t42 113v468h88v-462q0 -117 -70 -181q-70 -65 -175 -65t-176 65q-69 65 -69 181zM250 762h-86l153 164h26l153 -164h-86l-80 85z" />
    <glyph glyph-name="Udieresis" unicode="&#xdc;" horiz-adv-x="654" 
d="M82 238v462h88v-468q0 -70 42 -113t115 -43t115 43t42 113v468h88v-462q0 -117 -70 -181q-70 -65 -175 -65t-176 65q-69 65 -69 181zM244 904q25 0 41 -16.5t16 -40.5t-16 -40t-41 -16q-23 0 -39.5 16t-16.5 40t16.5 40.5t39.5 16.5zM410 904q25 0 41 -16.5t16 -40.5
t-16 -40t-41 -16q-23 0 -39.5 16t-16.5 40t16.5 40.5t39.5 16.5z" />
    <glyph glyph-name="Yacute" unicode="&#xdd;" horiz-adv-x="506" 
d="M209 0v302l-205 398h97l152 -310l152 310h97l-205 -398v-302h-88zM267 756h-68l68 144h121z" />
    <glyph glyph-name="Thorn" unicode="&#xde;" horiz-adv-x="584" 
d="M341 150h-156v-150h-88v700h88v-150h156q98 0 153 -53.5t55 -146.5t-55 -146.5t-153 -53.5zM185 234h161q54 0 83 30t29 86t-29 86t-83 30h-161v-232z" />
    <glyph glyph-name="germandbls" unicode="&#xdf;" horiz-adv-x="554" 
d="M88 346h-50v74h50v85q0 97 54 150q55 53 135 53q87 0 136.5 -49.5t49.5 -129.5q0 -53 -25 -89.5t-65 -49.5q55 -11 95 -57q42 -47 42 -121q0 -108 -57 -164t-158 -56q-43 0 -71 7v76q32 -7 71 -7q63 0 97 35t34 103t-37 104t-104 36h-35v74h35q98 0 98 106q0 50 -28.5 78
t-77.5 28q-50 0 -77.5 -33.5t-27.5 -96.5v-502h-84v346z" />
    <glyph glyph-name="agrave" unicode="&#xe0;" horiz-adv-x="518" 
d="M142 145q0 -36 21.5 -56.5t61.5 -20.5q58 0 99 37q42 37 42 117v12h-90q-64 0 -99 -23t-35 -66zM450 322v-322h-66l-14 71q-55 -79 -158 -79q-71 0 -113.5 39t-42.5 114q0 79 60.5 122t167.5 43h82v22q0 104 -110 104q-40 0 -68.5 -21t-36.5 -58l-74 17q10 63 58.5 100.5
t120.5 37.5q90 0 142 -48t52 -142zM135 704h121l68 -144h-68z" />
    <glyph glyph-name="aacute" unicode="&#xe1;" horiz-adv-x="518" 
d="M142 145q0 -36 21.5 -56.5t61.5 -20.5q58 0 99 37q42 37 42 117v12h-90q-64 0 -99 -23t-35 -66zM450 322v-322h-66l-14 71q-55 -79 -158 -79q-71 0 -113.5 39t-42.5 114q0 79 60.5 122t167.5 43h82v22q0 104 -110 104q-40 0 -68.5 -21t-36.5 -58l-74 17q10 63 58.5 100.5
t120.5 37.5q90 0 142 -48t52 -142zM249 560h-68l68 144h121z" />
    <glyph glyph-name="acircumflex" unicode="&#xe2;" horiz-adv-x="518" 
d="M142 145q0 -36 21.5 -56.5t61.5 -20.5q58 0 99 37q42 37 42 117v12h-90q-64 0 -99 -23t-35 -66zM450 322v-322h-66l-14 71q-55 -79 -158 -79q-71 0 -113.5 39t-42.5 114q0 79 60.5 122t167.5 43h82v22q0 104 -110 104q-40 0 -68.5 -21t-36.5 -58l-74 17q10 63 58.5 100.5
t120.5 37.5q90 0 142 -48t52 -142zM180 566h-86l153 164h26l153 -164h-86l-80 85z" />
    <glyph glyph-name="atilde" unicode="&#xe3;" horiz-adv-x="518" 
d="M142 145q0 -36 21.5 -56.5t61.5 -20.5q58 0 99 37q42 37 42 117v12h-90q-64 0 -99 -23t-35 -66zM450 322v-322h-66l-14 71q-55 -79 -158 -79q-71 0 -113.5 39t-42.5 114q0 79 60.5 122t167.5 43h82v22q0 104 -110 104q-40 0 -68.5 -21t-36.5 -58l-74 17q10 63 58.5 100.5
t120.5 37.5q90 0 142 -48t52 -142zM136 586l-49 38q41 76 107 76q35 0 72 -20t59 -20q37 0 66 36l49 -39q-18 -34 -46.5 -54.5t-60.5 -20.5q-35 0 -72 20t-59 20q-38 0 -66 -36z" />
    <glyph glyph-name="adieresis" unicode="&#xe4;" horiz-adv-x="518" 
d="M142 145q0 -36 21.5 -56.5t61.5 -20.5q58 0 99 37q42 37 42 117v12h-90q-64 0 -99 -23t-35 -66zM450 322v-322h-66l-14 71q-55 -79 -158 -79q-71 0 -113.5 39t-42.5 114q0 79 60.5 122t167.5 43h82v22q0 104 -110 104q-40 0 -68.5 -21t-36.5 -58l-74 17q10 63 58.5 100.5
t120.5 37.5q90 0 142 -48t52 -142zM177 708q25 0 41 -16.5t16 -40.5t-16 -40t-41 -16q-23 0 -39.5 16t-16.5 40t16.5 40.5t39.5 16.5zM343 708q25 0 41 -16.5t16 -40.5t-16 -40t-41 -16q-23 0 -39.5 16t-16.5 40t16.5 40.5t39.5 16.5z" />
    <glyph glyph-name="aring" unicode="&#xe5;" horiz-adv-x="518" 
d="M142 145q0 -36 21.5 -56.5t61.5 -20.5q58 0 99 37q42 37 42 117v12h-90q-64 0 -99 -23t-35 -66zM450 322v-322h-66l-14 71q-55 -79 -158 -79q-71 0 -113.5 39t-42.5 114q0 79 60.5 122t167.5 43h82v22q0 104 -110 104q-40 0 -68.5 -21t-36.5 -58l-74 17q10 63 58.5 100.5
t120.5 37.5q90 0 142 -48t52 -142zM157 653q0 42 28.5 71t70.5 29t70.5 -29t28.5 -71q0 -41 -28 -68.5t-71 -27.5q-42 0 -70.5 27.5t-28.5 68.5zM213 654q-2 -27 20.5 -38t45 0t20.5 38q2 28 -20.5 40t-45 0t-20.5 -40z" />
    <glyph glyph-name="ae" unicode="&#xe6;" horiz-adv-x="872" 
d="M822 273v-39h-370q4 -76 41 -121t101 -45q52 0 85 23t55 73l74 -32q-35 -74 -85.5 -107t-128.5 -33q-132 0 -194 113q-63 -113 -188 -113q-71 0 -113.5 39t-42.5 114q0 79 60.5 122t167.5 43h82v22q0 104 -110 104q-40 0 -68.5 -21t-36.5 -58l-74 17q10 63 58.5 100.5
t120.5 37.5q119 0 167 -79q63 79 171 79q107 0 167 -70q61 -68 61 -169zM142 145q0 -36 21.5 -56.5t61.5 -20.5q58 0 99 37q42 37 42 117v12h-90q-64 0 -99 -23t-35 -66zM594 436q-55 0 -90 -33.5t-47 -92.5h277q-10 58 -46.5 92t-93.5 34z" />
    <glyph glyph-name="ccedilla" unicode="&#xe7;" horiz-adv-x="538" 
d="M421 161l73 -30q-61 -139 -211 -139q-110 0 -170 75q-59 77 -59 185t59 184q60 76 170 76q150 0 211 -139l-73 -30q-41 93 -138 93q-68 0 -105.5 -50.5t-37.5 -133.5t37.5 -133.5t105.5 -50.5q97 0 138 93zM295 -60h70l-83 -175l-95 45z" />
    <glyph glyph-name="egrave" unicode="&#xe8;" 
d="M510 273v-39h-370q4 -76 41 -121t101 -45q52 0 85 23t55 73l74 -32q-35 -74 -85.5 -107t-128.5 -33q-109 0 -169 75q-59 77 -59 185t59 184q60 76 169 76q107 0 167 -70q61 -68 61 -169zM282 436q-55 0 -90 -33.5t-47 -92.5h277q-12 59 -48 92.5t-92 33.5zM160 704h121
l68 -144h-68z" />
    <glyph glyph-name="eacute" unicode="&#xe9;" 
d="M510 273v-39h-370q4 -76 41 -121t101 -45q52 0 85 23t55 73l74 -32q-35 -74 -85.5 -107t-128.5 -33q-109 0 -169 75q-59 77 -59 185t59 184q60 76 169 76q107 0 167 -70q61 -68 61 -169zM282 436q-55 0 -90 -33.5t-47 -92.5h277q-12 59 -48 92.5t-92 33.5zM270 560h-68
l68 144h121z" />
    <glyph glyph-name="ecircumflex" unicode="&#xea;" 
d="M510 273v-39h-370q4 -76 41 -121t101 -45q52 0 85 23t55 73l74 -32q-35 -74 -85.5 -107t-128.5 -33q-109 0 -169 75q-59 77 -59 185t59 184q60 76 169 76q107 0 167 -70q61 -68 61 -169zM282 436q-55 0 -90 -33.5t-47 -92.5h277q-12 59 -48 92.5t-92 33.5zM202 566h-86
l153 164h26l153 -164h-86l-80 85z" />
    <glyph glyph-name="edieresis" unicode="&#xeb;" 
d="M510 273v-39h-370q4 -76 41 -121t101 -45q52 0 85 23t55 73l74 -32q-35 -74 -85.5 -107t-128.5 -33q-109 0 -169 75q-59 77 -59 185t59 184q60 76 169 76q107 0 167 -70q61 -68 61 -169zM282 436q-55 0 -90 -33.5t-47 -92.5h277q-12 59 -48 92.5t-92 33.5zM199 708
q25 0 41 -16.5t16 -40.5t-16 -40t-41 -16q-23 0 -39.5 16t-16.5 40t16.5 40.5t39.5 16.5zM365 708q25 0 41 -16.5t16 -40.5t-16 -40t-41 -16q-23 0 -39.5 16t-16.5 40t16.5 40.5t39.5 16.5z" />
    <glyph glyph-name="igrave" unicode="&#xec;" horiz-adv-x="270" 
d="M93 0v504h84v-504h-84zM11 704h121l68 -144h-68z" />
    <glyph glyph-name="iacute" unicode="&#xed;" horiz-adv-x="270" 
d="M93 0v504h84v-504h-84zM139 560h-68l68 144h121z" />
    <glyph glyph-name="icircumflex" unicode="&#xee;" horiz-adv-x="270" 
d="M93 0v504h84v-504h-84zM58 566h-86l153 164h26l153 -164h-86l-80 85z" />
    <glyph glyph-name="idieresis" unicode="&#xef;" horiz-adv-x="270" 
d="M93 0v504h84v-504h-84zM52 708q25 0 41 -16.5t16 -40.5t-16 -40t-41 -16q-23 0 -39.5 16t-16.5 40t16.5 40.5t39.5 16.5zM218 708q25 0 41 -16.5t16 -40.5t-16 -40t-41 -16q-23 0 -39.5 16t-16.5 40t16.5 40.5t39.5 16.5z" />
    <glyph glyph-name="eth" unicode="&#xf0;" horiz-adv-x="580" 
d="M293 601l-39 -59l-59 42l38 57q-33 19 -80 38l40 61q47 -20 80 -39l37 54l58 -42l-34 -51q102 -76 147 -174.5t45 -235.5q0 -108 -64 -184q-63 -76 -172 -76t-173 76q-63 76 -63 184t63 184q64 76 173 76q33 0 65.5 -12.5t47.5 -31.5q-25 69 -110 133zM440 252
q0 79 -40 131q-39 53 -110 53q-73 0 -112 -54q-38 -55 -38 -130t38 -130q39 -54 112 -54q74 0 111 54q39 54 39 130z" />
    <glyph glyph-name="ntilde" unicode="&#xf1;" horiz-adv-x="577" 
d="M491 355v-355h-84v333q0 103 -87 103q-58 0 -102 -62q-42 -62 -42 -163v-211h-84v504h84v-93q57 101 167 101q69 0 108.5 -41t39.5 -116zM163 586l-49 38q41 76 107 76q35 0 72 -20t59 -20q38 0 66 36l49 -39q-18 -34 -46.5 -54.5t-60.5 -20.5q-35 0 -72 20t-59 20
q-37 0 -66 -36z" />
    <glyph glyph-name="ograve" unicode="&#xf2;" horiz-adv-x="592" 
d="M120 68q-66 77 -66 184q0 106 66 183q68 77 176 77q109 0 175 -77q67 -76 67 -183q0 -108 -67 -184q-66 -76 -175 -76t-176 76zM181 381q-41 -55 -41 -129t41 -130q42 -54 115 -54q74 0 114 54q42 56 42 130q0 75 -42 129q-40 55 -114 55q-73 0 -115 -55zM181 704h121
l68 -144h-68z" />
    <glyph glyph-name="oacute" unicode="&#xf3;" horiz-adv-x="592" 
d="M120 68q-66 77 -66 184q0 106 66 183q68 77 176 77q109 0 175 -77q67 -76 67 -183q0 -108 -67 -184q-66 -76 -175 -76t-176 76zM181 381q-41 -55 -41 -129t41 -130q42 -54 115 -54q74 0 114 54q42 56 42 130q0 75 -42 129q-40 55 -114 55q-73 0 -115 -55zM289 560h-68
l68 144h121z" />
    <glyph glyph-name="ocircumflex" unicode="&#xf4;" horiz-adv-x="592" 
d="M120 68q-66 77 -66 184q0 106 66 183q68 77 176 77q109 0 175 -77q67 -76 67 -183q0 -108 -67 -184q-66 -76 -175 -76t-176 76zM181 381q-41 -55 -41 -129t41 -130q42 -54 115 -54q74 0 114 54q42 56 42 130q0 75 -42 129q-40 55 -114 55q-73 0 -115 -55zM216 566h-86
l153 164h26l153 -164h-86l-80 85z" />
    <glyph glyph-name="otilde" unicode="&#xf5;" horiz-adv-x="592" 
d="M120 68q-66 77 -66 184q0 106 66 183q68 77 176 77q109 0 175 -77q67 -76 67 -183q0 -108 -67 -184q-66 -76 -175 -76t-176 76zM181 381q-41 -55 -41 -129t41 -130q42 -54 115 -54q74 0 114 54q42 56 42 130q0 75 -42 129q-40 55 -114 55q-73 0 -115 -55zM169 586l-49 38
q41 76 107 76q35 0 72 -20t59 -20q38 0 66 36l49 -39q-18 -34 -46.5 -54.5t-60.5 -20.5q-35 0 -72 20t-59 20q-37 0 -66 -36z" />
    <glyph glyph-name="odieresis" unicode="&#xf6;" horiz-adv-x="592" 
d="M120 68q-66 77 -66 184q0 106 66 183q68 77 176 77q109 0 175 -77q67 -76 67 -183q0 -108 -67 -184q-66 -76 -175 -76t-176 76zM181 381q-41 -55 -41 -129t41 -130q42 -54 115 -54q74 0 114 54q42 56 42 130q0 75 -42 129q-40 55 -114 55q-73 0 -115 -55zM213 708
q25 0 41 -16.5t16 -40.5t-16 -40t-41 -16q-23 0 -39.5 16t-16.5 40t16.5 40.5t39.5 16.5zM379 708q25 0 41 -16.5t16 -40.5t-16 -40t-41 -16q-23 0 -39.5 16t-16.5 40t16.5 40.5t39.5 16.5z" />
    <glyph glyph-name="divide" unicode="&#xf7;" horiz-adv-x="536" 
d="M205 128q0 26 18 44.5t45 18.5q26 0 44.5 -18.5t18.5 -44.5q0 -27 -18.5 -45t-44.5 -18q-27 0 -45 18t-18 45zM205 502q0 26 18 44.5t45 18.5q26 0 44.5 -18.5t18.5 -44.5q0 -27 -18.5 -45t-44.5 -18q-27 0 -45 18t-18 45zM488 280h-440v74h440v-74z" />
    <glyph glyph-name="oslash" unicode="&#xf8;" horiz-adv-x="592" 
d="M424 476l56 71l60 -43l-61 -78q59 -74 59 -174q0 -108 -67 -184q-66 -76 -175 -76q-73 0 -128 36l-56 -71l-60 43l61 78q-59 74 -59 174q0 106 66 183q68 77 176 77q72 0 128 -36zM452 252q0 59 -26 106l-209 -267q37 -23 79 -23q74 0 114 54q42 56 42 130zM140 252
q0 -59 26 -106l209 267q-37 23 -79 23q-73 0 -115 -55q-41 -55 -41 -129z" />
    <glyph glyph-name="ugrave" unicode="&#xf9;" horiz-adv-x="577" 
d="M86 149v355h84v-333q0 -103 87 -103q59 0 101 62q43 61 43 163v211h84v-504h-84v93q-57 -101 -167 -101q-69 0 -108.5 41t-39.5 116zM166 704h121l68 -144h-68z" />
    <glyph glyph-name="uacute" unicode="&#xfa;" horiz-adv-x="577" 
d="M86 149v355h84v-333q0 -103 87 -103q59 0 101 62q43 61 43 163v211h84v-504h-84v93q-57 -101 -167 -101q-69 0 -108.5 41t-39.5 116zM281 560h-68l68 144h121z" />
    <glyph glyph-name="ucircumflex" unicode="&#xfb;" horiz-adv-x="577" 
d="M86 149v355h84v-333q0 -103 87 -103q59 0 101 62q43 61 43 163v211h84v-504h-84v93q-57 -101 -167 -101q-69 0 -108.5 41t-39.5 116zM207 566h-86l153 164h26l153 -164h-86l-80 85z" />
    <glyph glyph-name="udieresis" unicode="&#xfc;" horiz-adv-x="577" 
d="M86 149v355h84v-333q0 -103 87 -103q59 0 101 62q43 61 43 163v211h84v-504h-84v93q-57 -101 -167 -101q-69 0 -108.5 41t-39.5 116zM203 708q25 0 41 -16.5t16 -40.5t-16 -40t-41 -16q-23 0 -39.5 16t-16.5 40t16.5 40.5t39.5 16.5zM369 708q25 0 41 -16.5t16 -40.5
t-16 -40t-41 -16q-23 0 -39.5 16t-16.5 40t16.5 40.5t39.5 16.5z" />
    <glyph glyph-name="yacute" unicode="&#xfd;" horiz-adv-x="460" 
d="M235 140l125 364h88l-250 -708h-86l80 225l-177 483h92zM252 560h-68l68 144h121z" />
    <glyph glyph-name="thorn" unicode="&#xfe;" horiz-adv-x="601" 
d="M323 -8q-44 0 -86 20t-61 50v-266h-84v912h84v-264q13 23 58 46q43 22 89 22q106 0 165 -70.5t59 -189.5t-59 -189.5t-165 -70.5zM315 436q-67 0 -106.5 -50.5t-39.5 -133.5t39.5 -133.5t106.5 -50.5q66 0 106 51t40 133t-40 133t-106 51z" />
    <glyph glyph-name="ydieresis" unicode="&#xff;" horiz-adv-x="460" 
d="M235 140l125 364h88l-250 -708h-86l80 225l-177 483h92zM153 708q25 0 41 -16.5t16 -40.5t-16 -40t-41 -16q-23 0 -39.5 16t-16.5 40t16.5 40.5t39.5 16.5zM319 708q25 0 41 -16.5t16 -40.5t-16 -40t-41 -16q-23 0 -39.5 16t-16.5 40t16.5 40.5t39.5 16.5z" />
    <glyph glyph-name="dotlessi" unicode="&#x131;" horiz-adv-x="270" 
d="M93 0v504h84v-504h-84z" />
    <glyph glyph-name="Lslash" unicode="&#x141;" horiz-adv-x="521" 
d="M97 349v351h88v-302l117 65l36 -65l-153 -84v-230h318v-84h-406v265l-65 -37l-36 65z" />
    <glyph glyph-name="lslash" unicode="&#x142;" horiz-adv-x="339" 
d="M124 380v328h84v-283l66 38l36 -65l-102 -57v-341h-84v296l-66 -37l-36 65z" />
    <glyph glyph-name="OE" unicode="&#x152;" horiz-adv-x="1064" 
d="M595 609v91h402v-84h-314v-201h254v-84h-254v-247h324v-84h-412v91q-89 -99 -226 -99q-131 0 -223 95q-91 95 -91 263t91 262q92 96 223 96q137 0 226 -99zM529 553q-62 71 -160 71t-161 -71q-62 -71 -62 -203t62 -203q63 -71 161 -71t160 71q63 71 63 203t-63 203z" />
    <glyph glyph-name="oe" unicode="&#x153;" horiz-adv-x="958" 
d="M908 273v-39h-370q4 -76 41 -121t101 -45q52 0 85 23t55 73l74 -32q-35 -74 -85.5 -107t-128.5 -33q-125 0 -188 104q-69 -104 -196 -104q-109 0 -176 76q-66 77 -66 184q0 106 66 183q68 77 176 77q127 0 196 -104q62 104 188 104q107 0 167 -70q61 -68 61 -169zM296 68
q71 0 113 55q43 55 43 129t-43 129q-42 55 -113 55q-73 0 -115 -55q-41 -55 -41 -129t41 -130q42 -54 115 -54zM680 436q-55 0 -90 -33.5t-47 -92.5h277q-10 58 -46.5 92t-93.5 34z" />
    <glyph glyph-name="Scaron" unicode="&#x160;" horiz-adv-x="523" 
d="M440 596l-71 -46q-23 41 -48.5 57.5t-62.5 16.5q-36 0 -60 -25.5t-24 -61.5q0 -49 41 -81q29 -20 40 -26l54 -28q57 -29 92 -55q71 -53 75 -146q0 -85 -54 -143q-60 -66 -156 -66q-85 0 -147 53q-61 52 -79 136l76 46q22 -76 56.5 -113.5t93.5 -37.5q61 0 95 40
q27 33 27 83q0 43 -31.5 73t-100.5 63q-73 33 -118 72q-52 46 -52 123q0 76 51 127t121 51q67 0 110 -28t72 -84zM276 762h-26l-153 164h86l80 -85l80 85h86z" />
    <glyph glyph-name="scaron" unicode="&#x161;" horiz-adv-x="461" 
d="M236 512q92 0 146 -77l-57 -49q-47 50 -92 50q-27 0 -44 -17.5t-17 -46.5q0 -24 24 -42.5t58.5 -32t69 -29.5t58.5 -45.5t24 -70.5q0 -75 -45 -117.5t-122 -42.5q-68 0 -116.5 37.5t-71.5 98.5l71 39q40 -99 117 -99q81 0 81 79q0 44 -82 73q-27 10 -42 16.5t-38.5 20.5
t-36.5 28t-23 37t-10 51q0 61 41 100t107 39zM248 566h-26l-153 164h86l80 -85l80 85h86z" />
    <glyph glyph-name="Ydieresis" unicode="&#x178;" horiz-adv-x="506" 
d="M209 0v302l-205 398h97l152 -310l152 310h97l-205 -398v-302h-88zM170 904q25 0 41 -16.5t16 -40.5t-16 -40t-41 -16q-23 0 -39.5 16t-16.5 40t16.5 40.5t39.5 16.5zM336 904q25 0 41 -16.5t16 -40.5t-16 -40t-41 -16q-23 0 -39.5 16t-16.5 40t16.5 40.5t39.5 16.5z" />
    <glyph glyph-name="Zcaron" unicode="&#x17d;" horiz-adv-x="555" 
d="M371 616h-314v84h439v-42l-326 -574h336v-84h-461v42zM288 762h-26l-153 164h86l80 -85l80 85h86z" />
    <glyph glyph-name="zcaron" unicode="&#x17e;" horiz-adv-x="456" 
d="M288 428h-225v76h338v-36l-239 -392h248v-76h-360v36zM244 566h-26l-153 164h86l80 -85l80 85h86z" />
    <glyph glyph-name="florin" unicode="&#x192;" horiz-adv-x="478" 
d="M187 428h-89l14 76h89l7 33q18 89 67 130t129 41q41 0 69 -16l-31 -74q-25 14 -54 14q-41 0 -63.5 -23t-32.5 -72l-7 -33h114l-14 -76h-114l-91 -469q-33 -171 -196 -171q-41 0 -69 16l31 74q25 -14 54 -14q41 0 63.5 23t32.5 72z" />
    <glyph glyph-name="circumflex" unicode="&#x2c6;" horiz-adv-x="390" 
d="M115 566h-86l153 164h26l153 -164h-86l-80 85z" />
    <glyph glyph-name="caron" unicode="&#x2c7;" horiz-adv-x="390" 
d="M208 566h-26l-153 164h86l80 -85l80 85h86z" />
    <glyph glyph-name="breve" unicode="&#x2d8;" horiz-adv-x="250" 
d="M165 700h67q0 -46 -31.5 -77.5t-79.5 -31.5q-47 0 -79 31.5t-32 77.5h67q0 -20 12.5 -32.5t31.5 -12.5q20 0 32 12.5t12 32.5z" />
    <glyph glyph-name="dotaccent" unicode="&#x2d9;" horiz-adv-x="270" 
d="M72 644q0 27 18.5 45.5t44.5 18.5q27 0 45 -18.5t18 -45.5q0 -26 -18 -44t-45 -18q-26 0 -44.5 18t-18.5 44z" />
    <glyph glyph-name="ring" unicode="&#x2da;" horiz-adv-x="234" 
d="M18 653q0 42 28.5 71t70.5 29t70.5 -29t28.5 -71q0 -41 -28 -68.5t-71 -27.5q-42 0 -70.5 27.5t-28.5 68.5zM74 654q-2 -27 20.5 -38t45 0t20.5 38q2 28 -20.5 40t-45 0t-20.5 -40z" />
    <glyph glyph-name="ogonek" unicode="&#x2db;" horiz-adv-x="214" 
d="M70 -60h62q-56 -50 -56 -80t30 -30q15 0 26 8.5t29 32.5l43 -35q-25 -39 -49 -55t-59 -16q-39 0 -62.5 22.5t-23.5 60.5q0 48 60 92z" />
    <glyph glyph-name="tilde" unicode="&#x2dc;" horiz-adv-x="389" 
d="M67 586l-49 38q41 76 107 76q35 0 72 -20t59 -20q38 0 66 36l49 -39q-18 -34 -46.5 -54.5t-60.5 -20.5q-35 0 -72 20t-59 20q-37 0 -66 -36z" />
    <glyph glyph-name="hungarumlaut" unicode="&#x2dd;" horiz-adv-x="407" 
d="M90 560h-68l68 144h121zM271 560h-68l68 144h121z" />
    <glyph glyph-name="Omega" unicode="&#x3a9;" horiz-adv-x="682" 
d="M295 0h-220v76h129l-30 56q-18 36 -48 132t-30 176q0 119 65 193q66 75 180 75q115 0 179 -75q66 -74 66 -193q0 -80 -27 -171q-27 -90 -54 -142l-27 -51h129v-76h-220v23l12 24q2 4 5.5 12.5t9.5 23.5t11 26q22 55 34 95q15 45 27 112q12 66 12 124q0 90 -41.5 141
t-115.5 51t-115.5 -51t-41.5 -141q0 -94 28 -196q30 -108 56 -162l27 -59v-23z" />
    <glyph glyph-name="pi" unicode="&#x3c0;" horiz-adv-x="605" 
d="M143 428h-88v76h494v-76h-88v-428h-84v428h-150v-428h-84v428z" />
    <glyph glyph-name="endash" unicode="&#x2013;" horiz-adv-x="561" 
d="M490 280h-419v74h419v-74z" />
    <glyph glyph-name="emdash" unicode="&#x2014;" horiz-adv-x="759" 
d="M688 280h-617v74h617v-74z" />
    <glyph glyph-name="quoteleft" unicode="&#x2018;" horiz-adv-x="299" 
d="M58 708h122l69 -205h-64z" />
    <glyph glyph-name="quoteright" unicode="&#x2019;" horiz-adv-x="299" 
d="M114 503h-64l69 205h122z" />
    <glyph glyph-name="quotesinglbase" unicode="&#x201a;" horiz-adv-x="299" 
d="M114 -14h-64l69 205h122z" />
    <glyph glyph-name="quotedblleft" unicode="&#x201c;" horiz-adv-x="473" 
d="M232 708h122l69 -205h-64zM58 708h122l69 -205h-64z" />
    <glyph glyph-name="quotedblright" unicode="&#x201d;" horiz-adv-x="473" 
d="M114 503h-64l69 205h122zM288 503h-64l69 205h122z" />
    <glyph glyph-name="quotedblbase" unicode="&#x201e;" horiz-adv-x="473" 
d="M114 -14h-64l69 205h122zM288 -14h-64l69 205h122z" />
    <glyph glyph-name="dagger" unicode="&#x2020;" horiz-adv-x="460" 
d="M190 424h-130v80h130v246h80v-246h130v-80h-130v-474h-80v474z" />
    <glyph glyph-name="daggerdbl" unicode="&#x2021;" horiz-adv-x="460" 
d="M190 424h-130v80h130v246h80v-246h130v-80h-130v-148h130v-80h-130v-246h-80v246h-130v80h130v148z" />
    <glyph glyph-name="bullet" unicode="&#x2022;" horiz-adv-x="324" 
d="M107 275q-22 23 -22 55t22 54q23 23 55 23t54 -23q23 -22 23 -54t-23 -55q-22 -22 -54 -22t-55 22z" />
    <glyph glyph-name="ellipsis" unicode="&#x2026;" horiz-adv-x="836" 
d="M90 59q0 26 18 44.5t45 18.5q26 0 44.5 -18.5t18.5 -44.5q0 -27 -18.5 -45t-44.5 -18q-27 0 -45 18t-18 45zM355 59q0 26 18 44.5t45 18.5q26 0 44.5 -18.5t18.5 -44.5q0 -27 -18.5 -45t-44.5 -18q-27 0 -45 18t-18 45zM620 59q0 26 18 44.5t45 18.5q26 0 44.5 -18.5
t18.5 -44.5q0 -27 -18.5 -45t-44.5 -18q-27 0 -45 18t-18 45z" />
    <glyph glyph-name="perthousand" unicode="&#x2030;" horiz-adv-x="1222" 
d="M104 435q-46 46 -46 113t46 113q47 47 114 47t114 -47q46 -46 46 -113t-46 -113t-114 -46t-114 46zM154 612q-23 -25 -23 -64t23 -64q24 -25 64 -25q41 0 63 25q24 25 24 64t-24 64q-23 26 -63 26t-64 -26zM510 38q-46 46 -46 113t46 113q47 47 114 47t114 -47
q46 -46 46 -113t-46 -113t-114 -46t-114 46zM560 215q-23 -25 -23 -64t23 -64q24 -25 64 -25q41 0 63 25q24 25 24 64t-24 64q-23 26 -63 26t-64 -26zM890 38q-46 46 -46 113t46 113q47 47 114 47t114 -47q46 -46 46 -113t-46 -113t-114 -46t-114 46zM940 215
q-23 -25 -23 -64t23 -64q24 -25 64 -25q41 0 63 25q24 25 24 64t-24 64q-23 26 -63 26t-64 -26zM127 11l538 718l50 -39l-538 -719z" />
    <glyph glyph-name="guilsinglleft" unicode="&#x2039;" horiz-adv-x="381" 
d="M325 80l-277 199v62l277 199v-90l-195 -140l195 -140v-90z" />
    <glyph glyph-name="guilsinglright" unicode="&#x203a;" horiz-adv-x="381" 
d="M56 540l277 -199v-62l-277 -199v90l195 140l-195 140v90z" />
    <glyph glyph-name="fraction" unicode="&#x2044;" horiz-adv-x="608" 
d="M10 11l538 718l50 -39l-538 -719z" />
    <glyph glyph-name="zerosuperior" unicode="&#x2070;" horiz-adv-x="394" 
d="M86 649q40 55 111 55t111 -55q40 -53 40 -149q0 -95 -40 -150q-40 -54 -111 -54t-111 54q-40 55 -40 150q0 96 40 149zM258 607q-22 37 -61 37q-38 0 -62 -37q-23 -38 -23 -107t23 -107q24 -37 62 -37q39 0 61 37q24 37 24 107t-24 107z" />
    <glyph glyph-name="foursuperior" unicode="&#x2074;" horiz-adv-x="340" 
d="M265 300h-63v77h-170v26l161 297h72v-263h47v-60h-47v-77zM202 607l-88 -170h88v170z" />
    <glyph glyph-name="fivesuperior" unicode="&#x2075;" horiz-adv-x="340" 
d="M48 407l62 10q13 -61 66 -61q33 0 51 20.5t18 54.5q0 36 -18 57t-51 21q-43 0 -70 -37l-50 11l22 217h208v-60h-153l-13 -98q32 23 68 23q57 0 90 -36.5t33 -97.5t-37.5 -98t-97.5 -37q-51 0 -86.5 30t-41.5 81z" />
    <glyph glyph-name="sixsuperior" unicode="&#x2076;" horiz-adv-x="367" 
d="M199 559q56 0 88.5 -36t32.5 -96q0 -57 -37 -94t-96 -37q-60 0 -97.5 37t-37.5 94q0 43 21 80l113 197h70l-87 -152q10 7 30 7zM118 427q0 -31 19.5 -51t49.5 -20q29 0 48 20t19 51q0 33 -18.5 52.5t-48.5 19.5t-49.5 -19.5t-19.5 -52.5z" />
    <glyph glyph-name="sevensuperior" unicode="&#x2077;" horiz-adv-x="304" 
d="M286 675l-154 -375h-66l139 340h-159v60h240v-25z" />
    <glyph glyph-name="eightsuperior" unicode="&#x2078;" horiz-adv-x="354" 
d="M293 597q0 -24 -13.5 -46.5t-33.5 -34.5q60 -30 60 -96q0 -56 -35.5 -90t-93.5 -34t-93.5 34t-35.5 90q0 66 60 96q-20 12 -33.5 34.5t-13.5 46.5q0 46 32.5 76.5t83.5 30.5t83.5 -30.5t32.5 -76.5zM223 466q-17 18 -46 18t-46 -18t-17 -46t17 -46t46 -18t46 18t17 46
t-17 46zM217 636q-15 16 -40 16t-41 -16q-15 -15 -15 -39t15 -40q16 -15 41 -15t40 15q16 16 16 40t-16 39z" />
    <glyph glyph-name="ninesuperior" unicode="&#x2079;" horiz-adv-x="367" 
d="M168 441q-56 0 -88.5 36t-32.5 96q0 57 37 94t96 37q60 0 97.5 -37t37.5 -94q0 -43 -21 -80l-113 -197h-70l87 152q-10 -7 -30 -7zM249 573q0 31 -19.5 51t-49.5 20q-29 0 -48 -20t-19 -51q0 -33 18.5 -52.5t48.5 -19.5t49.5 19.5t19.5 52.5z" />
    <glyph glyph-name="Euro" unicode="&#x20ac;" horiz-adv-x="628" 
d="M122 387h-90l40 80h57q20 115 88 178t172 63q135 0 197 -114l-71 -39q-45 73 -126 73q-144 0 -176 -161h237l-40 -80h-204v-74h244l-40 -80h-197q32 -161 176 -161q81 0 126 73l71 -39q-62 -114 -197 -114q-104 0 -172 63t-88 178h-97l40 80h50v74z" />
    <glyph glyph-name="trademark" unicode="&#x2122;" horiz-adv-x="822" 
d="M133 640h-105v60h281v-60h-105v-340h-71v340zM382 300v400h74l105 -263l105 263h74v-400h-71v253l-87 -216h-42l-87 216v-253h-71z" />
    <glyph glyph-name="partialdiff" unicode="&#x2202;" horiz-adv-x="601" 
d="M48 211q0 128 79 214q79 87 204 87q80 0 121 -50q-8 80 -47 125t-99 45q-80 0 -118 -84l-82 21q25 65 78.5 102t124.5 37q115 0 172.5 -91t57.5 -260q0 -69 -16.5 -132t-49.5 -116.5t-89.5 -85t-129.5 -31.5q-92 0 -149 61t-57 158zM323 436q-85 0 -137 -70
q-52 -68 -52 -157q0 -64 34 -102.5t91 -38.5q85 0 136 66q51 68 51 162q0 66 -32 103t-91 37z" />
    <glyph glyph-name="Delta" unicode="&#x2206;" horiz-adv-x="668" 
d="M613 0h-558v20l240 680h78l240 -680v-20zM508 76l-174 503l-174 -503h348z" />
    <glyph glyph-name="product" unicode="&#x220f;" horiz-adv-x="552" 
d="M176 0h-84v700h368v-700h-84v624h-200v-624z" />
    <glyph glyph-name="summation" unicode="&#x2211;" horiz-adv-x="550" 
d="M485 624h-300l169 -264v-20l-169 -264h300v-76h-427v20l212 330l-212 330v20h427v-76z" />
    <glyph glyph-name="minus" unicode="&#x2212;" horiz-adv-x="570" 
d="M507 280h-440v74h440v-74z" />
    <glyph glyph-name="radical" unicode="&#x221a;" horiz-adv-x="572" 
d="M297 132l170 576h80l-217 -708h-66l-102 313h-104v76h153z" />
    <glyph glyph-name="infinity" unicode="&#x221e;" horiz-adv-x="880" 
d="M638 168q-53 0 -106.5 29t-91.5 82q-38 -53 -91.5 -82t-106.5 -29q-85 0 -134.5 52t-49.5 139t49.5 139t134.5 52q53 0 106.5 -29t91.5 -82q38 53 91.5 82t106.5 29q85 0 134.5 -52t49.5 -139t-49.5 -139t-134.5 -52zM257 244q36 0 75.5 31t65.5 84q-26 53 -65.5 84
t-75.5 31q-52 0 -82.5 -30.5t-30.5 -84.5t30.5 -84.5t82.5 -30.5zM623 244q52 0 82.5 30.5t30.5 84.5t-30.5 84.5t-82.5 30.5q-36 0 -75.5 -31t-65.5 -84q26 -53 65.5 -84t75.5 -31z" />
    <glyph glyph-name="integral" unicode="&#x222b;" horiz-adv-x="478" 
d="M96 -41l112 578q33 171 196 171q41 0 69 -16l-31 -74q-25 14 -54 14q-41 0 -63.5 -23t-32.5 -72l-112 -578q-33 -171 -196 -171q-41 0 -69 16l31 74q25 -14 54 -14q41 0 63.5 23t32.5 72z" />
    <glyph glyph-name="approxequal" unicode="&#x2248;" horiz-adv-x="604" 
d="M117 168l-49 50q22 41 57 65t75 24q45 0 102 -25t92 -25q56 0 93 45l49 -51q-22 -42 -56.5 -65t-75.5 -23q-45 0 -102 25q-56 25 -92 25q-56 0 -93 -45zM117 368l-49 50q22 41 57 65t75 24q45 0 102 -25t92 -25q56 0 93 45l49 -51q-22 -42 -56.5 -65t-75.5 -23
q-45 0 -102 25q-56 25 -92 25q-56 0 -93 -45z" />
    <glyph glyph-name="notequal" unicode="&#x2260;" horiz-adv-x="559" 
d="M263 356h-183v74h225l59 102l64 -37l-37 -65h88v-74h-132l-51 -92h183v-74h-225l-59 -102l-64 37l37 65h-88v74h132z" />
    <glyph glyph-name="lessequal" unicode="&#x2264;" horiz-adv-x="557" 
d="M495 0h-440v74h440v-74zM450 173l-349 185v88l349 185v-86l-267 -143l267 -143v-86z" />
    <glyph glyph-name="greaterequal" unicode="&#x2265;" horiz-adv-x="557" 
d="M62 74h440v-74h-440v74zM107 631l349 -185v-88l-349 -185v86l267 143l-267 143v86z" />
    <glyph glyph-name="lozenge" unicode="&#x25ca;" horiz-adv-x="578" 
d="M330 0h-82l-180 350l180 350h82l180 -350zM152 350l137 -272l137 272l-137 272z" />
    <glyph glyph-name="apple" unicode="&#xf8ff;" horiz-adv-x="786" 
d="M689 617v-595q0 -9 -6.5 -15.5t-15.5 -6.5q-4 0 -7 1l-267 77l-267 -77q-3 -1 -7 -1q-9 0 -15.5 6.5t-6.5 15.5v595q0 18 16 22l270 78q10 4 20 0l270 -78q16 -4 16 -22zM371 366v303l-230 -67q6 -93 71 -161q66 -67 159 -75zM645 602l-230 67v-303q94 8 158 75
q66 68 72 161zM140 463v-412l231 67v204q-73 6 -134 43.5t-97 97.5zM415 118l231 -67v412q-37 -60 -98 -97.5t-133 -43.5v-204z" />
    <glyph glyph-name="No" horiz-adv-x="1254" 
d="M1177 0h-438v76h438v-76zM782 264q-66 76 -66 184q0 106 66 183q68 77 176 77q109 0 175 -77q67 -76 67 -183q0 -108 -67 -184q-66 -76 -175 -76t-176 76zM843 577q-41 -55 -41 -129t41 -130q42 -54 115 -54q74 0 114 54q42 56 42 130q0 75 -42 129q-40 55 -114 55
q-73 0 -115 -55zM516 153v547h88v-700h-103l-316 545v-545h-88v700h103z" />
    <glyph glyph-name="zero.tn" 
d="M97 612q63 96 183 96t183 -96q63 -94 63 -262q0 -167 -63 -263q-63 -95 -183 -95t-183 95q-63 96 -63 263q0 168 63 262zM398 555q-40 73 -118 73t-118 -73t-40 -205t40 -205t118 -73t118 73t40 205t-40 205z" />
    <glyph glyph-name="one.tn" 
d="M136 591l180 109h31v-700h-82v574l-129 -75v92z" />
    <glyph glyph-name="two.tn" 
d="M491 0h-423v39l267 342q33 41 45 70t12 63q0 48 -26 80q-28 34 -84 34q-48 0 -79 -32.5t-36 -87.5l-84 16q4 78 61 131q58 53 138 53q98 0 152 -61q44 -50 44 -133q0 -78 -56 -152l-218 -282h287v-80z" />
    <glyph glyph-name="three.tn" 
d="M58 192l84 11q20 -131 139 -131q64 0 102 39.5t38 108.5t-38 108.5t-102 39.5q-36 0 -62 -13l-35 47l160 218h-253v80h380v-27l-178 -241q9 3 28 3q80 0 133 -60q53 -59 53 -155q0 -100 -63 -165q-63 -63 -163 -63q-89 0 -151 55q-63 56 -72 145z" />
    <glyph glyph-name="four.tn" 
d="M434 0h-86v149h-304v35l296 516h94v-471h87v-80h-87v-149zM348 568l-190 -339h190v339z" />
    <glyph glyph-name="five.tn" 
d="M63 183l85 16q7 -62 40 -94.5t87 -32.5q63 0 98.5 42t35.5 114t-35.5 114t-98.5 42q-83 0 -141 -78l-53 12l38 382h334v-80h-261l-26 -203q45 47 115 47q100 0 157 -66q57 -64 57 -170q0 -105 -60 -171q-60 -65 -160 -65q-89 0 -145.5 50t-66.5 141z" />
    <glyph glyph-name="six.tn" 
d="M280 448q96 0 158 -66q63 -64 63 -162q0 -97 -63 -163q-62 -65 -158 -65t-159 65q-62 67 -62 163q0 68 36 129l207 359h96l-152 -267q14 7 34 7zM147 220q0 -64 37.5 -106t95.5 -42t95.5 42t37.5 106q0 67 -37 107.5t-96 40.5t-96 -40.5t-37 -107.5z" />
    <glyph glyph-name="seven.tn" 
d="M478 663l-272 -663h-88l257 620h-296v80h399v-37z" />
    <glyph glyph-name="eight.tn" 
d="M472 521q0 -45 -22 -85t-57 -59q49 -22 76.5 -68t27.5 -108q0 -96 -63 -153q-64 -56 -154 -56t-154 56q-63 57 -63 153q0 62 27.5 108t76.5 68q-35 19 -57 59t-22 85q0 79 54 133t138 54t138 -54t54 -133zM373 295q-37 35 -93 35t-93 -35q-36 -35 -36 -94t36 -94
q37 -35 93 -35t93 35q36 35 36 94t-36 94zM358 601q-28 31 -78 31q-49 0 -79 -31q-29 -32 -29 -80t29 -80q30 -31 79 -31q50 0 78 31q30 31 30 80q0 48 -30 80z" />
    <glyph glyph-name="nine.tn" 
d="M280 252q-96 0 -159 65q-62 67 -62 163q0 97 62 162q63 66 159 66t158 -66q63 -64 63 -162q0 -68 -36 -129l-207 -359h-96l152 267q-14 -7 -34 -7zM413 480q0 64 -37.5 106t-95.5 42t-95.5 -42t-37.5 -106q0 -67 37 -107.5t96 -40.5t96 40.5t37 107.5z" />
    </font>
</defs>
</svg>
