<?xml version="1.0" standalone="no"?>
<!DOCTYPE svg PUBLIC "-//W3C//DTD SVG 1.1//EN" "http://www.w3.org/Graphics/SVG/1.1/DTD/svg11.dtd" >
<svg xmlns="http://www.w3.org/2000/svg">
<metadata></metadata>
<defs>
<font id="harriet_displaybold" horiz-adv-x="1544" >
<font-face units-per-em="2048" ascent="1638" descent="-410" />
<missing-glyph horiz-adv-x="382" />
<glyph unicode="&#xfb01;" horiz-adv-x="1363" d="M10 942v39l185 31v32q0 123 30 219.5t80 158.5t121.5 102.5t149 57.5t167.5 17q176 0 271.5 -70t95.5 -186q0 -84 -49.5 -132t-130.5 -48q-77 0 -124.5 41.5t-47.5 110.5q0 37 14 69t30 50t30 37.5t14 35.5q0 58 -115 58q-231 0 -231 -338q0 -21 1 -117t1 -106h538 l136 10l34 -19q-16 -112 -16 -229v-602q0 -66 17.5 -90t74.5 -33l60 -10v-31q-53 0 -152.5 1t-151.5 1q-53 0 -153.5 -1t-153.5 -1v31l62 10q57 9 74.5 33t17.5 90v665q0 61 -21.5 86t-81.5 25q-124 0 -284 -12v-762q0 -65 19 -90.5t77 -34.5l66 -10v-31q-53 0 -157 1 t-157 1t-152.5 -1t-152.5 -1v31l59 10q57 9 74 33t17 90v747z" />
<glyph unicode="&#xfb02;" horiz-adv-x="1372" d="M10 942v39l185 31v32q0 145 41 253.5t113 172t163 94.5t199 31q207 0 295 -110l180 108l31 -12q-13 -109 -13 -262v-1155q0 -66 17 -90t73 -33l62 -10v-31q-53 0 -152.5 1t-152.5 1t-154 -1t-154 -1v31l62 10q56 9 74 33.5t18 89.5v784l-395 -20v-762q0 -65 19 -90.5 t77 -34.5l66 -10v-31q-53 0 -157 1t-157 1t-152.5 -1t-152.5 -1v31l59 10q57 9 74 33t17 90v747zM500 1239q0 -39 1 -116t1 -119h395v176q-10 -2 -33 -2q-69 0 -113 41t-44 106q0 35 11.5 62.5t27.5 43t32 27.5t27.5 23.5t11.5 23.5q0 23 -26 39.5t-78 16.5 q-112 0 -162.5 -78t-50.5 -244z" />
<glyph unicode="&#xfb03;" horiz-adv-x="2064" d="M10 942v39l185 31v6q0 144 39.5 253.5t109.5 174.5t159 97t195 32q115 0 199 -36.5t123 -98.5q139 159 422 159q178 0 273 -70t95 -186q0 -84 -49.5 -132t-130.5 -48q-77 0 -124.5 41.5t-47.5 110.5q0 37 14 69t30 50t30 37.5t14 35.5q0 58 -114 58q-232 0 -232 -338 q0 -21 1 -117t1 -106h541l133 10l35 -19q-17 -119 -17 -229v-602q0 -66 17.5 -90t75.5 -33l59 -10v-31q-52 0 -151 1t-152 1t-152.5 -1t-152.5 -1v31l59 10q57 9 74.5 33t17.5 90v665q0 61 -21 86t-81 25q-156 0 -285 -2v-772q0 -65 19 -90.5t77 -34.5l66 -10v-31 q-53 0 -156.5 1t-156.5 1t-153 -1t-153 -1v31l60 10q57 9 73.5 33t16.5 90v770q-132 -2 -393 -8v-756q0 -69 19 -94.5t77 -34.5l66 -10v-31q-53 0 -157.5 1t-156.5 1q-53 0 -152.5 -1t-152.5 -1v31l59 10q56 9 73.5 32.5t17.5 88.5v749zM500 1229q0 -41 1 -119t1 -106h393 v40v41q4 49 8 74l-31 -2q-72 0 -115.5 42t-43.5 108q0 45 16 77t35 46t35 29t16 30q0 21 -27 36t-79 15q-104 0 -156.5 -75.5t-52.5 -235.5z" />
<glyph unicode="&#xfb04;" horiz-adv-x="2072" d="M10 942v39l185 31v6q0 144 39.5 253.5t109.5 174.5t159 97t195 32q115 0 199 -36.5t123 -98.5q137 155 393 155q202 0 293 -108l180 106l33 -12q-14 -118 -14 -262v-1155q0 -66 17 -90t73 -33l61 -10v-31q-53 0 -152.5 1t-152.5 1t-153 -1t-152 -1v31l59 10q57 9 74.5 33 t17.5 90v786l-395 -8v-776q0 -65 19 -90.5t77 -34.5l66 -10v-31q-53 0 -156.5 1t-156.5 1t-153 -1t-153 -1v31l60 10q57 9 73.5 33t16.5 90v772l-393 -8v-758q0 -69 19 -94.5t77 -34.5l66 -10v-31q-53 0 -157.5 1t-156.5 1q-53 0 -152.5 -1t-152.5 -1v31l59 10 q56 9 73.5 32.5t17.5 88.5v749zM500 1229q0 -41 1 -119t1 -106h393v40v41q4 52 8 74l-31 -2q-72 0 -115.5 42t-43.5 108q0 45 16 77t35 46t35 29t16 30q0 21 -27 36t-79 15q-104 0 -156.5 -75.5t-52.5 -235.5zM1200 1239q0 -39 1 -116t1 -119h395v176q-10 -2 -32 -2 q-69 0 -113.5 41.5t-44.5 105.5q0 43 17.5 75t38 46t38 29.5t17.5 29.5q0 23 -26.5 39.5t-76.5 16.5q-113 0 -164 -78t-51 -244z" />
<glyph horiz-adv-x="0" />
<glyph horiz-adv-x="682" />
<glyph unicode=" "  horiz-adv-x="382" />
<glyph unicode="&#x09;" horiz-adv-x="382" />
<glyph unicode="&#xa0;" horiz-adv-x="382" />
<glyph unicode="!" horiz-adv-x="706" d="M158 1221q0 90 54.5 143t139.5 53q86 0 141.5 -53t55.5 -143q0 -46 -12 -89t-37.5 -109.5t-40.5 -113.5q-79 -219 -94 -483h-25q-12 263 -92 483q-15 47 -40.5 113.5t-37.5 109.5t-12 89zM178 147q0 76 50 125.5t124 49.5q75 0 125.5 -50t50.5 -125q0 -74 -51 -123 t-125 -49t-124 49t-50 123z" />
<glyph unicode="&#x22;" horiz-adv-x="874" d="M172 1462q0 49 28 79t79 30t77.5 -30t26.5 -79q0 -36 -14 -104t-37 -172t-37 -187h-33q-14 86 -37 191t-38 173.5t-15 98.5zM489 1462q0 49 28 79t79 30t77.5 -30t26.5 -79q0 -36 -14 -104t-37 -172t-37 -187h-32q-14 86 -37.5 191t-38.5 173.5t-15 98.5z" />
<glyph unicode="#" horiz-adv-x="1107" d="M51 537h291l25 233h-211l-68 256h307l29 270h51l-29 -270h299l29 270h51l-28 -270h190l70 -256h-289l-25 -233h207l70 -256h-305l-31 -281h-51l31 281h-299l-31 -281h-51l30 281h-192zM393 537h299l25 233h-299z" />
<glyph unicode="$" horiz-adv-x="1153" d="M45 264q0 79 46 128.5t120 49.5q63 0 103 -38t40 -99q0 -38 -13.5 -66.5t-29.5 -42.5t-29.5 -32.5t-13.5 -38.5q0 -41 46 -76.5t135 -46.5l69 485l-10 5q-99 36 -167.5 72.5t-123 85.5t-80.5 113.5t-26 147.5q0 191 139.5 302.5t372.5 111.5h14l16 119h49l-16 -121 q175 -12 279 -88.5t104 -190.5q0 -77 -47 -124.5t-117 -47.5q-64 0 -105.5 39t-41.5 103q0 38 14.5 66t31.5 41.5t31.5 31t14.5 35.5q0 33 -45.5 62t-124.5 38l-66 -463q5 -2 25.5 -9.5t32.5 -10.5q54 -19 89.5 -33t80 -36t73.5 -43.5t59.5 -52t47.5 -65.5t28 -81t11 -101 q0 -134 -71 -232.5t-190 -147t-270 -48.5h-36l-31 -213h-49l30 217q-188 13 -293.5 91.5t-105.5 203.5zM326 1083q0 -89 58.5 -141t182.5 -100l64 450h-10q-149 0 -222 -59.5t-73 -149.5zM498 0l30 -2q157 0 238.5 61t81.5 158q0 43 -15 78t-37.5 59t-63 46.5t-76 37 t-91.5 33.5z" />
<glyph unicode="%" horiz-adv-x="1386" d="M59 1012q0 148 95.5 232.5t236.5 84.5q144 0 240 -83.5t96 -231.5t-95.5 -233t-238.5 -85t-238.5 84t-95.5 232zM92 0l574 664l526 632h90l-575 -665l-525 -631h-90zM262 1012q0 -154 31 -218.5t100 -64.5t99 64.5t30 220.5q0 155 -30.5 218.5t-100.5 63.5 q-68 0 -98.5 -64.5t-30.5 -219.5zM659 291q0 148 95.5 231.5t238.5 83.5q144 0 240 -83.5t96 -231.5t-96 -233t-240 -85q-143 0 -238.5 85t-95.5 233zM864 291q0 -155 30.5 -220t98.5 -65q70 0 100.5 65t30.5 220t-30.5 218.5t-100.5 63.5q-69 0 -99 -64t-30 -218z" />
<glyph unicode="&#x26;" horiz-adv-x="1597" d="M37 365q0 165 109 273t305 159q-48 146 -48 247q0 169 105.5 276t269.5 107q87 0 158.5 -25t119.5 -82.5t48 -139.5q0 -61 -29.5 -112t-83 -88.5t-111.5 -64t-132 -49.5q34 -79 98 -204q64 -124 141 -252q3 20 6 28q22 92 41 155t51 130.5t70.5 108t96 66.5t130.5 26 q90 0 146.5 -53.5t56.5 -131.5q0 -74 -44 -120t-111 -46t-108.5 40t-41.5 102q0 13 3 34t3 29q0 33 -35 33q-131 0 -225 -381q-1 -4 -16 -59q99 -156 177.5 -224.5t155.5 -68.5q80 0 129.5 58t65.5 204l29 -2q-17 -199 -101.5 -286t-238.5 -87q-110 0 -195.5 31.5 t-161.5 101.5q-120 -133 -354 -133q-219 0 -349 107t-130 293zM344 489q0 -180 95.5 -310t228.5 -130q112 0 178 72q-113 116 -256 368q-78 141 -131 283q-115 -54 -115 -283zM647 1229q0 -116 90 -338l6 2q162 79 162 303q0 195 -127 195q-66 0 -98.5 -43.5t-32.5 -118.5z " />
<glyph unicode="'" horiz-adv-x="557" d="M172 1462q0 49 28 79t79 30t77.5 -30t26.5 -79q0 -36 -14 -104t-37 -172t-37 -187h-33q-14 86 -37 191t-38 173.5t-15 98.5z" />
<glyph unicode="(" horiz-adv-x="819" d="M168 596v10q0 147 39.5 284t98 237.5t141 193t153 151t150.5 111.5l14 -16q-137 -142 -220 -384t-83 -577v-10q0 -338 82.5 -578t220.5 -385l-14 -18q-55 37 -105.5 76t-110.5 95.5t-110.5 116.5t-99 138t-82 161t-54 185t-20.5 209z" />
<glyph unicode=")" horiz-adv-x="819" d="M55 -367q138 145 220.5 385t82.5 578v10q0 335 -83 577t-220 384l15 16q80 -53 150.5 -111.5t153 -151t140.5 -193t97.5 -237.5t39.5 -284v-10q0 -148 -39.5 -286t-97.5 -239t-140.5 -193.5t-153 -151t-150.5 -111.5z" />
<glyph unicode="*" horiz-adv-x="876" d="M102 1053q-10 36 7 65.5t51 38.5q29 7 69.5 -1t79 -14t115.5 9q-47 42 -93 63t-81 32.5t-57 31.5q-26 26 -26 58t28 61q26 26 59 25t59 -27q19 -19 29 -45t14 -49.5t23.5 -61t54.5 -76.5q15 84 7.5 120.5t-16.5 72.5t-1 67q11 35 40 52t64 8q36 -9 53.5 -38t8.5 -65 q-7 -26 -24 -47t-34.5 -36t-40.5 -51t-40 -87q50 15 85 37.5t50.5 40.5t37.5 36t48 25q36 9 65 -6.5t39 -50.5q10 -38 -7.5 -67t-51.5 -37q-28 -7 -68.5 0.5t-79 13t-114.5 -9.5q45 -41 91.5 -61t82 -31.5t57.5 -32.5q25 -25 25 -59.5t-27 -61.5q-28 -26 -60 -24.5t-59 26.5 q-19 19 -29.5 45t-14.5 49.5t-23.5 60.5t-55.5 76q-11 -53 -9 -95.5t10 -63.5t11.5 -49.5t-3.5 -51.5q-9 -35 -37.5 -51.5t-65.5 -7.5q-37 11 -53 39t-6 63q7 26 23 47.5t33.5 36.5t40.5 51.5t40 88.5q-41 -13 -71.5 -30.5t-47.5 -33.5t-31.5 -31.5t-31.5 -28t-39 -18.5 q-34 -9 -63.5 7.5t-39.5 52.5z" />
<glyph unicode="+" horiz-adv-x="1126" d="M115 471v74h411v407h74v-407h412v-74h-412v-412h-74v412h-411z" />
<glyph unicode="," horiz-adv-x="595" d="M102 152q0 75 52.5 124.5t128.5 49.5q95 0 150.5 -67.5t55.5 -188.5q0 -149 -91 -272t-234 -193l-21 39q117 63 186.5 163t69.5 197q0 31 -22 31q-11 0 -25.5 -11.5t-39 -23.5t-60.5 -12q-64 0 -107 45t-43 119z" />
<glyph unicode="-" horiz-adv-x="612" d="M51 463v86h510v-86h-510z" />
<glyph unicode="." horiz-adv-x="569" d="M106 152q0 75 52 124.5t127 49.5q76 0 127 -49t51 -125t-52 -126.5t-126 -50.5t-126.5 50.5t-52.5 126.5z" />
<glyph unicode="/" horiz-adv-x="657" d="M31 -102l528 1595h68l-529 -1595h-67z" />
<glyph unicode="0" horiz-adv-x="1318" d="M82 543q0 112 33.5 206.5t89.5 160.5t130.5 112t156.5 68t167 22q108 0 208.5 -35.5t183.5 -103t133.5 -179.5t50.5 -251q0 -112 -33 -207t-89.5 -161.5t-130.5 -113.5t-156 -69.5t-167 -22.5t-167 22.5t-156.5 69.5t-131 113.5t-89.5 161.5t-33 207zM438 543 q0 -276 50.5 -407.5t170.5 -131.5q118 0 170 133t52 406q0 274 -51.5 405t-170.5 131q-120 0 -170.5 -131t-50.5 -405z" />
<glyph unicode="1" horiz-adv-x="1005" d="M117 961v36l123 9q230 17 310.5 35.5t100.5 45.5h41q-8 -131 -8 -286v-596q0 -81 24.5 -112t108.5 -46l82 -14v-33q-69 0 -189.5 1t-181.5 1q-62 0 -190 -1t-195 -1v33l82 14q82 15 106.5 46t24.5 112v583q0 86 -26 119.5t-103 40.5z" />
<glyph unicode="2" horiz-adv-x="1193" d="M84 741q0 161 141 266t361 105q231 0 366 -90.5t135 -243.5q0 -69 -27.5 -124t-69.5 -90t-104 -69t-120.5 -57t-130 -56.5t-121.5 -66.5q-24 -15 -72 -44.5t-71 -43.5q159 27 305 27h420l-72 -406h-33v48q0 57 -22.5 80.5t-79.5 23.5h-785v86q264 172 367 258 q140 115 209.5 230t69.5 255q0 122 -42 186t-135 64q-106 0 -171.5 -79.5t-65.5 -184.5q0 -81 26.5 -122.5t73.5 -41.5q82 0 107 135l24 -2q-15 -124 -87.5 -196t-176.5 -72q-102 0 -160.5 63.5t-58.5 161.5z" />
<glyph unicode="3" horiz-adv-x="1191" d="M47 -51q0 89 53.5 148t145.5 59q80 0 129 -45.5t49 -120.5q0 -42 -14.5 -73.5t-35.5 -48.5t-42.5 -29.5t-36 -25.5t-14.5 -28q0 -33 49.5 -60.5t132.5 -27.5q140 0 232.5 114t92.5 322q0 163 -43 232t-135 69q-43 0 -83.5 -18t-66 -39.5t-58 -39.5t-62.5 -18 q-84 0 -84 91q31 16 148 41.5t169 54.5q189 105 189 346q0 225 -182 225q-112 0 -169 -70.5t-57 -170.5q0 -67 25.5 -101.5t71.5 -34.5q38 0 66.5 32t41.5 99l23 -4q-17 -123 -82.5 -188.5t-167.5 -65.5t-162.5 55t-60.5 150q0 98 66.5 175t177.5 118t245 41 q102 0 187 -15.5t152 -48t104.5 -88t37.5 -129.5q0 -57 -24.5 -103t-61.5 -76.5t-99 -60t-117.5 -48.5t-137.5 -49t-141 -56q91 43 237 43q67 0 125.5 -12t110 -38.5t88.5 -65.5t58.5 -96t21.5 -128q0 -93 -41 -173t-109 -135.5t-155.5 -95.5t-181 -58.5t-185.5 -18.5 q-195 0 -307.5 80.5t-112.5 208.5z" />
<glyph unicode="4" horiz-adv-x="1198" d="M29 180l581 901h269v-901h32q82 0 123.5 37.5t79.5 136.5l33 88h31l-56 -321q-70 2 -215 2h-28v-246q0 -74 20.5 -100.5t91.5 -38.5l78 -14v-33q-62 0 -175 1t-173 1t-179.5 -1t-181.5 -1v33l82 14q73 12 96 40.5t23 102.5v242h-508zM74 180h487v355v30q0 186 19 393z " />
<glyph unicode="5" horiz-adv-x="1177" d="M53 -51q0 91 54.5 150t146.5 59q79 0 126.5 -46t47.5 -120q0 -42 -14.5 -74t-35 -49t-41.5 -30t-35.5 -26.5t-14.5 -29.5q0 -33 46.5 -59.5t125.5 -26.5q135 0 216 115t81 321q0 199 -59.5 287t-178.5 88q-79 0 -149 -47t-111 -129l-88 6l70 749h45q65 -19 172.5 -32 t212.5 -13q287 0 387 64l14 -6q-20 -77 -65.5 -137.5t-109.5 -98.5t-140 -63t-162 -34t-171 -7t-171 14l-35 -358q65 64 164 102.5t219 38.5q106 0 195.5 -24.5t160 -73.5t110.5 -131t40 -189q0 -81 -27.5 -151.5t-76 -122t-112 -91.5t-137.5 -64.5t-149.5 -37t-150.5 -12.5 q-186 0 -293 80.5t-107 208.5z" />
<glyph unicode="6" horiz-adv-x="1265" d="M82 639q0 126 27.5 238t75.5 196.5t112.5 151.5t140 109.5t156 64.5t162.5 22q191 0 295 -73.5t104 -186.5q0 -89 -53.5 -143.5t-138.5 -54.5q-81 0 -131 43t-50 116q0 39 12.5 69.5t31 48t36.5 31t30.5 26t12.5 26.5q0 26 -36.5 44.5t-106.5 18.5q-128 0 -204 -95 t-111 -297.5t-35 -542.5q0 409 338 409q195 0 317.5 -114t122.5 -310q0 -88 -30.5 -164.5t-83.5 -131t-122.5 -94t-148 -58.5t-160.5 -19q-118 0 -218 39t-178 117.5t-122.5 210t-44.5 303.5zM440 451q0 -235 48 -341t159 -106q102 0 149.5 99.5t47.5 295.5 q0 198 -44.5 292.5t-140.5 94.5q-103 0 -161 -92.5t-58 -242.5z" />
<glyph unicode="7" horiz-adv-x="1118" d="M80 618l72 504h34q0 -41 52 -41h839v-90q-136 -182 -210.5 -330.5t-106.5 -326.5q-29 -153 -29 -475q0 -91 -51.5 -148t-140.5 -57q-97 0 -150 51t-53 143q0 246 270 603q54 72 174 212t125 146h-579q-75 0 -114 -24.5t-65 -88.5l-30 -78h-37z" />
<glyph unicode="8" horiz-adv-x="1325" d="M68 365q0 158 131 252.5t348 115.5q-180 21 -292 106.5t-112 225.5q0 173 142.5 264.5t378.5 91.5q234 0 376 -91.5t142 -264.5q0 -94 -54.5 -166t-143 -112t-204.5 -54q140 -14 246 -58t170 -124t64 -186q0 -127 -80 -218t-213 -134.5t-303 -43.5q-171 0 -303.5 43.5 t-212.5 134.5t-80 218zM436 362q0 -346 228 -346q111 0 168 87.5t57 258.5q0 349 -225 349q-228 0 -228 -349zM473 1069q0 -165 48 -242t143 -77q94 0 141 77t47 242q0 317 -188 317q-191 0 -191 -317z" />
<glyph unicode="9" horiz-adv-x="1265" d="M82 645q0 88 30.5 164.5t83.5 131t122.5 94t148 58.5t160.5 19q118 0 218 -39t178 -117.5t122.5 -210t44.5 -303.5q0 -126 -27.5 -238t-75.5 -196.5t-112.5 -151.5t-140 -109.5t-156 -64.5t-162.5 -22q-191 0 -295 73.5t-104 186.5q0 89 53.5 144t138.5 55 q80 0 130 -43.5t50 -116.5q0 -39 -12.5 -69.5t-30.5 -48t-36 -31t-30.5 -26t-12.5 -26.5q0 -26 36.5 -44.5t106.5 -18.5q128 0 204 95t111 298t35 543q0 -410 -338 -410q-195 0 -317.5 114t-122.5 310zM428 682q0 -199 44.5 -293t141.5 -94q102 0 159.5 93t57.5 243 q0 234 -47.5 340t-156.5 106q-104 0 -151.5 -99t-47.5 -296z" />
<glyph unicode=":" horiz-adv-x="620" d="M133 152q0 75 51.5 124.5t126.5 49.5q76 0 127 -49t51 -125t-52 -126.5t-126 -50.5t-126 50.5t-52 126.5zM133 860q0 75 51.5 124.5t126.5 49.5q76 0 127 -49t51 -125t-52 -126t-126 -50t-126 50t-52 126z" />
<glyph unicode=";" horiz-adv-x="653" d="M133 152q0 76 52 125t128 49q95 0 151 -67.5t56 -188.5q0 -149 -91 -272t-234 -193l-21 39q117 63 186.5 163t69.5 197q0 31 -22 31q-11 0 -25.5 -11.5t-39 -23.5t-60.5 -12q-64 0 -107 45t-43 119zM137 860q0 75 51.5 124.5t126.5 49.5q76 0 127.5 -49t51.5 -125 t-52 -126t-127 -50q-74 0 -126 50t-52 126z" />
<glyph unicode="&#x3c;" horiz-adv-x="1126" d="M125 467v78l819 416l33 -64l-784 -391l784 -391l-33 -64z" />
<glyph unicode="=" horiz-adv-x="1126" d="M115 274v74h897v-74h-897zM115 664v73h897v-73h-897z" />
<glyph unicode="&#x3e;" horiz-adv-x="1126" d="M150 115l784 391l-784 391l32 64l819 -416v-78l-819 -416z" />
<glyph unicode="?" horiz-adv-x="1163" d="M78 1063q0 152 135.5 254t361.5 102q153 0 272.5 -41t192 -128t72.5 -208q0 -82 -32 -148.5t-83.5 -109t-120 -71.5t-137.5 -41.5t-139 -12.5q-12 0 -74 5l-37 -226h-28l-43 275l24 10q58 -25 131 -25q91 0 147 86.5t56 274.5q0 157 -55.5 240t-159.5 83 q-62 0 -109.5 -23t-74 -61.5t-40 -83t-13.5 -92.5q0 -68 26.5 -104.5t71.5 -36.5q79 0 115 137l22 -2q-21 -133 -90 -203.5t-172 -70.5q-101 0 -160 60t-59 161zM311 147q0 76 50 125.5t124 49.5q75 0 126 -50t51 -125q0 -74 -51.5 -123t-125.5 -49t-124 49t-50 123z" />
<glyph unicode="@" horiz-adv-x="1871" d="M98 303q0 193 76 375t206 319t316 220t394 83q198 0 354.5 -71.5t249 -211.5t92.5 -327q0 -119 -36.5 -225.5t-95.5 -182.5t-132.5 -132t-150 -83.5t-146.5 -27.5q-117 0 -179.5 47t-62.5 135q0 35 10 68q-51 -129 -102.5 -181.5t-136.5 -52.5q-104 0 -165 74.5 t-61 187.5q0 102 39 204t106.5 183t168 132t213.5 51q144 0 225 -78l131 80h19l-66 -168l-143 -420q-25 -65 -25 -113q0 -98 98 -98q43 0 87.5 17t90 57t80.5 98t57.5 147t22.5 197q0 188 -85.5 329t-227.5 212.5t-320 71.5q-169 0 -307.5 -54t-231.5 -151t-143.5 -233 t-50.5 -298q0 -227 106 -399t297.5 -265t440.5 -93q136 0 240.5 29t156.5 87l17 -8q-44 -85 -112.5 -150.5t-147.5 -103.5t-160 -57t-162 -19q-246 0 -438.5 102t-299 284t-106.5 413zM772 250q0 -117 64 -117q38 0 70 43.5t73 161.5l164 477q-23 39 -74 39 q-59 0 -116 -69.5t-95.5 -167t-62 -198.5t-23.5 -169z" />
<glyph unicode="A" horiz-adv-x="1486" d="M-10 0v33l57 16q87 26 139 96t121 254l262 703l99 293h186l408 -1110q51 -141 84.5 -186t93.5 -56l57 -10v-33q-65 0 -188 1t-187 1t-190 -1t-191 -1v33l88 12q73 13 88 55q5 14 5 33q0 40 -21 103l-65 190h-469l-15 -39q-45 -120 -45 -191q0 -24 5 -42q20 -72 132 -101 l84 -20v-33q-47 0 -135 1t-135 1q-46 0 -134 -1t-134 -1zM383 471h436l-211 612z" />
<glyph unicode="B" horiz-adv-x="1445" d="M35 0v33l86 14q79 13 102 43t23 107v997q0 77 -23 106.5t-102 42.5l-86 15v33h733q117 0 211.5 -17.5t169 -54.5t115.5 -100t41 -148q0 -150 -113 -228t-330 -104v-8q510 -36 510 -350q0 -186 -144.5 -283.5t-432.5 -97.5h-760zM598 150q0 -58 26 -84.5t83 -26.5h43 q237 0 237 354q0 318 -276 318h-113v-561zM598 750h107q126 0 182.5 80t56.5 233q0 149 -56 219t-179 70h-111v-602z" />
<glyph unicode="C" horiz-adv-x="1425" d="M68 694q0 134 38.5 251.5t106 204.5t158 149.5t196.5 94t219 31.5q223 0 371 -139l94 127h19v-588h-35q-50 144 -94.5 242.5t-98 175t-115 112.5t-134.5 36q-168 0 -256 -176.5t-88 -520.5q0 -694 348 -694q139 0 238 133t200 412h35v-568h-19l-94 127 q-145 -139 -364 -139q-117 0 -225.5 31.5t-199 93.5t-158 148.5t-105 203.5t-37.5 252z" />
<glyph unicode="D" horiz-adv-x="1558" d="M35 0v33l86 14q79 13 102 43t23 107v997q0 77 -23 106.5t-102 42.5l-86 15v33h700q131 0 243.5 -24.5t208 -78t163 -133.5t105.5 -196.5t38 -262.5t-39 -263.5t-107.5 -197t-164 -133.5t-205.5 -78t-236 -24h-706zM598 150q0 -58 26 -84.5t83 -26.5h36q367 0 367 657 q0 332 -92.5 494t-282.5 162h-137v-1202z" />
<glyph unicode="E" horiz-adv-x="1370" d="M35 0v33l86 14q79 13 102 43t23 107v997q0 77 -23 106.5t-102 42.5l-86 15v33h1184l10 -484h-43q-94 246 -189.5 345.5t-232.5 99.5h-166v-617h72q92 0 147.5 69.5t116.5 252.5h31q-2 -113 -2 -344q0 -229 2 -344h-31q-62 192 -116.5 259.5t-149.5 67.5h-70v-546 q0 -58 26 -84.5t83 -26.5h67q80 0 141 22t117.5 76t106.5 143t102 226h41l-10 -506h-1237z" />
<glyph unicode="F" horiz-adv-x="1308" d="M35 0v33l86 14q79 13 102 42.5t23 105.5v999q0 77 -23 106.5t-102 42.5l-86 15v33h1186l10 -517h-41q-101 260 -196 369t-228 109h-168v-621h72q92 0 147.5 69.5t116.5 252.5h31q-2 -113 -2 -344q0 -229 2 -344h-31q-62 192 -116.5 259.5t-149.5 67.5h-70v-485 q0 -79 27.5 -113t111.5 -47l92 -14v-33q-66 0 -198.5 1t-200.5 1q-66 0 -196.5 -1t-198.5 -1z" />
<glyph unicode="G" horiz-adv-x="1501" d="M68 694q0 134 39 251.5t108 204.5t161 149.5t200 94t223 31.5q110 0 206.5 -36.5t165.5 -102.5l95 127h18v-577h-35q-49 139 -95 236.5t-99.5 172t-116 110.5t-135.5 36q-172 0 -263 -178.5t-91 -518.5q0 -346 77.5 -520t239.5 -174q105 0 160 63.5t55 176.5v213 q0 71 -25.5 101t-101.5 42l-98 16v33q125 -2 364 -2q248 0 373 2v-33l-90 -16q-70 -13 -91.5 -42.5t-21.5 -100.5v-205l13 -275h-21l-135 156q-67 -79 -172 -121.5t-219 -42.5q-136 0 -259.5 50t-219 141.5t-152.5 231t-57 306.5z" />
<glyph unicode="H" horiz-adv-x="1708" d="M35 0v33l86 14q79 13 102 43t23 107v997q0 77 -23 106.5t-102 42.5l-86 15v33q131 -2 383 -2q248 0 379 2v-33l-82 -15q-74 -14 -94.5 -43t-20.5 -106v-459h508v459q0 77 -20.5 106t-94.5 43l-80 15v33q131 -2 379 -2q252 0 381 2v-33l-86 -15q-79 -13 -102 -42.5 t-23 -106.5v-997q0 -77 23 -107t102 -43l86 -14v-33q-65 0 -191 1t-190 1q-66 0 -190 -1t-189 -1v33l80 14q73 13 94 43t21 107v491h-508v-491q0 -78 20.5 -106.5t94.5 -43.5l82 -14v-33q-66 0 -190.5 1t-188.5 1q-66 0 -192 -1t-191 -1z" />
<glyph unicode="I" horiz-adv-x="847" d="M37 0v33l86 14q79 13 102 43t23 107v997q0 77 -23 106.5t-102 42.5l-86 15v33q131 -2 387 -2t387 2v-33l-86 -15q-79 -13 -102 -42.5t-23 -106.5v-997q0 -77 23 -107t102 -43l86 -14v-33q-65 0 -192.5 1t-194.5 1q-66 0 -194 -1t-193 -1z" />
<glyph unicode="J" horiz-adv-x="1161" d="M-16 272q0 100 60 166t155 66q85 0 136.5 -51.5t51.5 -130.5q0 -81 -42 -126t-103 -55q-49 -8 -49 -43q0 -37 41 -65.5t112 -28.5q120 0 188 86t68 256v838q0 78 -27 112t-112 47l-92 15v33q133 -2 393 -2t393 2v-33l-86 -15q-79 -13 -102 -42.5t-23 -106.5v-639 q0 -114 -33.5 -211t-91 -165t-133 -116t-160 -71t-172.5 -23q-166 0 -269 82.5t-103 220.5z" />
<glyph unicode="K" horiz-adv-x="1644" d="M35 0v33l86 14q79 13 102 43t23 107v997q0 77 -23 106.5t-102 42.5l-86 15v33q133 -2 389 -2q254 0 387 2v-33l-86 -15q-79 -13 -102 -42.5t-23 -106.5v-997q0 -77 21 -107t92 -43l80 -14v-33q-64 0 -188.5 1t-190.5 1q-64 0 -188.5 -1t-190.5 -1zM608 690l391 402 q63 64 87 99t24 64t-24 48t-85 36l-75 19v33q111 -2 325 -2q219 0 328 2v-33l-61 -15q-150 -32 -255.5 -93t-232.5 -189l-162 -158l516 -667q87 -107 131 -142.5t115 -52.5l43 -10v-31q-65 0 -188.5 1t-190.5 1q-68 0 -202.5 -1t-200.5 -1v33l57 8q43 7 61.5 21t18.5 36 q0 35 -55 105z" />
<glyph unicode="L" horiz-adv-x="1355" d="M35 0v33l86 14q79 13 102 43t23 107v997q0 77 -23 106.5t-102 42.5l-86 15v33q135 -2 395 -2t393 2v-33l-90 -15q-84 -13 -109.5 -44.5t-25.5 -108.5v-1040q0 -58 26 -84.5t83 -26.5h73q70 0 126 23t113.5 80t113 157t114.5 252h37l-8 -551h-1241z" />
<glyph unicode="M" horiz-adv-x="1955" d="M35 0v33l61 16q59 19 90 44.5t45.5 72t14.5 127.5v901q0 77 -23 106.5t-102 42.5l-86 15v33h592l370 -992l367 992h557v-33l-86 -15q-79 -13 -102 -42.5t-23 -106.5v-997q0 -77 23 -107t102 -43l86 -14v-33q-65 0 -192.5 1t-194.5 1q-65 0 -192.5 -1t-194.5 -1v33l86 14 q79 13 102 43t23 107v1044l-461 -1243h-129l-471 1231v-936q0 -120 31.5 -170.5t120.5 -73.5l63 -16v-33q-41 0 -119 1t-119 1q-42 0 -119.5 -1t-119.5 -1z" />
<glyph unicode="N" horiz-adv-x="1515" d="M35 0v33l61 16q59 19 90 44.5t45.5 72t14.5 127.5v895q0 76 -25.5 109t-101.5 46l-84 15v33h573l623 -1016v723q0 120 -31.5 170t-120.5 73l-63 17v33q84 -2 239 -2q156 0 238 2v-33l-61 -17q-86 -27 -118 -76t-32 -167v-1100h-256l-729 1198v-903q0 -120 31.5 -170.5 t120.5 -73.5l63 -16v-33q-41 0 -119 1t-119 1q-42 0 -119.5 -1t-119.5 -1z" />
<glyph unicode="O" d="M68 696q0 172 59 313t158 230.5t224 137.5t263 48t263.5 -48t224.5 -137.5t158 -230.5t59 -313t-59 -313.5t-158 -231t-224.5 -138t-263.5 -48.5t-263.5 48.5t-224 138t-157.5 231t-59 313.5zM446 696q0 -696 326 -696t326 696q0 123 -9.5 223.5t-33 190t-60 150.5 t-93 96t-130.5 35t-130.5 -35t-93 -96t-60 -150.5t-33 -190t-9.5 -223.5z" />
<glyph unicode="P" horiz-adv-x="1398" d="M35 0v33l86 14q79 13 102 42.5t23 105.5v999q0 77 -23 106.5t-102 42.5l-86 15v33h680q198 0 336.5 -38.5t219.5 -128.5t81 -229q0 -131 -84 -221.5t-224.5 -132t-328.5 -41.5q-11 0 -39.5 1t-53.5 2l-24 1v-397q0 -80 27 -113.5t112 -46.5l92 -14v-33q-66 0 -198.5 1 t-200.5 1q-66 0 -196.5 -1t-198.5 -1zM598 643q62 -4 117 -4q128 0 200 87.5t72 268.5q0 187 -69.5 272t-204.5 85h-115v-709z" />
<glyph unicode="Q" d="M68 696q0 168 56 307.5t152.5 230.5t224 141t271.5 50t271.5 -50t224.5 -141t153 -230.5t56 -307.5q0 -129 -33.5 -240.5t-92.5 -192.5t-132 -139t-158 -93q-61 -25 -241 -93.5t-275 -115.5q151 65 299 65q128 0 249.5 -18.5t198 -40.5t170 -40.5t172.5 -18.5 q130 0 184 29.5t70 99.5h25q-46 -443 -406 -443q-73 0 -139 21.5t-116 56t-97 76t-92 83.5t-90 76.5t-101.5 56t-117.5 21.5q-66 0 -121.5 -19t-92.5 -46t-69 -54t-66 -46t-69 -19q-43 0 -70 23.5t-37 60.5q60 45 153.5 75.5t172.5 35.5q66 31 140.5 60.5t173.5 67.5t169 66 q-179 -74 -295 -74q-101 0 -198.5 29.5t-183.5 89.5t-151.5 144.5t-103.5 202t-38 253.5zM446 696q0 -101 7 -187t21.5 -165t40 -139.5t61 -106t85 -69t111.5 -23.5q326 0 326 690q0 123 -9.5 223.5t-33 190t-60 150.5t-93 96t-130.5 35t-130.5 -35t-93 -96t-60 -150.5 t-33 -190t-9.5 -223.5z" />
<glyph unicode="R" horiz-adv-x="1515" d="M35 0v33l86 14q79 13 102 43t23 107v997q0 77 -23 106.5t-102 42.5l-86 15v33h696q132 0 237 -18.5t190 -59.5t131 -112.5t46 -170.5q0 -133 -92 -216t-233 -112q51 -21 84 -59.5t69 -116.5l160 -325q38 -79 71 -112t93 -46l51 -10v-33h-354q-77 0 -117.5 13t-65 44 t-49.5 99l-204 503h-35q-41 0 -113 5v-467q0 -77 23 -107t102 -43l86 -14v-33q-67 0 -194.5 1t-192.5 1q-66 0 -194 -1t-195 -1zM600 700q45 -2 113 -2q256 0 256 326q0 183 -64.5 256.5t-197.5 73.5h-107v-654z" />
<glyph unicode="S" horiz-adv-x="1220" d="M127 -25v590h35q97 -306 205.5 -434.5t263.5 -128.5q115 0 183.5 62.5t68.5 173.5q0 112 -80.5 177t-257.5 126q-207 72 -308.5 182t-101.5 272q0 192 140.5 311t349.5 119q200 0 329 -120l78 110h19v-538h-35q-84 275 -172.5 393.5t-222.5 118.5q-119 0 -181.5 -64 t-62.5 -162q0 -108 84 -174.5t256 -126.5q79 -28 137 -56t111 -67.5t86.5 -85.5t53 -108.5t19.5 -138.5q0 -88 -29 -162t-77 -124.5t-111.5 -86t-133 -52t-140.5 -16.5q-262 0 -400 135l-88 -125h-18z" />
<glyph unicode="T" horiz-adv-x="1404" d="M45 872l6 519h1301l8 -519h-33q-118 278 -200.5 379t-184.5 101h-63v-1155q0 -76 25 -105.5t110 -44.5l90 -14v-33q-69 0 -202 1t-200 1q-69 0 -200.5 -1t-200.5 -1v33l88 14q86 15 111.5 44.5t25.5 105.5v1155h-63q-103 0 -185 -100.5t-200 -379.5h-33z" />
<glyph unicode="U" horiz-adv-x="1552" d="M14 1358v33q131 -2 387 -2t387 2v-33l-86 -15q-79 -13 -101.5 -42.5t-22.5 -106.5v-702q0 -225 87.5 -328t256.5 -103q358 0 358 445v592q0 120 -31.5 170t-120.5 73l-61 17v33q82 -2 238 -2q155 0 237 2v-33l-61 -17q-86 -27 -118 -76t-32 -167v-592 q0 -124 -26.5 -217.5t-86.5 -167t-167 -112t-258 -38.5q-295 0 -431.5 132.5t-136.5 402.5v688q0 77 -23 106.5t-102 42.5z" />
<glyph unicode="V" horiz-adv-x="1505" d="M-16 1358v33q131 -2 393 -2q260 0 389 2v-33l-84 -12q-75 -14 -94 -56q-8 -17 -8 -42q0 -38 18 -93l281 -846l256 692q47 129 47 200q0 23 -5 39q-20 68 -135 97l-88 21v33q94 -2 283 -2q191 0 285 2v-33l-56 -15q-97 -27 -159 -102.5t-129 -251.5l-263 -698l-100 -293 h-180l-397 1108q-46 133 -86 181.5t-109 60.5z" />
<glyph unicode="W" horiz-adv-x="2140" d="M-16 1358v33q131 -2 395 -2q262 0 393 2v-33l-88 -12q-75 -14 -94 -58q-8 -18 -8 -44q0 -37 16 -89l225 -780l283 1020h178l307 -1022l191 626q29 96 37 154q3 19 3 36q0 34 -11 60q-16 38 -49 56t-97 34l-76 19v33q96 -2 285 -2t283 2v-33l-54 -12q-97 -27 -160 -105 t-118 -252l-205 -659l-96 -334h-176l-308 991l-184 -649l-90 -342h-178l-359 1112q-42 133 -79 180.5t-105 59.5z" />
<glyph unicode="X" horiz-adv-x="1652" d="M0 0v33l53 12q122 34 206 94.5t210 216.5l213 265l-334 507q-83 127 -130 168t-114 52l-61 10v33q137 -2 410 -2q274 0 411 2v-33l-82 -12q-49 -7 -67.5 -30t-11.5 -57t36 -83l207 -334l172 219q56 71 79.5 114t23.5 76q0 36 -30 57t-93 33l-82 17v33q98 -2 299 -2t301 2 v-33l-64 -15q-107 -25 -188.5 -87.5t-210.5 -221.5l-184 -227l360 -537q88 -130 135.5 -172t122.5 -55l58 -10v-33q-71 0 -211 1t-211 1t-211 -1t-211 -1v33l84 12q74 11 89 54q4 10 4 22q0 39 -38 96l-238 369l-198 -256q-88 -113 -88 -178q0 -40 33.5 -63t109.5 -38 l84 -18v-33q-53 0 -159.5 1t-159.5 1q-55 0 -163 -1t-161 -1z" />
<glyph unicode="Y" horiz-adv-x="1490" d="M-14 1358v33q133 -2 401 -2t401 2v-33l-96 -17q-71 -10 -81 -55q-2 -8 -2 -19q0 -41 32 -104l254 -522l192 373q74 145 74 223q0 44 -33 68t-100 38l-72 15v33q92 -2 277 -2q182 0 274 2v-33l-51 -12q-86 -24 -159 -97t-167 -256l-215 -409v-387q0 -75 26 -105t112 -45 l88 -14v-33q-67 0 -200 1t-202 1q-67 0 -199.5 -1t-201.5 -1v33l90 14q85 15 110 44.5t25 105.5v348l-325 620q-49 95 -90 133.5t-101 49.5z" />
<glyph unicode="Z" horiz-adv-x="1357" d="M72 0v39l786 1313h-211q-95 0 -161 -20t-125 -75.5t-108 -143.5t-108 -234h-36l12 512h1151v-39l-787 -1313h238q92 0 158.5 22t128 79t114 151.5t109.5 243.5h37l-13 -535h-1185z" />
<glyph unicode="[" horiz-adv-x="880" d="M246 -391v1982l598 -22v-35l-340 -21v-1826l340 -23v-35z" />
<glyph unicode="\" horiz-adv-x="657" d="M31 1493h67l529 -1595h-68z" />
<glyph unicode="]" horiz-adv-x="880" d="M37 -336l340 23v1826l-340 21v35l598 22v-1982l-598 20v35z" />
<glyph unicode="^" horiz-adv-x="1175" d="M129 915l363 652h192l363 -652h-54l-405 568l-404 -568h-55z" />
<glyph unicode="_" horiz-adv-x="1060" d="M0 -59h1061v-66h-1061v66z" />
<glyph unicode="`" horiz-adv-x="1132" d="M293 1530v6h223q34 -142 152 -352h-13q-124 71 -219 163t-143 183z" />
<glyph unicode="a" horiz-adv-x="1120" d="M57 215q0 78 39 136t117.5 95.5t182.5 60t247 34.5v202q0 144 -32.5 201t-125.5 57q-70 0 -109.5 -23t-39.5 -56q0 -18 10.5 -33t26 -27.5t31 -27t26 -39.5t10.5 -58q0 -69 -44.5 -109t-116.5 -40q-76 0 -122 47.5t-46 128.5q0 116 106 193t287 77q214 0 325 -92.5 t111 -273.5q0 -26 -1 -263t-1 -253q0 -93 59 -93q39 0 60.5 49t27.5 179h33q-3 -177 -52.5 -245.5t-164.5 -68.5q-103 0 -159.5 49t-69.5 164q-20 -105 -101 -161t-211 -56q-153 0 -228 68t-75 178zM365 223q0 -85 33 -129.5t94 -44.5q66 0 107.5 51.5t41.5 153.5l2 258 q-150 -22 -214 -85t-64 -204z" />
<glyph unicode="b" horiz-adv-x="1159" d="M-53 1477v24l467 88l37 -14q-15 -126 -15 -270v-119q0 -142 -14 -303t-14 -287q0 223 67 330.5t213 107.5q88 0 164 -34t133.5 -98.5t91 -165t33.5 -226.5q0 -108 -30.5 -199t-81.5 -153t-119 -105.5t-142 -63.5t-151 -20q-97 0 -179.5 32.5t-134.5 92.5l-139 -121h-20 l18 308v1065q0 66 -20.5 88.5t-92.5 31.5zM436 78q44 -74 144 -74q111 0 157.5 121.5t46.5 382.5q0 243 -36 352t-130 109q-85 0 -133.5 -97t-48.5 -276v-518z" />
<glyph unicode="c" horiz-adv-x="1052" d="M49 494q0 126 43.5 229.5t118 170.5t172.5 103.5t209 36.5q170 0 270.5 -74t100.5 -192q0 -84 -53 -138.5t-134 -54.5q-76 0 -124 42.5t-48 113.5q0 42 14.5 73t35 48t41.5 29.5t35.5 25t14.5 27.5q0 26 -34 46.5t-93 20.5q-243 0 -243 -497q0 -224 72 -332.5t200 -108.5 q90 0 161.5 46.5t133.5 150.5l31 -16q-76 -140 -178.5 -207.5t-245.5 -67.5q-101 0 -190.5 33t-159 96.5t-110 165.5t-40.5 230z" />
<glyph unicode="d" horiz-adv-x="1198" d="M49 494q0 113 32.5 206.5t85.5 154t122 102t139.5 59.5t140.5 18q80 0 154 -22v329q0 66 -27 91t-106 34l-74 11v24l492 88l34 -14q-14 -118 -14 -270v-1141q0 -66 17.5 -90t74.5 -33l60 -10v-31h-400l-26 20q0 35 -1 192.5t-1 195.5q0 -236 -68.5 -337.5t-218.5 -101.5 q-79 0 -151.5 31.5t-132.5 93t-96 165t-36 235.5zM375 494q0 -250 39 -355.5t133 -105.5q78 0 127 93.5t49 281.5v518q-45 73 -148 73q-105 0 -152.5 -119t-47.5 -386z" />
<glyph unicode="e" horiz-adv-x="1038" d="M49 498q0 130 43 234.5t115 169t161.5 98.5t186.5 34q199 0 309.5 -102t110.5 -287q0 -55 -6 -90h-594v-51q0 -224 72 -332.5t200 -108.5q90 0 161.5 46.5t133.5 150.5l31 -16q-73 -137 -176.5 -206t-245.5 -69q-104 0 -194.5 34.5t-159.5 99t-108.5 166.5t-39.5 229z M377 592l301 20l2 43q3 52 3 98q-1 41 -3 77q-4 76 -35 122.5t-90 46.5q-82 0 -126.5 -93.5t-51.5 -313.5z" />
<glyph unicode="f" horiz-adv-x="800" d="M10 942v39l185 31v51q0 138 37.5 242.5t104 166.5t151 92.5t184.5 30.5q154 0 235.5 -66t81.5 -167q0 -83 -49 -131.5t-125 -48.5q-73 0 -117.5 42t-44.5 109q0 45 19 77.5t41.5 46.5t41.5 29.5t19 29.5q0 19 -22.5 32t-69.5 13q-92 0 -138 -69t-46 -216q0 -42 2 -137 t2 -135h270v-62l-270 -14v-758q0 -69 19.5 -94.5t78.5 -34.5l66 -10v-31q-53 0 -158.5 1t-157.5 1q-53 0 -152.5 -1t-152.5 -1v31l59 10q56 9 73.5 32.5t17.5 88.5v749z" />
<glyph unicode="g" horiz-adv-x="1130" d="M10 -246q0 69 42 110.5t114 41.5q49 0 75 -24q23 -22 23 -59v-9q-40 -5 -64 -31.5t-24 -67.5q0 -83 89.5 -131.5t271.5 -48.5q181 0 285 56t104 143q0 38 -19 63t-65 40.5t-109 23t-164 12.5q-235 9 -351 71t-116 185q0 215 334 215h27q-190 0 -301 93.5t-111 246.5 q0 161 115.5 255.5t296.5 94.5q168 0 285 -88q111 103 231 103q79 0 125.5 -40.5t46.5 -107.5q0 -61 -38 -97t-95 -36q-54 0 -85.5 32t-31.5 81q0 21 5 45.5t5 31.5q0 21 -24 21q-42 0 -111 -57q113 -102 113 -258q0 -162 -119.5 -253.5t-314.5 -91.5q-107 0 -150 -16 t-43 -49q0 -39 68.5 -54t275.5 -24q254 -12 365.5 -86.5t111.5 -228.5q0 -178 -147.5 -269.5t-396.5 -91.5q-158 0 -275 27t-185.5 85t-68.5 142zM342 680q0 -161 32 -241.5t105 -80.5q76 0 105.5 79t29.5 243q0 166 -30.5 242.5t-106.5 76.5q-72 0 -103.5 -77t-31.5 -242z " />
<glyph unicode="h" horiz-adv-x="1294" d="M8 1477v24l467 88l37 -14q-14 -118 -14 -270v-117q0 -153 -15.5 -347t-15.5 -306q0 241 85 370t259 129q152 0 235.5 -87t83.5 -259v-524q0 -67 16.5 -90.5t74.5 -32.5l59 -10v-31q-51 0 -145.5 1t-145.5 1q-50 0 -147 -1t-148 -1v31l56 10q45 9 59 31t14 86v579 q0 109 -30 157t-95 48q-87 0 -143.5 -108t-56.5 -299v-377q0 -64 14 -86t59 -31l56 -10v-31q-50 0 -146.5 1t-146.5 1t-145.5 -1t-145.5 -1v31l57 10q58 9 75.5 33t17.5 90v1182q0 67 -20.5 89t-92.5 31z" />
<glyph unicode="i" horiz-adv-x="661" d="M12 915v29l451 82l41 -14q-8 -112 -8 -254v-596q0 -64 17 -88t73 -33l59 -10v-31q-53 0 -152 1t-151 1t-151.5 -1t-151.5 -1v31l59 10q56 9 73 33t17 90v624q0 69 -22.5 93t-91.5 30zM129 1372q0 83 53.5 132.5t136.5 49.5q88 0 142.5 -49t54.5 -133q0 -83 -55.5 -132.5 t-141.5 -49.5q-83 0 -136.5 50t-53.5 132z" />
<glyph unicode="j" horiz-adv-x="712" d="M-209 -285q0 81 50.5 132t129.5 51q73 0 117.5 -43.5t44.5 -112.5q0 -44 -15.5 -75t-33.5 -44t-33.5 -27.5t-15.5 -29.5q0 -33 61 -33q72 0 118 71t46 224v956q0 69 -26 95t-97 32l-63 4v29l458 82l41 -14q-10 -140 -10 -254v-744q0 -136 -39 -238.5t-107.5 -161.5 t-152.5 -87.5t-182 -28.5q-140 0 -215.5 60.5t-75.5 156.5zM195 1372q0 83 53.5 132.5t138.5 49.5q86 0 140.5 -49.5t54.5 -132.5t-55.5 -132.5t-141.5 -49.5q-83 0 -136.5 50t-53.5 132z" />
<glyph unicode="k" horiz-adv-x="1286" d="M8 1477v24l467 88l37 -14q-12 -101 -12 -270v-809l245 254q44 44 61 73t17 56q0 30 -29 49.5t-98 32.5l-49 10v33q150 -3 295 -3q148 0 295 3v-33l-49 -10q-247 -58 -397 -213l-72 -70l348 -471q74 -101 105.5 -129.5t82.5 -38.5l37 -8v-31q-52 0 -149.5 1t-149.5 1 t-154.5 -1t-154.5 -1v31l29 4q61 11 61 45q0 23 -39 80l-235 332v-332q0 -64 15 -88t65 -33l47 -8v-31q-43 0 -134.5 1t-146.5 1q-52 0 -151.5 -1t-151.5 -1v31l57 10q58 9 75.5 33t17.5 90v1182q0 66 -20.5 88.5t-92.5 31.5z" />
<glyph unicode="l" horiz-adv-x="665" d="M8 1477v24l467 88l35 -14q-12 -101 -12 -270v-1141q0 -66 17 -90t73 -33l61 -10v-31q-53 0 -152 1t-151 1q-53 0 -152 -1t-151 -1v31l57 10q58 9 75.5 33t17.5 90v1182q0 66 -20.5 88.5t-92.5 31.5z" />
<glyph unicode="m" horiz-adv-x="1898" d="M10 911v29l424 84l41 -14q-12 -175 -12 -475q0 240 82.5 369.5t251.5 129.5q147 0 217.5 -82.5t70.5 -259.5q0 -36 -1 -86.5t-1 -70.5q0 499 336 499q153 0 234.5 -87t81.5 -259v-524q0 -66 16.5 -90t73.5 -33l59 -10v-31q-52 0 -143 1t-142 1t-149 -1t-150 -1v31l54 10 q45 9 59 31t14 86v579q0 107 -29 156t-91 49q-86 0 -140.5 -108t-54.5 -299v-377q0 -64 15 -86t61 -31l53 -10v-31q-48 0 -140 1t-140 1t-140.5 -1t-140.5 -1v31l53 10q45 9 59.5 31t14.5 86v579q0 105 -29 155t-90 50q-86 0 -140 -107t-54 -300v-377q0 -64 14 -86t59 -31 l54 -10v-31q-51 0 -149.5 1t-149.5 1q-52 0 -143 -1t-142 -1v31l59 10q56 9 73 33t17 90v622q0 69 -22 92t-92 29z" />
<glyph unicode="n" horiz-adv-x="1290" d="M10 911v29l424 84l41 -14q-12 -175 -12 -475q0 239 83 369t257 130q153 0 237 -87.5t84 -258.5v-524q0 -66 16.5 -90t73.5 -33l62 -10v-31q-51 0 -146 1t-145 1t-147.5 -1t-147.5 -1v31l53 10q46 9 61 31t15 86v579q0 108 -30.5 156.5t-96.5 48.5q-87 0 -142.5 -108 t-55.5 -299v-377q0 -64 14 -86t59 -31l56 -10v-31q-50 0 -146.5 1t-146.5 1q-51 0 -147 -1t-146 -1v31l59 10q56 9 73 33t17 90v620q0 70 -22 93.5t-92 29.5z" />
<glyph unicode="o" horiz-adv-x="1112" d="M49 502q0 127 43 230t114.5 168t162 99.5t188.5 34.5t188 -34.5t161.5 -99.5t114 -168t42.5 -230q0 -128 -42.5 -231.5t-114 -168t-161.5 -99t-188 -34.5t-188.5 34.5t-162 99t-114.5 168t-43 231.5zM375 502q0 -127 8 -214.5t28.5 -154t56 -98t89.5 -31.5t89.5 31.5 t56 98t28.5 154t8 214.5q0 126 -8 213.5t-28.5 153.5t-56 98t-89.5 32t-89.5 -32t-56 -98t-28.5 -153.5t-8 -213.5z" />
<glyph unicode="p" horiz-adv-x="1189" d="M-16 911v29l424 84l41 -14q-13 -187 -13 -400q0 206 63.5 315t213.5 109q82 0 156.5 -31t136 -92t97.5 -163t36 -232q0 -114 -32.5 -208t-84.5 -155.5t-120 -104t-137.5 -61t-137.5 -18.5q-87 0 -160 21v-295q0 -68 18 -92.5t76 -34.5l60 -10v-29q-52 0 -153 1t-153 1 t-152 -1t-153 -1v29l60 10q56 10 73 34.5t17 88.5v1093q0 70 -22.5 93.5t-92.5 29.5zM467 72q46 -68 147 -68q66 0 108 44t66.5 158t24.5 304q0 252 -38.5 355.5t-127.5 103.5t-134.5 -94t-45.5 -265v-538z" />
<glyph unicode="q" horiz-adv-x="1167" d="M49 489q0 113 32 206.5t84.5 155t121.5 104t140 61t144 18.5q226 0 336 -121l123 119h21l-23 -317v-1022q0 -66 18 -90.5t76 -34.5l60 -10v-29q-52 0 -152 1t-153 1t-153 -1t-153 -1v29l62 10q56 10 73 34.5t17 88.5v129q0 93 14.5 282t14.5 295q0 -228 -67.5 -328 t-211.5 -100q-60 0 -118.5 18t-114 59t-98 100t-68 147.5t-25.5 195.5zM375 502q0 -248 43 -357.5t133 -109.5q77 0 124.5 89.5t47.5 272.5v521q-45 81 -145 81q-103 0 -153 -113.5t-50 -383.5z" />
<glyph unicode="r" horiz-adv-x="987" d="M10 911v29l424 84l41 -14q-14 -164 -14 -635q0 159 18 295q12 79 32 141t53.5 115t86.5 81.5t123 28.5q92 0 146.5 -51.5t54.5 -134.5q0 -88 -53 -139.5t-134 -51.5q-60 0 -98 29.5t-47 77.5q-5 21 -10 61q-3 29 -23 29q-30 0 -57.5 -53t-42.5 -144q-21 -132 -21 -282 v-207q0 -70 20 -95t79 -34l65 -10v-31q-53 0 -157 1t-156 1q-53 0 -151.5 -1t-151.5 -1v31l59 10q56 9 73 33t17 90v620q0 70 -22 93.5t-92 29.5z" />
<glyph unicode="s" horiz-adv-x="925" d="M82 -27v435h35q69 -211 156 -307.5t198 -96.5q82 0 134 35.5t52 112.5q0 73 -59 119.5t-207 101.5q-63 23 -111.5 50t-93 67.5t-68.5 97.5t-24 127q0 140 105 229.5t274 89.5q158 0 258 -84l62 82h16v-387h-35q-67 183 -137.5 268.5t-165.5 85.5q-83 0 -128.5 -39 t-45.5 -102q0 -72 60.5 -116.5t209.5 -100.5q61 -22 108.5 -48.5t92.5 -66.5t69.5 -97t24.5 -128q0 -155 -107 -243.5t-284 -88.5q-190 0 -305 94l-68 -90h-16z" />
<glyph unicode="t" horiz-adv-x="811" d="M-23 952v35l154 29q65 11 100.5 48t55.5 116l39 149h151l-8 -325h305v-60l-305 -16v-719q0 -79 24.5 -112.5t75.5 -33.5q56 0 96.5 54t69.5 174l35 -6q-35 -166 -104.5 -240t-212.5 -74q-137 0 -214 72t-77 209v666z" />
<glyph unicode="u" horiz-adv-x="1193" d="M-27 973v31h463l-6 -170v-592q0 -185 123 -185q76 0 125 88t49 254v443q0 62 -16 87t-68 34l-68 10v31h465l-8 -183v-657q0 -64 16 -90t68 -33l66 -10v-31h-400l-24 20v379q0 -213 -78 -321.5t-244 -108.5q-142 0 -227.5 80.5t-85.5 235.5v557q0 62 -15 87t-67 34z" />
<glyph unicode="v" horiz-adv-x="1132" d="M-18 973v31q156 -3 315 -3q158 0 317 3v-31l-55 -8q-63 -9 -75 -49q-4 -12 -4 -27q0 -36 20 -90l184 -541l166 442q41 109 41 162q0 42 -27.5 64t-85.5 35l-61 12v31q114 -3 221 -3q108 0 219 3v-31l-33 -8q-82 -22 -131 -79.5t-106 -207.5l-264 -682h-140l-313 803 q-35 89 -63.5 124t-77.5 42z" />
<glyph unicode="w" horiz-adv-x="1566" d="M-18 973v31q156 -3 311 -3q157 0 313 3v-31l-59 -8q-56 -9 -70 -47q-5 -14 -5 -33q0 -33 15 -80l142 -477l192 680h140l210 -684l117 364q31 94 31 158q0 94 -131 117l-49 10v31q111 -3 225 -3q113 0 227 3v-31l-47 -10q-74 -20 -122.5 -82t-96.5 -209l-221 -676h-135 l-209 647l-185 -647h-135l-274 805q-30 88 -59.5 122t-77.5 42z" />
<glyph unicode="x" horiz-adv-x="1196" d="M0 0v31l39 8q77 15 144.5 68t140.5 153l145 203l-213 336q-58 92 -92.5 123.5t-85.5 42.5l-41 8v31q156 -3 313 -3q158 0 314 3v-31l-39 -6q-58 -8 -58 -55q0 -34 31 -89l121 -213l108 156q54 74 54 125q0 29 -21.5 45.5t-71.5 28.5l-47 8v31q111 -3 220 -3t217 3v-31 l-39 -8q-77 -15 -141.5 -67.5t-139.5 -156.5l-119 -163l230 -369q56 -91 93 -124t91 -44l43 -10v-31q-54 0 -164 1t-164 1t-163 -1t-164 -1v31l49 8q60 9 68 45l2 12q0 33 -33 86l-138 246l-133 -190q-53 -74 -53 -121q0 -30 23 -47t80 -31l43 -8v-31q-38 0 -112.5 1 t-111.5 1q-38 0 -112.5 -1t-112.5 -1z" />
<glyph unicode="y" horiz-adv-x="1122" d="M-20 -301q0 76 48 127t132 51h4q64 0 102 -31q39 -33 47 -86q2 -30 -9 -62.5t-9 -43.5q3 -27 29 -27q101 0 219 320l10 30l-369 820q-41 91 -70.5 125t-78.5 43l-49 8v31q159 -3 317 -3q153 0 309 3v-31l-57 -8q-68 -9 -68 -70q0 -34 21 -84l197 -485l141 372 q39 100 39 160q0 42 -29 67.5t-90 37.5l-53 10v31q108 -3 217 -3q108 0 219 3v-31l-33 -8q-85 -23 -129 -77t-104 -204l-279 -704q-76 -194 -136.5 -295t-123 -141t-151.5 -40q-99 0 -156 54.5t-57 140.5z" />
<glyph unicode="z" horiz-adv-x="1030" d="M59 0v39l549 926h-119q-136 0 -209.5 -82t-154.5 -316h-31l6 437h852v-39l-544 -926h127q55 0 93.5 6t73 26t58 44.5t51.5 75.5t51 104.5t58 144.5h30l-6 -440h-885z" />
<glyph unicode="{" horiz-adv-x="890" d="M45 563v72q101 3 161.5 17t93.5 46.5t43.5 74.5t10.5 112q0 59 -35.5 201t-35.5 202q0 149 89.5 219t293.5 66l190 -2v-37l-172 -10q-77 -6 -106 -47.5t-29 -141.5q0 -51 19.5 -202t19.5 -205q0 -149 -99 -223t-274 -93v-26q175 -19 274 -93t99 -223q0 -54 -19.5 -205 t-19.5 -202q0 -100 29 -141.5t106 -47.5l172 -10v-37l-190 -2q-204 -4 -293.5 66t-89.5 219q0 59 35.5 201.5t35.5 203.5q0 69 -11 111t-44 74t-93.5 46t-160.5 17z" />
<glyph unicode="|" horiz-adv-x="544" d="M238 -205v1698h71v-1698h-71z" />
<glyph unicode="}" horiz-adv-x="890" d="M35 -336l172 10q77 6 106 47.5t29 141.5q0 51 -19.5 202t-19.5 205q0 149 99 223t274 93v26q-175 19 -274 93t-99 223q0 54 19.5 205t19.5 202q0 100 -29 141.5t-106 47.5l-172 10v37l190 2q204 4 293.5 -66t89.5 -219q0 -60 -35.5 -202t-35.5 -201q0 -70 10.5 -112 t43.5 -74.5t93.5 -46.5t161.5 -17v-72q-100 -3 -160.5 -17t-93.5 -46t-44 -74t-11 -111q0 -61 35.5 -203.5t35.5 -201.5q0 -149 -89.5 -219t-293.5 -66l-190 2v37z" />
<glyph unicode="~" horiz-adv-x="1077" d="M125 424q0 105 52.5 171.5t154.5 66.5q64 0 135.5 -24.5t123 -53.5t107.5 -53.5t93 -24.5q60 0 87 30t27 95h47q0 -135 -49.5 -208t-163.5 -73q-62 0 -131.5 24t-119.5 52.5t-105.5 52.5t-93.5 25q-115 3 -115 -142h-45q-4 40 -4 62z" />
<glyph unicode="&#xa1;" horiz-adv-x="694" d="M152 -207q0 46 12 89t37.5 109t40.5 113q80 220 92 484h24q14 -262 95 -484q15 -47 40.5 -113t37.5 -109t12 -89q0 -90 -55.5 -143t-141.5 -53q-85 0 -139.5 53t-54.5 143zM172 866q0 74 50 123t124 49t125 -49t51 -123q0 -75 -50.5 -124.5t-125.5 -49.5q-74 0 -124 49 t-50 125z" />
<glyph unicode="&#xa2;" horiz-adv-x="1120" d="M90 487q0 105 32.5 196t87.5 156t127 111.5t151 69t159 22.5l51 226h45l-51 -228q157 -7 249.5 -80t92.5 -182q0 -75 -47 -125.5t-121 -50.5q-68 0 -110.5 41.5t-42.5 106.5q0 34 11.5 60.5t27.5 42t32 28t27.5 24.5t11.5 25q0 32 -40 54.5t-99 21.5l-188 -813 q92 -80 211 -80q93 0 161 29t129 106l29 -17q-146 -262 -442 -262q-64 0 -135 19l-68 -297h-47l72 311q-139 53 -227.5 178t-88.5 307zM350 563q0 -206 109 -332l180 777q-129 -11 -209 -127.5t-80 -317.5z" />
<glyph unicode="&#xa3;" horiz-adv-x="1251" d="M16 156q0 104 81.5 173.5t224.5 69.5q88 0 186 -24v33q0 33 -11 72t-20 60.5t-33 73.5l-294 33v29l258 22q-52 122 -52 236q0 181 128 287t341 106q149 0 240.5 -70.5t91.5 -177.5q0 -76 -47 -130t-121 -54q-72 0 -116 42t-44 110q0 32 10.5 58t25.5 43t30.5 30.5t26 28 t10.5 28.5q0 27 -25.5 43t-70.5 16q-79 0 -116.5 -77.5t-51.5 -260.5q-3 -42 -23 -262h281v-49l-287 -12q-6 -67 -27 -201q-16 -77 -18 -84q22 -8 79.5 -29t85 -30t72.5 -18t84 -9q98 0 129 58t7 149h34q34 -87 34 -177t-29 -162.5t-94 -118.5t-154 -46q-101 0 -174.5 44 t-155.5 126q-104 -172 -281 -172q-96 0 -155.5 53t-59.5 140zM63 145q0 -69 47.5 -107t120.5 -38q173 0 240 174q-64 62 -121 95.5t-125 33.5q-72 0 -117 -44.5t-45 -113.5z" />
<glyph unicode="&#xa4;" horiz-adv-x="1107" d="M98 104l158 156q-82 109 -82 246q0 138 82 244l-158 157l47 47l154 -155q107 96 254 96q148 0 254 -98l156 157l47 -47l-158 -157q80 -107 80 -244t-80 -244l158 -158l-47 -49l-156 158q-107 -96 -254 -96q-145 0 -252 96l-156 -158zM326 506q0 -102 64.5 -173t162.5 -71 q99 0 163 71t64 173q0 103 -63.5 173.5t-163.5 70.5q-98 0 -162.5 -70.5t-64.5 -173.5z" />
<glyph unicode="&#xa5;" horiz-adv-x="1490" d="M2 1266v32q133 -2 389 -2q269 0 402 2v-32l-95 -17q-71 -10 -83 -56t30 -122l244 -461l184 328q43 80 60.5 125.5t17.5 83.5q0 42 -33.5 66t-101.5 38l-72 15v32q92 -2 275 -2q180 0 270 2v-32l-47 -13q-84 -24 -157 -95.5t-169 -246.5l-170 -303h250v-61h-281v-131h281 v-62h-281v-157q0 -76 25.5 -105.5t110.5 -44.5l88 -14v-33q-67 0 -200 1t-200 1q-69 0 -200.5 -1t-200.5 -1v33l88 14q85 15 110 44.5t25 105.5v157h-330v62h330v90l-22 41h-308v61h273l-262 465q-53 96 -91 134t-94 48z" />
<glyph unicode="&#xa6;" horiz-adv-x="544" d="M238 -205v707h71v-707h-71zM238 788v705h71v-705h-71z" />
<glyph unicode="&#xa7;" horiz-adv-x="1150" d="M127 461q0 56 16 105t45.5 87.5t54.5 62.5t60 52l19 -16q-62 -52 -62 -131q0 -49 30 -92t79.5 -75t112.5 -65.5t128.5 -62.5t128.5 -68t112.5 -81t79.5 -102t30 -130q0 -109 -60.5 -190.5t-158 -122t-214.5 -40.5q-171 0 -282 71.5t-111 191.5q0 75 43 123.5t117 48.5 q68 0 113 -39t45 -105q0 -39 -16.5 -68.5t-37 -44t-37 -31.5t-16.5 -34q0 -32 50.5 -56t129.5 -24q126 0 189 53t63 142q0 56 -36 102.5t-93.5 80t-126.5 65.5t-138.5 68t-127 78.5t-93.5 105.5t-36 141zM190 1071q0 109 61 190.5t158 121.5t214 40q171 0 282 -70.5 t111 -189.5q0 -75 -43.5 -124.5t-116.5 -49.5q-68 0 -113 39t-45 105q0 39 16.5 69t36 44.5t36 31.5t16.5 33q0 33 -49.5 56.5t-128.5 23.5q-124 0 -188 -53t-64 -142q0 -56 36 -102.5t93.5 -79.5t126.5 -64.5t138.5 -67.5t127 -77.5t93.5 -104.5t36 -141q0 -56 -16 -105 t-45.5 -87.5t-54.5 -62.5t-60 -52l-19 16q62 52 62 131q0 49 -30 92t-79.5 74.5t-112.5 64.5t-128.5 62t-128.5 67.5t-112.5 80t-79.5 101.5t-30 130z" />
<glyph unicode="&#xa8;" horiz-adv-x="1132" d="M219 1376q0 53 37 90t92 37t92 -37t37 -90q0 -54 -37 -90.5t-92 -36.5t-92 36.5t-37 90.5zM662 1376q0 53 35.5 90t90.5 37t92.5 -37t37.5 -90q0 -54 -37.5 -90.5t-92.5 -36.5t-90.5 36.5t-35.5 90.5z" />
<glyph unicode="&#xa9;" horiz-adv-x="1695" d="M137 532q0 147 56.5 278.5t152 225t227 148.5t275.5 55t275.5 -55t227 -148.5t152 -225t56.5 -278.5t-56.5 -278.5t-152 -225t-227 -148t-275.5 -54.5t-275.5 54.5t-227 148t-152 225t-56.5 278.5zM195 532q0 -137 51 -259t138.5 -208.5t208 -137t255.5 -50.5t255.5 50.5 t208 137t138.5 208.5t51 259t-51 259t-138.5 209t-208 137.5t-255.5 50.5t-255.5 -50.5t-208 -137.5t-138.5 -209t-51 -259zM455 532q0 198 115.5 309t287.5 111q154 0 238 -94l32 88h29v-317h-45l-27 80q-33 93 -81 144.5t-136 51.5q-90 0 -138 -103.5t-48 -266.5t48 -265 t138 -102q85 0 133.5 51t83.5 143l27 78h45v-313h-29l-34 94q-92 -98 -234 -98q-84 0 -156.5 25.5t-128.5 75t-88 128.5t-32 180z" />
<glyph unicode="&#xaa;" horiz-adv-x="811" d="M49 852q0 52 22 93t59 68.5t92.5 48t114.5 32t134 18.5v131q0 75 -27.5 112.5t-91.5 37.5q-90 0 -139 -64q39 0 63.5 -26t24.5 -66q0 -45 -29 -72.5t-77 -27.5q-43 0 -72 28t-29 78q0 81 77 134t208 53q147 0 228 -65t81 -196v-333q0 -40 10 -56t35 -16q27 0 42 29.5 t24 103.5l37 -2q-8 -105 -47.5 -156t-124.5 -51q-65 0 -101.5 29t-48.5 92q-29 -63 -94.5 -97t-149.5 -34q-102 0 -161.5 48.5t-59.5 125.5zM94 475v57h656v-57h-656zM276 870q0 -129 93 -129q47 0 74.5 37t27.5 99v202q-104 -12 -149.5 -62t-45.5 -147z" />
<glyph unicode="&#xab;" horiz-adv-x="1038" d="M102 479v53l400 369h30l-204 -395l204 -395h-30zM469 479v53l399 369h31l-205 -395l205 -395h-31z" />
<glyph unicode="&#xac;" horiz-adv-x="1126" d="M115 606v72h897v-387h-72v315h-825z" />
<glyph unicode="&#xad;" horiz-adv-x="612" d="M51 463v86h510v-86h-510z" />
<glyph unicode="&#xae;" horiz-adv-x="1695" d="M137 532q0 147 56.5 278.5t152 225t227 148.5t275.5 55t275.5 -55t227 -148.5t152 -225t56.5 -278.5t-56.5 -278.5t-152 -225t-227 -148t-275.5 -54.5t-275.5 54.5t-227 148t-152 225t-56.5 278.5zM195 532q0 -137 51 -259t138.5 -208.5t208 -137t255.5 -50.5t255.5 50.5 t208 137t138.5 208.5t51 259t-51 259t-138.5 209t-208 137.5t-255.5 50.5t-255.5 -50.5t-208 -137.5t-138.5 -209t-51 -259zM475 143v25l80 22q20 3 20 27v637q0 23 -20 29l-80 20v27h60q66 0 173.5 2t139.5 2q157 0 244.5 -52.5t87.5 -156.5q0 -142 -170 -190 q45 -30 71 -89l97 -217q15 -37 43 -49l36 -12v-25h-262l-139 357h-25q-33 0 -51 2v-285q0 -25 19 -27l88 -22v-25h-412zM780 543q25 -2 60 -2q137 0 137 180q0 170 -127 170q-39 0 -70 -2v-346z" />
<glyph unicode="&#xaf;" horiz-adv-x="1132" d="M295 1333v82q148 -8 285 -8q142 0 286 8v-82q-144 8 -284 8q-139 0 -287 -8z" />
<glyph unicode="&#xb0;" horiz-adv-x="706" d="M115 1192q0 104 68.5 172t170.5 66q102 0 170.5 -67t69.5 -171q0 -103 -69 -169.5t-171 -66.5t-170.5 66.5t-68.5 169.5zM186 1192q0 -73 48.5 -122.5t119.5 -49.5q72 0 120 49t48 123q0 76 -47.5 125t-120.5 51q-71 0 -119.5 -50t-48.5 -126z" />
<glyph unicode="&#xb1;" horiz-adv-x="1126" d="M115 0v72h411v399h-411v74h411v407h74v-407h412v-74h-412v-399h412v-72h-897z" />
<glyph unicode="&#xb2;" horiz-adv-x="765" d="M76 1581q0 81 72.5 138t205.5 57q85 0 153.5 -21.5t113.5 -70t45 -117.5q0 -45 -16 -81.5t-59 -71t-69 -50.5t-94 -54q-2 -2 -3.5 -2.5t-4 -2t-4.5 -2.5q-101 -54 -185 -111h312q35 0 49.5 9t25.5 36l25 66h35l-27 -279h-561l-6 84q198 147 270 233q88 102 88 238 q0 85 -31.5 123.5t-97.5 38.5q-52 0 -95 -24t-62 -64q13 8 37 8q39 0 64.5 -26.5t25.5 -63.5q0 -42 -29.5 -71.5t-73.5 -29.5q-45 0 -74.5 30.5t-29.5 80.5z" />
<glyph unicode="&#xb3;" horiz-adv-x="770" d="M68 1159q0 50 30 79.5t76 29.5q47 0 73.5 -27.5t26.5 -66.5q0 -42 -27.5 -68.5t-60.5 -26.5q40 -43 109 -43q78 0 129.5 59.5t50.5 153.5q0 84 -22 120t-72 36q-30 0 -70 -25.5t-67 -25.5q-50 0 -47 57q53 23 168 31q98 61 98 170q0 129 -119 129q-87 0 -135 -55l16 4 q37 0 60.5 -24.5t23.5 -63.5q0 -41 -27.5 -69t-72.5 -28q-42 0 -70 28.5t-28 72.5q0 76 72.5 123t189.5 47q133 0 211 -45t78 -117q0 -20 -3.5 -36.5t-14 -30.5t-18.5 -24t-27.5 -20t-31 -16t-38.5 -14.5t-39.5 -12t-45.5 -12t-47 -12.5l-8 -9q44 7 78 7q103 0 168 -45.5 t65 -126.5q0 -65 -33.5 -116.5t-89.5 -82t-123 -46.5t-139 -16q-114 0 -180.5 45.5t-66.5 112.5z" />
<glyph unicode="&#xb4;" horiz-adv-x="1132" d="M479 1184q114 204 150 352h223v-6q-47 -91 -142.5 -182.5t-217.5 -163.5h-13z" />
<glyph unicode="&#xb5;" horiz-adv-x="1267" d="M-27 981v31h465l-6 -170v-596q0 -102 32 -145.5t93 -43.5q78 0 127 88.5t49 257.5v445q0 64 -15.5 89t-68.5 34l-67 10v31h467l-9 -183v-665q0 -64 15.5 -90t68.5 -33l68 -10v-31h-401l-27 20v383q0 -212 -70.5 -323t-206.5 -111q-74 0 -125 60q2 -9 15.5 -64t17 -72.5 t13.5 -65.5t13.5 -76.5t7 -70t3.5 -79.5v-72h-307v1319q0 64 -15.5 89t-68.5 34z" />
<glyph unicode="&#xb6;" horiz-adv-x="1327" d="M82 948q0 95 28 174t84.5 140.5t150.5 96t218 34.5q91 0 195 -2v-1766h-66v942q-77 -22 -155 -22q-209 0 -332 106.5t-123 296.5zM936 -375v1766h336v-33l-105 -17q-104 -17 -135 -49t-31 -116v-1551h-65z" />
<glyph unicode="&#xb7;" horiz-adv-x="681" d="M164 506q0 75 51.5 124.5t126.5 49.5q76 0 127 -49t51 -125t-52 -126t-126 -50t-126 50t-52 126z" />
<glyph unicode="&#xb8;" horiz-adv-x="1079" d="M360 -438l19 24q66 -32 125 -32t93 39.5t34 113.5q0 53 -21.5 85t-62.5 32q-27 0 -70 -19l-22 19l49 172h37l-33 -152q67 23 121 23q87 0 144.5 -44t57.5 -124q0 -65 -42 -111.5t-101.5 -67t-126.5 -20.5q-109 0 -201 62z" />
<glyph unicode="&#xb9;" horiz-adv-x="698" d="M106 1677v31l109 12q149 17 207 47h55q-6 -85 -6 -170v-497q0 -18 16 -21l121 -20v-35h-497v33l125 22q20 3 20 21v528q0 34 -39 37z" />
<glyph unicode="&#xba;" horiz-adv-x="847" d="M66 1055q0 93 29.5 166t79.5 118t112.5 68t132.5 23q95 0 174 -39.5t130.5 -126t51.5 -207.5q0 -93 -29.5 -167t-79.5 -119t-113.5 -69t-133.5 -24q-147 0 -250.5 98.5t-103.5 278.5zM96 475v57h652v-57h-652zM307 1055q0 -186 25 -262t88 -76q64 0 89.5 76.5t25.5 263.5 q0 184 -25.5 260t-89.5 76q-63 0 -88.5 -77t-24.5 -261z" />
<glyph unicode="&#xbb;" horiz-adv-x="1038" d="M139 111l205 395l-205 395h31l399 -369v-53l-399 -368h-31zM506 111l205 395l-205 395h31l399 -369v-53l-399 -368h-31z" />
<glyph unicode="&#xbc;" horiz-adv-x="1785" d="M162 1315v31l108 12q149 17 207 47h55q-6 -86 -6 -170v-498q0 -17 17 -20l121 -21v-34h-498v32l125 23q20 3 20 20v529q0 34 -39 37zM346 12l514 697l481 712l68 -43l-514 -694l-481 -715zM1024 557q0 81 73 138t206 57q62 0 117 -12.5t99 -37t69.5 -65.5t25.5 -94 q0 -45 -16 -81.5t-59 -71t-69 -50.5t-94 -54q-8 -5 -12 -7q-96 -52 -184 -111h311q35 0 50 9t26 36l24 66h35l-27 -279h-561l-6 84q201 149 271 233q88 102 88 238q0 85 -31.5 123.5t-97.5 38.5q-53 0 -96 -24t-62 -64q13 8 37 8q39 0 64.5 -26.5t25.5 -63.5 q0 -42 -29.5 -71.5t-73.5 -29.5q-45 0 -74.5 30.5t-29.5 80.5z" />
<glyph unicode="&#xbd;" horiz-adv-x="1763" d="M162 1315v31l108 12q149 17 207 47h55q-6 -86 -6 -170v-498q0 -17 17 -20l121 -21v-34h-498v32l125 23q20 3 20 20v529q0 34 -39 37zM354 12l514 697l482 712l67 -43l-514 -694l-481 -715zM942 252l324 477h190v-471h27q25 0 38.5 12.5t24.5 42.5l29 74h31l-23 -174h-127 v-139q0 -18 19 -21l100 -20v-33h-457v31l111 22q18 3 18 21v139h-297zM999 260l248 -2v223l4 152z" />
<glyph unicode="&#xbe;" horiz-adv-x="1843" d="M172 797q0 50 30.5 79t76.5 29q47 0 73.5 -27.5t26.5 -66.5q0 -42 -27.5 -68t-60.5 -26q40 -43 108 -43q78 0 130 59.5t51 153.5q0 84 -22.5 119.5t-72.5 35.5q-30 0 -70 -25.5t-67 -25.5q-50 0 -47 58q50 22 168 30q98 61 98 170q0 129 -118 129q-88 0 -136 -55l17 4 q37 0 60.5 -24.5t23.5 -63.5q0 -41 -28 -68.5t-73 -27.5q-42 0 -70 28t-28 72q0 76 72.5 123t189.5 47q133 0 211 -45t78 -117q0 -20 -3.5 -36.5t-13.5 -30.5t-18.5 -24t-27.5 -20t-30.5 -16t-38.5 -14.5t-39.5 -12t-46 -12t-46.5 -12.5l-8 -8q37 6 77 6q103 0 168.5 -45.5 t65.5 -126.5q0 -65 -33.5 -116t-89.5 -81.5t-123 -46.5t-139 -16q-115 0 -181.5 45.5t-66.5 112.5zM422 12l514 697l481 712l68 -43l-514 -694l-482 -715zM1020 252l323 477h191v-471h27q25 0 38.5 12.5t24.5 42.5l29 74h30l-22 -174h-127v-139q0 -18 18 -21l101 -20v-33 h-457v31l111 22q18 3 18 21v139h-297zM1077 260l248 -2v223l4 152z" />
<glyph unicode="&#xbf;" horiz-adv-x="1181" d="M70 -27q0 82 32 148.5t83.5 109t120 71.5t137.5 41.5t139 12.5q23 0 73 -4l37 226h29l43 -275l-25 -10q-55 24 -131 24q-91 0 -146.5 -86t-55.5 -274q0 -157 55.5 -240.5t159.5 -83.5q62 0 109.5 23t74 61.5t40 83.5t13.5 93q0 68 -26.5 104.5t-71.5 36.5 q-79 0 -115 -137l-22 2q21 133 90 203.5t172 70.5q101 0 160 -60t59 -161q0 -152 -136 -254t-362 -102q-154 0 -273 41t-191 127.5t-72 207.5zM520 868q0 74 51 123t125 49t124 -49t50 -123q0 -76 -50 -125t-124 -49q-75 0 -125.5 49.5t-50.5 124.5z" />
<glyph unicode="&#xc0;" horiz-adv-x="1486" d="M-10 0v33l57 16q87 26 139 96t121 254l262 703l99 293h186l408 -1110q51 -141 84.5 -186t93.5 -56l57 -10v-33q-65 0 -188 1t-187 1t-190 -1t-191 -1v33l88 12q73 13 88 55t-16 136l-65 190h-469l-15 -39q-60 -160 -40 -232.5t132 -101.5l84 -20v-33q-47 0 -135 1t-135 1 q-46 0 -134 -1t-134 -1zM383 471h436l-211 612zM504 1780v6h270q21 -52 60.5 -125.5t80.5 -130.5h-14q-108 41 -225 113.5t-172 136.5z" />
<glyph unicode="&#xc1;" horiz-adv-x="1486" d="M-10 0v33l57 16q87 26 139 96t121 254l262 703l99 293h186l408 -1110q51 -141 84.5 -186t93.5 -56l57 -10v-33q-65 0 -188 1t-187 1t-190 -1t-191 -1v33l88 12q73 13 88 55t-16 136l-65 190h-469l-15 -39q-60 -160 -40 -232.5t132 -101.5l84 -20v-33q-47 0 -135 1t-135 1 q-46 0 -134 -1t-134 -1zM383 471h436l-211 612zM594 1530q43 59 83 133t58 123h271v-6q-56 -64 -172.5 -136.5t-225.5 -113.5h-14z" />
<glyph unicode="&#xc2;" horiz-adv-x="1486" d="M-10 0v33l57 16q87 26 139 96t121 254l262 703l99 293h186l408 -1110q51 -141 84.5 -186t93.5 -56l57 -10v-33q-65 0 -188 1t-187 1t-190 -1t-191 -1v33l88 12q73 13 88 55t-16 136l-65 190h-469l-15 -39q-60 -160 -40 -232.5t132 -101.5l84 -20v-33q-47 0 -135 1t-135 1 q-46 0 -134 -1t-134 -1zM383 471h436l-211 612zM451 1530l223 256h164l215 -256h-19l-313 143l-256 -143h-14z" />
<glyph unicode="&#xc3;" horiz-adv-x="1486" d="M-10 0v33l57 16q87 26 139 96t121 254l262 703l99 293h186l408 -1110q51 -141 84.5 -186t93.5 -56l57 -10v-33q-65 0 -188 1t-187 1t-190 -1t-191 -1v33l88 12q73 13 88 55t-16 136l-65 190h-469l-15 -39q-60 -160 -40 -232.5t132 -101.5l84 -20v-33q-47 0 -135 1t-135 1 q-46 0 -134 -1t-134 -1zM383 471h436l-211 612zM494 1647q0 62 38.5 102.5t106.5 40.5q50 0 104.5 -29t102.5 -57.5t82 -28.5q39 0 59.5 19t26.5 67h8q0 -117 -34.5 -174t-117.5 -57q-36 0 -77.5 18t-72.5 39.5t-68 39.5t-64 18q-60 0 -60 -62q0 -25 9 -49l-9 -4 q-34 56 -34 117z" />
<glyph unicode="&#xc4;" horiz-adv-x="1486" d="M-10 0v33l57 16q87 26 139 96t121 254l262 703l99 293h186l408 -1110q51 -141 84.5 -186t93.5 -56l57 -10v-33q-65 0 -188 1t-187 1t-190 -1t-191 -1v33l88 12q73 13 88 55t-16 136l-65 190h-469l-15 -39q-60 -160 -40 -232.5t132 -101.5l84 -20v-33q-47 0 -135 1t-135 1 q-46 0 -134 -1t-134 -1zM383 471h436l-211 612zM408 1657q0 53 36.5 90t90.5 37q56 0 92.5 -37t36.5 -90q0 -55 -36 -91t-93 -36q-54 0 -90.5 36.5t-36.5 90.5zM848 1657q0 53 37 90t92 37t92 -37t37 -90q0 -54 -37 -90.5t-92 -36.5t-92 36.5t-37 90.5z" />
<glyph unicode="&#xc5;" horiz-adv-x="1486" d="M-10 0v33l57 16q87 26 139 96t121 254l262 703l99 293h186l408 -1110q51 -141 84.5 -186t93.5 -56l57 -10v-33q-65 0 -188 1t-187 1t-190 -1t-191 -1v33l88 12q73 13 88 55t-16 136l-65 190h-469l-15 -39q-60 -160 -40 -232.5t132 -101.5l84 -20v-33q-47 0 -135 1t-135 1 q-46 0 -134 -1t-134 -1zM383 471h436l-211 612zM553 1683q0 83 57.5 139t145.5 56q90 0 147.5 -56t57.5 -139q0 -84 -57.5 -139t-147.5 -55q-89 0 -146 55t-57 139zM618 1683q0 -71 36.5 -117t101.5 -46q66 0 101.5 46t35.5 117q0 70 -35.5 116t-101.5 46 q-65 0 -101.5 -46.5t-36.5 -115.5z" />
<glyph unicode="&#xc6;" horiz-adv-x="2066" d="M-29 0v33l49 8q49 12 84 28.5t72.5 51t74.5 89t85 140.5l403 721q68 122 68 178q0 39 -27.5 60.5t-93.5 33.5l-96 15v33h1327l10 -484h-43q-96 247 -191 346t-231 99h-166v-617h72q91 0 147 70t117 252h31q-2 -113 -2 -344q0 -229 2 -344h-31q-63 192 -118 259.5 t-148 67.5h-70v-546q0 -58 25.5 -84.5t81.5 -26.5h70q106 0 182.5 41.5t145.5 143t138 282.5h41l-10 -506h-1245v33l98 16q73 13 97 43.5t24 102.5v313h-467l-98 -176q-60 -105 -71 -161.5t17 -82.5t105 -41l80 -14v-33q-45 0 -135 1t-135 1t-134.5 -1t-134.5 -1zM502 553 h442v795z" />
<glyph unicode="&#xc7;" horiz-adv-x="1425" d="M68 694q0 134 38.5 251.5t106 204.5t158 149.5t196.5 94t219 31.5q223 0 371 -139l94 127h19v-588h-35q-50 144 -94.5 242.5t-98 175t-115 112.5t-134.5 36q-168 0 -256 -176.5t-88 -520.5q0 -694 348 -694q139 0 238 133t200 412h35v-568h-19l-94 127 q-145 -139 -364 -139q-75 0 -142 12l-28 -133q67 23 120 23q88 0 145.5 -44t57.5 -124q0 -65 -42 -111.5t-101.5 -67t-126.5 -20.5q-109 0 -201 62l19 24q66 -32 124 -32q59 0 93 39.5t34 113.5q0 53 -21 85t-62 32q-27 0 -70 -19l-23 19l45 160q-157 36 -278.5 128 t-194.5 243t-73 339z" />
<glyph unicode="&#xc8;" horiz-adv-x="1370" d="M35 0v33l86 14q79 13 102 43t23 107v997q0 77 -23 106.5t-102 42.5l-86 15v33h1184l10 -484h-43q-94 246 -189.5 345.5t-232.5 99.5h-166v-617h72q92 0 147.5 69.5t116.5 252.5h31q-2 -113 -2 -344q0 -229 2 -344h-31q-62 192 -116.5 259.5t-149.5 67.5h-70v-546 q0 -58 26 -84.5t83 -26.5h67q80 0 141 22t117.5 76t106.5 143t102 226h41l-10 -506h-1237zM408 1780v6h270q21 -52 60.5 -125.5t80.5 -130.5h-14q-108 41 -225 113.5t-172 136.5z" />
<glyph unicode="&#xc9;" horiz-adv-x="1370" d="M35 0v33l86 14q79 13 102 43t23 107v997q0 77 -23 106.5t-102 42.5l-86 15v33h1184l10 -484h-43q-94 246 -189.5 345.5t-232.5 99.5h-166v-617h72q92 0 147.5 69.5t116.5 252.5h31q-2 -113 -2 -344q0 -229 2 -344h-31q-62 192 -116.5 259.5t-149.5 67.5h-70v-546 q0 -58 26 -84.5t83 -26.5h67q80 0 141 22t117.5 76t106.5 143t102 226h41l-10 -506h-1237zM623 1530q43 59 83 133t58 123h270v-6q-56 -64 -172 -136.5t-225 -113.5h-14z" />
<glyph unicode="&#xca;" horiz-adv-x="1370" d="M35 0v33l86 14q79 13 102 43t23 107v997q0 77 -23 106.5t-102 42.5l-86 15v33h1184l10 -484h-43q-94 246 -189.5 345.5t-232.5 99.5h-166v-617h72q92 0 147.5 69.5t116.5 252.5h31q-2 -113 -2 -344q0 -229 2 -344h-31q-62 192 -116.5 259.5t-149.5 67.5h-70v-546 q0 -58 26 -84.5t83 -26.5h67q80 0 141 22t117.5 76t106.5 143t102 226h41l-10 -506h-1237zM395 1530l223 256h164l215 -256h-18l-313 143l-256 -143h-15z" />
<glyph unicode="&#xcb;" horiz-adv-x="1370" d="M35 0v33l86 14q79 13 102 43t23 107v997q0 77 -23 106.5t-102 42.5l-86 15v33h1184l10 -484h-43q-94 246 -189.5 345.5t-232.5 99.5h-166v-617h72q92 0 147.5 69.5t116.5 252.5h31q-2 -113 -2 -344q0 -229 2 -344h-31q-62 192 -116.5 259.5t-149.5 67.5h-70v-546 q0 -58 26 -84.5t83 -26.5h67q80 0 141 22t117.5 76t106.5 143t102 226h41l-10 -506h-1237zM362 1657q0 53 36.5 90t90.5 37q56 0 92.5 -37t36.5 -90q0 -55 -36 -91t-93 -36q-54 0 -90.5 36.5t-36.5 90.5zM803 1657q0 53 37 90t92 37t92 -37t37 -90q0 -54 -37 -90.5 t-92 -36.5t-92 36.5t-37 90.5z" />
<glyph unicode="&#xcc;" horiz-adv-x="847" d="M37 0v33l86 14q79 13 102 43t23 107v997q0 77 -23 106.5t-102 42.5l-86 15v33q131 -2 387 -2t387 2v-33l-86 -15q-79 -13 -102 -42.5t-23 -106.5v-997q0 -77 23 -107t102 -43l86 -14v-33q-65 0 -192.5 1t-194.5 1q-66 0 -194 -1t-193 -1zM168 1780v6h270 q52 -131 142 -256h-15q-108 41 -225 113.5t-172 136.5z" />
<glyph unicode="&#xcd;" horiz-adv-x="847" d="M37 0v33l86 14q79 13 102 43t23 107v997q0 77 -23 106.5t-102 42.5l-86 15v33q131 -2 387 -2t387 2v-33l-86 -15q-79 -13 -102 -42.5t-23 -106.5v-997q0 -77 23 -107t102 -43l86 -14v-33q-65 0 -192.5 1t-194.5 1q-66 0 -194 -1t-193 -1zM289 1530q43 59 83 133t58 123 h270v-6q-56 -64 -172 -136.5t-225 -113.5h-14z" />
<glyph unicode="&#xce;" horiz-adv-x="847" d="M37 0v33l86 14q79 13 102 43t23 107v997q0 77 -23 106.5t-102 42.5l-86 15v33q131 -2 387 -2t387 2v-33l-86 -15q-79 -13 -102 -42.5t-23 -106.5v-997q0 -77 23 -107t102 -43l86 -14v-33q-65 0 -192.5 1t-194.5 1q-66 0 -194 -1t-193 -1zM121 1530l223 256h164l215 -256 h-18l-314 143l-256 -143h-14z" />
<glyph unicode="&#xcf;" horiz-adv-x="847" d="M37 0v33l86 14q79 13 102 43t23 107v997q0 77 -23 106.5t-102 42.5l-86 15v33q131 -2 387 -2t387 2v-33l-86 -15q-79 -13 -102 -42.5t-23 -106.5v-997q0 -77 23 -107t102 -43l86 -14v-33q-65 0 -192.5 1t-194.5 1q-66 0 -194 -1t-193 -1zM76 1657q0 53 36.5 90t90.5 37 q56 0 92.5 -37t36.5 -90q0 -55 -36 -91t-93 -36q-54 0 -90.5 36.5t-36.5 90.5zM516 1657q0 53 37 90t92 37t92 -37t37 -90q0 -54 -37 -90.5t-92 -36.5t-92 36.5t-37 90.5z" />
<glyph unicode="&#xd0;" horiz-adv-x="1558" d="M35 0v33l86 14q79 13 102 43t23 107v469h-168v59h168v469q0 77 -23 106.5t-102 42.5l-86 15v33h700q131 0 243.5 -24.5t208 -78t163 -133.5t105.5 -196.5t38 -262.5t-39 -263.5t-107.5 -197t-164 -133.5t-205.5 -78t-236 -24h-706zM598 150q0 -58 26 -84.5t83 -26.5h36 q367 0 367 657q0 332 -92.5 494t-282.5 162h-137v-631h270v-51h-270v-520z" />
<glyph unicode="&#xd1;" horiz-adv-x="1515" d="M35 0v33l61 16q59 19 90 44.5t45.5 72t14.5 127.5v895q0 76 -25.5 109t-101.5 46l-84 15v33h573l623 -1016v723q0 120 -31.5 170t-120.5 73l-63 17v33q84 -2 239 -2q156 0 238 2v-33l-61 -17q-86 -27 -118 -76t-32 -167v-1100h-256l-729 1198v-903q0 -120 31.5 -170.5 t120.5 -73.5l63 -16v-33q-41 0 -119 1t-119 1q-42 0 -119.5 -1t-119.5 -1zM541 1647q0 62 38.5 102.5t106.5 40.5q50 0 104.5 -29t102.5 -57.5t82 -28.5q39 0 59.5 19t26.5 67h8q0 -118 -34 -174.5t-117 -56.5q-45 0 -98.5 29t-102 57.5t-82.5 28.5q-60 0 -60 -62 q0 -25 9 -49l-9 -4q-34 56 -34 117z" />
<glyph unicode="&#xd2;" d="M68 696q0 172 59 313t158 230.5t224 137.5t263 48t263.5 -48t224.5 -137.5t158 -230.5t59 -313t-59 -313.5t-158 -231t-224.5 -138t-263.5 -48.5t-263.5 48.5t-224 138t-157.5 231t-59 313.5zM446 696q0 -696 326 -696t326 696q0 123 -9.5 223.5t-33 190t-60 150.5 t-93 96t-130.5 35t-130.5 -35t-93 -96t-60 -150.5t-33 -190t-9.5 -223.5zM535 1780v6h270q21 -52 60.5 -125.5t80.5 -130.5h-14q-108 41 -225 113.5t-172 136.5z" />
<glyph unicode="&#xd3;" d="M68 696q0 172 59 313t158 230.5t224 137.5t263 48t263.5 -48t224.5 -137.5t158 -230.5t59 -313t-59 -313.5t-158 -231t-224.5 -138t-263.5 -48.5t-263.5 48.5t-224 138t-157.5 231t-59 313.5zM446 696q0 -696 326 -696t326 696q0 123 -9.5 223.5t-33 190t-60 150.5 t-93 96t-130.5 35t-130.5 -35t-93 -96t-60 -150.5t-33 -190t-9.5 -223.5zM627 1530q43 59 83 133t58 123h270v-6q-56 -64 -172 -136.5t-225 -113.5h-14z" />
<glyph unicode="&#xd4;" d="M68 696q0 172 59 313t158 230.5t224 137.5t263 48t263.5 -48t224.5 -137.5t158 -230.5t59 -313t-59 -313.5t-158 -231t-224.5 -138t-263.5 -48.5t-263.5 48.5t-224 138t-157.5 231t-59 313.5zM446 696q0 -696 326 -696t326 696q0 123 -9.5 223.5t-33 190t-60 150.5 t-93 96t-130.5 35t-130.5 -35t-93 -96t-60 -150.5t-33 -190t-9.5 -223.5zM475 1530l223 256h164l215 -256h-18l-314 143l-256 -143h-14z" />
<glyph unicode="&#xd5;" d="M68 696q0 172 59 313t158 230.5t224 137.5t263 48t263.5 -48t224.5 -137.5t158 -230.5t59 -313t-59 -313.5t-158 -231t-224.5 -138t-263.5 -48.5t-263.5 48.5t-224 138t-157.5 231t-59 313.5zM446 696q0 -696 326 -696t326 696q0 123 -9.5 223.5t-33 190t-60 150.5 t-93 96t-130.5 35t-130.5 -35t-93 -96t-60 -150.5t-33 -190t-9.5 -223.5zM530 1647q0 62 39 102.5t107 40.5q50 0 104.5 -29t102.5 -57.5t82 -28.5q39 0 59.5 19t26.5 67h8q0 -117 -34.5 -174t-117.5 -57q-36 0 -77.5 18t-72.5 39.5t-68 39.5t-64 18q-60 0 -60 -62 q0 -28 8 -49l-8 -4q-35 58 -35 117z" />
<glyph unicode="&#xd6;" d="M68 696q0 172 59 313t158 230.5t224 137.5t263 48t263.5 -48t224.5 -137.5t158 -230.5t59 -313t-59 -313.5t-158 -231t-224.5 -138t-263.5 -48.5t-263.5 48.5t-224 138t-157.5 231t-59 313.5zM426 1657q0 53 36.5 90t90.5 37q56 0 92.5 -37t36.5 -90q0 -55 -36 -91 t-93 -36q-54 0 -90.5 36.5t-36.5 90.5zM446 696q0 -696 326 -696t326 696q0 123 -9.5 223.5t-33 190t-60 150.5t-93 96t-130.5 35t-130.5 -35t-93 -96t-60 -150.5t-33 -190t-9.5 -223.5zM866 1657q0 53 37 90t92 37t92 -37t37 -90q0 -54 -37 -90.5t-92 -36.5t-92 36.5 t-37 90.5z" />
<glyph unicode="&#xd7;" horiz-adv-x="1126" d="M221 215l291 291l-291 289l51 51l291 -291l291 291l51 -51l-291 -289l291 -291l-51 -51l-291 291l-291 -291z" />
<glyph unicode="&#xd8;" d="M68 696q0 172 59 313t158 230.5t224 137.5t263 48q254 0 442 -147l113 135l41 -33l-113 -135q104 -96 163 -235t59 -314q0 -172 -59 -313.5t-158 -231t-224.5 -138t-263.5 -48.5q-262 0 -457 160l-122 -145l-41 32l124 148q-208 201 -208 536zM446 696q0 -187 23 -325 l586 741q-74 279 -283 279q-74 0 -130.5 -35t-93 -96t-60 -150.5t-33 -190t-9.5 -223.5zM483 305q71 -305 289 -305q326 0 326 696q0 198 -27 351z" />
<glyph unicode="&#xd9;" horiz-adv-x="1552" d="M14 1358v33q131 -2 387 -2t387 2v-33l-86 -15q-79 -13 -101.5 -42.5t-22.5 -106.5v-702q0 -225 87.5 -328t256.5 -103q358 0 358 445v592q0 120 -31.5 170t-120.5 73l-61 17v33q82 -2 238 -2q155 0 237 2v-33l-61 -17q-86 -27 -118 -76t-32 -167v-592 q0 -124 -26.5 -217.5t-86.5 -167t-167 -112t-258 -38.5q-295 0 -431.5 132.5t-136.5 402.5v688q0 77 -23 106.5t-102 42.5zM559 1780v6h270q52 -131 142 -256h-15q-108 41 -225 113.5t-172 136.5z" />
<glyph unicode="&#xda;" horiz-adv-x="1552" d="M14 1358v33q131 -2 387 -2t387 2v-33l-86 -15q-79 -13 -101.5 -42.5t-22.5 -106.5v-702q0 -225 87.5 -328t256.5 -103q358 0 358 445v592q0 120 -31.5 170t-120.5 73l-61 17v33q82 -2 238 -2q155 0 237 2v-33l-61 -17q-86 -27 -118 -76t-32 -167v-592 q0 -124 -26.5 -217.5t-86.5 -167t-167 -112t-258 -38.5q-295 0 -431.5 132.5t-136.5 402.5v688q0 77 -23 106.5t-102 42.5zM745 1530q43 60 83.5 133.5t58.5 122.5h270v-6q-56 -64 -172 -136.5t-225 -113.5h-15z" />
<glyph unicode="&#xdb;" horiz-adv-x="1552" d="M14 1358v33q131 -2 387 -2t387 2v-33l-86 -15q-79 -13 -101.5 -42.5t-22.5 -106.5v-702q0 -225 87.5 -328t256.5 -103q358 0 358 445v592q0 120 -31.5 170t-120.5 73l-61 17v33q82 -2 238 -2q155 0 237 2v-33l-61 -17q-86 -27 -118 -76t-32 -167v-592 q0 -124 -26.5 -217.5t-86.5 -167t-167 -112t-258 -38.5q-295 0 -431.5 132.5t-136.5 402.5v688q0 77 -23 106.5t-102 42.5zM504 1530l223 256h164l215 -256h-19l-313 143l-256 -143h-14z" />
<glyph unicode="&#xdc;" horiz-adv-x="1552" d="M14 1358v33q131 -2 387 -2t387 2v-33l-86 -15q-79 -13 -101.5 -42.5t-22.5 -106.5v-702q0 -225 87.5 -328t256.5 -103q358 0 358 445v592q0 120 -31.5 170t-120.5 73l-61 17v33q82 -2 238 -2q155 0 237 2v-33l-61 -17q-86 -27 -118 -76t-32 -167v-592 q0 -124 -26.5 -217.5t-86.5 -167t-167 -112t-258 -38.5q-295 0 -431.5 132.5t-136.5 402.5v688q0 77 -23 106.5t-102 42.5zM469 1657q0 53 36.5 90t90.5 37q56 0 92.5 -37t36.5 -90q0 -55 -36.5 -91t-92.5 -36q-54 0 -90.5 36.5t-36.5 90.5zM909 1657q0 53 37 90t92 37 t92 -37t37 -90q0 -54 -37 -90.5t-92 -36.5t-92 36.5t-37 90.5z" />
<glyph unicode="&#xdd;" horiz-adv-x="1490" d="M-14 1358v33q133 -2 401 -2t401 2v-33l-96 -17q-71 -10 -81 -54.5t30 -123.5l254 -522l192 373q74 145 74 223q0 44 -33 68t-100 38l-72 15v33q92 -2 277 -2q182 0 274 2v-33l-51 -12q-86 -24 -159 -97t-167 -256l-215 -409v-387q0 -75 26 -105t112 -45l88 -14v-33 q-67 0 -200 1t-202 1q-67 0 -199.5 -1t-201.5 -1v33l90 14q85 15 110 44.5t25 105.5v348l-325 620q-49 95 -90 133.5t-101 49.5zM674 1530q43 59 83 133t58 123h270v-6q-56 -64 -172 -136.5t-225 -113.5h-14z" />
<glyph unicode="&#xde;" horiz-adv-x="1396" d="M35 0v33l86 14q79 13 102 43t23 107v997q0 77 -23 106.5t-102 42.5l-86 15v33q133 -2 389 -2q254 0 387 2v-33l-86 -15q-79 -13 -102 -42.5t-23 -106.5v-90h113q637 0 637 -395q0 -130 -83.5 -220.5t-224 -132t-329.5 -41.5l-113 2v-120q0 -77 23 -107t102 -43l86 -14 v-33q-67 0 -194.5 1t-192.5 1q-66 0 -194 -1t-195 -1zM600 354q17 0 61.5 -1t51.5 -1q129 0 200.5 87.5t71.5 269.5q0 187 -69 272.5t-205 85.5h-111v-713z" />
<glyph unicode="&#xdf;" horiz-adv-x="1314" d="M10 942v39l185 39q3 121 38.5 220t90 163t127 108t147 63.5t152.5 20.5q161 3 258.5 -67t97.5 -178q0 -41 -10 -72.5t-37.5 -62t-51.5 -50.5t-75 -57q-105 -75 -105 -145q0 -53 43 -102.5t168 -145.5q133 -101 184.5 -181t51.5 -196q0 -88 -34 -159.5t-89.5 -115 t-121 -67t-132.5 -23.5q-142 0 -219.5 60.5t-77.5 154.5q0 72 41 118t111 46q60 0 97.5 -37t37.5 -92q0 -42 -17 -71t-34 -48.5t-17 -37.5q0 -26 24 -41t70 -15q67 0 112.5 44.5t45.5 133.5q0 84 -41.5 138.5t-150.5 134.5q-62 46 -99.5 78t-73 73t-51.5 84.5t-16 94.5 q0 31 4.5 56.5t19 51.5t23.5 41t36.5 41.5t38 35.5t46.5 40q9 8 14 12q68 57 94.5 111.5t26.5 136.5q0 114 -53.5 176.5t-145.5 62.5q-241 0 -241 -366v-1190h-459v31l61 10q56 9 73.5 33t17.5 90v747z" />
<glyph unicode="&#xe0;" horiz-adv-x="1120" d="M57 215q0 78 39 136t117.5 95.5t182.5 60t247 34.5v202q0 144 -32.5 201t-125.5 57q-70 0 -109.5 -23t-39.5 -56q0 -18 10.5 -33t26 -27.5t31 -27t26 -39.5t10.5 -58q0 -69 -44.5 -109t-116.5 -40q-76 0 -122 47.5t-46 128.5q0 116 106 193t287 77q214 0 325 -92.5 t111 -273.5q0 -26 -1 -263t-1 -253q0 -93 59 -93q39 0 60.5 49t27.5 179h33q-3 -177 -52.5 -245.5t-164.5 -68.5q-103 0 -159.5 49t-69.5 164q-20 -105 -101 -161t-211 -56q-153 0 -228 68t-75 178zM274 1530v6h224q35 -145 151 -352h-12q-124 72 -220 163.5t-143 182.5z M365 223q0 -85 33 -129.5t94 -44.5q66 0 107.5 51.5t41.5 153.5l2 258q-150 -22 -214 -85t-64 -204z" />
<glyph unicode="&#xe1;" horiz-adv-x="1120" d="M57 215q0 78 39 136t117.5 95.5t182.5 60t247 34.5v202q0 144 -32.5 201t-125.5 57q-70 0 -109.5 -23t-39.5 -56q0 -18 10.5 -33t26 -27.5t31 -27t26 -39.5t10.5 -58q0 -69 -44.5 -109t-116.5 -40q-76 0 -122 47.5t-46 128.5q0 116 106 193t287 77q214 0 325 -92.5 t111 -273.5q0 -26 -1 -263t-1 -253q0 -93 59 -93q39 0 60.5 49t27.5 179h33q-3 -177 -52.5 -245.5t-164.5 -68.5q-103 0 -159.5 49t-69.5 164q-20 -105 -101 -161t-211 -56q-153 0 -228 68t-75 178zM365 223q0 -85 33 -129.5t94 -44.5q66 0 107.5 51.5t41.5 153.5l2 258 q-150 -22 -214 -85t-64 -204zM418 1184q113 201 149 352h224v-6q-47 -91 -142.5 -182.5t-218.5 -163.5h-12z" />
<glyph unicode="&#xe2;" horiz-adv-x="1120" d="M57 215q0 78 39 136t117.5 95.5t182.5 60t247 34.5v202q0 144 -32.5 201t-125.5 57q-70 0 -109.5 -23t-39.5 -56q0 -18 10.5 -33t26 -27.5t31 -27t26 -39.5t10.5 -58q0 -69 -44.5 -109t-116.5 -40q-76 0 -122 47.5t-46 128.5q0 116 106 193t287 77q214 0 325 -92.5 t111 -273.5q0 -26 -1 -263t-1 -253q0 -93 59 -93q39 0 60.5 49t27.5 179h33q-3 -177 -52.5 -245.5t-164.5 -68.5q-103 0 -159.5 49t-69.5 164q-20 -105 -101 -161t-211 -56q-153 0 -228 68t-75 178zM244 1184l233 352h135l217 -352h-16l-295 211l-262 -211h-12zM365 223 q0 -85 33 -129.5t94 -44.5q66 0 107.5 51.5t41.5 153.5l2 258q-150 -22 -214 -85t-64 -204z" />
<glyph unicode="&#xe3;" horiz-adv-x="1120" d="M57 215q0 78 39 136t117.5 95.5t182.5 60t247 34.5v202q0 144 -32.5 201t-125.5 57q-70 0 -109.5 -23t-39.5 -56q0 -18 10.5 -33t26 -27.5t31 -27t26 -39.5t10.5 -58q0 -69 -44.5 -109t-116.5 -40q-76 0 -122 47.5t-46 128.5q0 116 106 193t287 77q214 0 325 -92.5 t111 -273.5q0 -26 -1 -263t-1 -253q0 -93 59 -93q39 0 60.5 49t27.5 179h33q-3 -177 -52.5 -245.5t-164.5 -68.5q-103 0 -159.5 49t-69.5 164q-20 -105 -101 -161t-211 -56q-153 0 -228 68t-75 178zM262 1364q0 62 38 102.5t106 40.5q50 0 104.5 -28.5t102.5 -57t81 -28.5 q39 0 60.5 19.5t27.5 66.5h9q0 -117 -35.5 -174.5t-118.5 -57.5q-36 0 -77 18t-72.5 39.5t-68 39.5t-63.5 18q-32 0 -45.5 -15.5t-13.5 -46.5q0 -25 6 -49l-6 -4q-35 58 -35 117zM365 223q0 -85 33 -129.5t94 -44.5q66 0 107.5 51.5t41.5 153.5l2 258q-150 -22 -214 -85 t-64 -204z" />
<glyph unicode="&#xe4;" horiz-adv-x="1120" d="M57 215q0 78 39 136t117.5 95.5t182.5 60t247 34.5v202q0 144 -32.5 201t-125.5 57q-70 0 -109.5 -23t-39.5 -56q0 -18 10.5 -33t26 -27.5t31 -27t26 -39.5t10.5 -58q0 -69 -44.5 -109t-116.5 -40q-76 0 -122 47.5t-46 128.5q0 116 106 193t287 77q214 0 325 -92.5 t111 -273.5q0 -26 -1 -263t-1 -253q0 -93 59 -93q39 0 60.5 49t27.5 179h33q-3 -177 -52.5 -245.5t-164.5 -68.5q-103 0 -159.5 49t-69.5 164q-20 -105 -101 -161t-211 -56q-153 0 -228 68t-75 178zM203 1376q0 53 37 90t92 37t92 -37t37 -90q0 -54 -37 -90.5t-92 -36.5 t-92 36.5t-37 90.5zM365 223q0 -85 33 -129.5t94 -44.5q66 0 107.5 51.5t41.5 153.5l2 258q-150 -22 -214 -85t-64 -204zM645 1376q0 53 36 90t91 37t92 -37t37 -90q0 -54 -37 -90.5t-92 -36.5t-91 36.5t-36 90.5z" />
<glyph unicode="&#xe5;" horiz-adv-x="1120" d="M57 215q0 78 39 136t117.5 95.5t182.5 60t247 34.5v202q0 144 -32.5 201t-125.5 57q-70 0 -109.5 -23t-39.5 -56q0 -18 10.5 -33t26 -27.5t31 -27t26 -39.5t10.5 -58q0 -69 -44.5 -109t-116.5 -40q-76 0 -122 47.5t-46 128.5q0 116 106 193t287 77q214 0 325 -92.5 t111 -273.5q0 -26 -1 -263t-1 -253q0 -93 59 -93q39 0 60.5 49t27.5 179h33q-3 -177 -52.5 -245.5t-164.5 -68.5q-103 0 -159.5 49t-69.5 164q-20 -105 -101 -161t-211 -56q-153 0 -228 68t-75 178zM311 1335q0 84 57 139.5t146 55.5t146 -55.5t57 -139.5q0 -83 -57 -138 t-146 -56q-89 0 -146 55t-57 139zM365 223q0 -85 33 -129.5t94 -44.5q66 0 107.5 51.5t41.5 153.5l2 258q-150 -22 -214 -85t-64 -204zM377 1335q0 -69 36 -115t101 -46q66 0 101.5 45.5t35.5 115.5t-35.5 116t-101.5 46q-65 0 -101 -46.5t-36 -115.5z" />
<glyph unicode="&#xe6;" horiz-adv-x="1626" d="M57 215q0 78 39 136t117.5 95.5t182.5 60t247 34.5v202q0 145 -32 201.5t-126 56.5q-70 0 -109.5 -23t-39.5 -56q0 -18 10.5 -32.5t26 -26.5t31 -27t26 -40t10.5 -59q0 -69 -44.5 -109t-116.5 -40q-76 0 -122 47.5t-46 128.5q0 115 106.5 192.5t286.5 77.5 q235 0 325 -137q122 137 314 137q199 0 309.5 -102t110.5 -287q0 -50 -7 -90h-591v-51q0 -224 71 -332.5t199 -108.5q91 0 163 46.5t132 150.5l31 -16q-74 -138 -176 -206.5t-246 -68.5q-137 0 -245.5 59t-170.5 171q-45 -105 -135 -167.5t-228 -62.5q-153 0 -228 68 t-75 178zM365 223q0 -85 33 -129.5t94 -44.5q66 0 107.5 51.5t41.5 153.5l2 258q-150 -22 -214 -85t-64 -204zM967 592l301 20l2 43q5 73 1.5 136t-15 109t-40 72.5t-73.5 26.5q-80 0 -124.5 -93.5t-51.5 -313.5z" />
<glyph unicode="&#xe7;" horiz-adv-x="1052" d="M49 494q0 126 43.5 229.5t118 170.5t172.5 103.5t209 36.5q170 0 270.5 -74t100.5 -192q0 -84 -53 -138.5t-134 -54.5q-76 0 -124 42.5t-48 113.5q0 42 14.5 73t35 48t41.5 29.5t35.5 25t14.5 27.5q0 26 -34 46.5t-93 20.5q-243 0 -243 -497q0 -224 72 -332.5t200 -108.5 q90 0 161.5 46.5t133.5 150.5l31 -16q-76 -140 -178.5 -207.5t-245.5 -67.5q-54 0 -117 13l-29 -138q67 23 121 23q88 0 145.5 -44t57.5 -124q0 -65 -42 -111.5t-101.5 -67t-126.5 -20.5q-109 0 -201 62l18 24q66 -32 125 -32t93 39.5t34 113.5q0 53 -21.5 85t-62.5 32 q-26 0 -69 -19l-23 19l47 166q-156 42 -252 171.5t-96 332.5z" />
<glyph unicode="&#xe8;" horiz-adv-x="1038" d="M49 498q0 130 43 234.5t115 169t161.5 98.5t186.5 34q199 0 309.5 -102t110.5 -287q0 -55 -6 -90h-594v-51q0 -224 72 -332.5t200 -108.5q90 0 161.5 46.5t133.5 150.5l31 -16q-73 -137 -176.5 -206t-245.5 -69q-104 0 -194.5 34.5t-159.5 99t-108.5 166.5t-39.5 229z M299 1530v6h223q34 -142 152 -352h-12q-124 72 -220 163.5t-143 182.5zM377 592l301 20l2 43q5 99 0.5 175.5t-35.5 122.5t-90 46q-82 0 -126.5 -93.5t-51.5 -313.5z" />
<glyph unicode="&#xe9;" horiz-adv-x="1038" d="M49 498q0 130 43 234.5t115 169t161.5 98.5t186.5 34q199 0 309.5 -102t110.5 -287q0 -55 -6 -90h-594v-51q0 -224 72 -332.5t200 -108.5q90 0 161.5 46.5t133.5 150.5l31 -16q-73 -137 -176.5 -206t-245.5 -69q-104 0 -194.5 34.5t-159.5 99t-108.5 166.5t-39.5 229z M377 592l301 20l2 43q5 99 0.5 175.5t-35.5 122.5t-90 46q-82 0 -126.5 -93.5t-51.5 -313.5zM440 1184q114 204 150 352h223v-6q-47 -91 -142.5 -182.5t-217.5 -163.5h-13z" />
<glyph unicode="&#xea;" horiz-adv-x="1038" d="M49 498q0 130 43 234.5t115 169t161.5 98.5t186.5 34q199 0 309.5 -102t110.5 -287q0 -55 -6 -90h-594v-51q0 -224 72 -332.5t200 -108.5q90 0 161.5 46.5t133.5 150.5l31 -16q-73 -137 -176.5 -206t-245.5 -69q-104 0 -194.5 34.5t-159.5 99t-108.5 166.5t-39.5 229z M238 1184l233 352h135l217 -352h-16l-295 211l-262 -211h-12zM377 592l301 20l2 43q5 99 0.5 175.5t-35.5 122.5t-90 46q-82 0 -126.5 -93.5t-51.5 -313.5z" />
<glyph unicode="&#xeb;" horiz-adv-x="1038" d="M49 498q0 130 43 234.5t115 169t161.5 98.5t186.5 34q199 0 309.5 -102t110.5 -287q0 -55 -6 -90h-594v-51q0 -224 72 -332.5t200 -108.5q90 0 161.5 46.5t133.5 150.5l31 -16q-73 -137 -176.5 -206t-245.5 -69q-104 0 -194.5 34.5t-159.5 99t-108.5 166.5t-39.5 229z M197 1376q0 53 37 90t92 37t92 -37t37 -90q0 -54 -37 -90.5t-92 -36.5t-92 36.5t-37 90.5zM377 592l301 20l2 43q5 99 0.5 175.5t-35.5 122.5t-90 46q-82 0 -126.5 -93.5t-51.5 -313.5zM639 1376q0 53 36 90t91 37t92 -37t37 -90q0 -54 -37 -90.5t-92 -36.5t-91 36.5 t-36 90.5z" />
<glyph unicode="&#xec;" horiz-adv-x="661" d="M12 915v29l451 82l41 -14q-8 -112 -8 -254v-596q0 -64 17 -88t73 -33l59 -10v-31q-53 0 -152 1t-151 1t-151.5 -1t-151.5 -1v31l59 10q56 9 73 33t17 90v624q0 69 -22.5 93t-91.5 30zM90 1530v6h223q34 -142 152 -352h-12q-124 72 -220 163.5t-143 182.5z" />
<glyph unicode="&#xed;" horiz-adv-x="661" d="M12 915v29l451 82l41 -14q-8 -112 -8 -254v-596q0 -64 17 -88t73 -33l59 -10v-31q-53 0 -152 1t-151 1t-151.5 -1t-151.5 -1v31l59 10q56 9 73 33t17 90v624q0 69 -22.5 93t-91.5 30zM186 1184q114 204 150 352h223v-6q-47 -91 -142.5 -182.5t-217.5 -163.5h-13z" />
<glyph unicode="&#xee;" horiz-adv-x="661" d="M12 915v29l451 82l41 -14q-8 -112 -8 -254v-596q0 -64 17 -88t73 -33l59 -10v-31q-53 0 -152 1t-151 1t-151.5 -1t-151.5 -1v31l59 10q56 9 73 33t17 90v624q0 69 -22.5 93t-91.5 30zM23 1184l233 352h135l217 -352h-16l-295 211l-262 -211h-12z" />
<glyph unicode="&#xef;" horiz-adv-x="661" d="M-31 1376q0 53 37 90t92 37t92 -37t37 -90q0 -54 -37 -90.5t-92 -36.5t-92 36.5t-37 90.5zM12 915v29l451 82l41 -14q-8 -112 -8 -254v-596q0 -64 17 -88t73 -33l59 -10v-31q-53 0 -152 1t-151 1t-151.5 -1t-151.5 -1v31l59 10q56 9 73 33t17 90v624q0 69 -22.5 93 t-91.5 30zM412 1376q0 53 36 90t91 37t92 -37t37 -90q0 -54 -37 -90.5t-92 -36.5t-91 36.5t-36 90.5z" />
<glyph unicode="&#xf0;" horiz-adv-x="1142" d="M49 522q0 117 39 216.5t102 163.5t142 100t160 36q113 0 174 -57.5t88 -183.5q-50 299 -215 499l-287 -118l-25 53l271 112q-117 126 -299 230l12 24q251 -76 432 -196l256 106l25 -51l-226 -94q375 -276 375 -744q0 -134 -31.5 -245.5t-83.5 -184.5t-120 -123.5 t-139.5 -73t-143.5 -22.5q-222 0 -364 148t-142 405zM375 502q0 -119 9 -206.5t29 -155t55.5 -102t86.5 -34.5q184 0 184 498q0 481 -190 481q-95 0 -134.5 -122t-39.5 -359z" />
<glyph unicode="&#xf1;" horiz-adv-x="1290" d="M10 911v29l424 84l41 -14q-12 -175 -12 -475q0 239 83 369t257 130q153 0 237 -87.5t84 -258.5v-524q0 -66 16.5 -90t73.5 -33l62 -10v-31q-51 0 -146 1t-145 1t-147.5 -1t-147.5 -1v31l53 10q46 9 61 31t15 86v579q0 108 -30.5 156.5t-96.5 48.5q-87 0 -142.5 -108 t-55.5 -299v-377q0 -64 14 -86t59 -31l56 -10v-31q-50 0 -146.5 1t-146.5 1q-51 0 -147 -1t-146 -1v31l59 10q56 9 73 33t17 90v620q0 70 -22 93.5t-92 29.5zM412 1364q0 63 37.5 103t105.5 40q39 0 82.5 -18t75 -39t68 -39t63.5 -18q39 0 60.5 19.5t27.5 66.5h8 q0 -117 -35.5 -174.5t-118.5 -57.5q-45 0 -97.5 28.5t-100.5 57.5t-82 29q-60 0 -60 -62q0 -21 7 -49l-7 -4q-34 56 -34 117z" />
<glyph unicode="&#xf2;" horiz-adv-x="1112" d="M49 502q0 127 43 230t114.5 168t162 99.5t188.5 34.5t188 -34.5t161.5 -99.5t114 -168t42.5 -230q0 -128 -42.5 -231.5t-114 -168t-161.5 -99t-188 -34.5t-188.5 34.5t-162 99t-114.5 168t-43 231.5zM313 1530v6h224q35 -145 151 -352h-12q-124 72 -220 163.5t-143 182.5 zM375 502q0 -127 8 -214.5t28.5 -154t56 -98t89.5 -31.5t89.5 31.5t56 98t28.5 154t8 214.5q0 126 -8 213.5t-28.5 153.5t-56 98t-89.5 32t-89.5 -32t-56 -98t-28.5 -153.5t-8 -213.5z" />
<glyph unicode="&#xf3;" horiz-adv-x="1112" d="M49 502q0 127 43 230t114.5 168t162 99.5t188.5 34.5t188 -34.5t161.5 -99.5t114 -168t42.5 -230q0 -128 -42.5 -231.5t-114 -168t-161.5 -99t-188 -34.5t-188.5 34.5t-162 99t-114.5 168t-43 231.5zM375 502q0 -127 8 -214.5t28.5 -154t56 -98t89.5 -31.5t89.5 31.5 t56 98t28.5 154t8 214.5q0 126 -8 213.5t-28.5 153.5t-56 98t-89.5 32t-89.5 -32t-56 -98t-28.5 -153.5t-8 -213.5zM434 1184q114 204 150 352h223v-6q-47 -91 -142.5 -182.5t-218.5 -163.5h-12z" />
<glyph unicode="&#xf4;" horiz-adv-x="1112" d="M49 502q0 127 43 230t114.5 168t162 99.5t188.5 34.5t188 -34.5t161.5 -99.5t114 -168t42.5 -230q0 -128 -42.5 -231.5t-114 -168t-161.5 -99t-188 -34.5t-188.5 34.5t-162 99t-114.5 168t-43 231.5zM260 1184l234 352h135l217 -352h-17l-294 211l-263 -211h-12zM375 502 q0 -127 8 -214.5t28.5 -154t56 -98t89.5 -31.5t89.5 31.5t56 98t28.5 154t8 214.5q0 126 -8 213.5t-28.5 153.5t-56 98t-89.5 32t-89.5 -32t-56 -98t-28.5 -153.5t-8 -213.5z" />
<glyph unicode="&#xf5;" horiz-adv-x="1112" d="M49 502q0 127 43 230t114.5 168t162 99.5t188.5 34.5t188 -34.5t161.5 -99.5t114 -168t42.5 -230q0 -128 -42.5 -231.5t-114 -168t-161.5 -99t-188 -34.5t-188.5 34.5t-162 99t-114.5 168t-43 231.5zM297 1364q0 63 37.5 103t105.5 40q39 0 82.5 -18t75 -39t68 -39 t63.5 -18q39 0 60.5 19.5t27.5 66.5h8q0 -117 -35 -174.5t-118 -57.5q-36 0 -77 18t-72.5 39.5t-68 39.5t-63.5 18q-32 0 -45.5 -15.5t-13.5 -46.5q0 -25 6 -49l-6 -4q-35 58 -35 117zM375 502q0 -127 8 -214.5t28.5 -154t56 -98t89.5 -31.5t89.5 31.5t56 98t28.5 154 t8 214.5q0 126 -8 213.5t-28.5 153.5t-56 98t-89.5 32t-89.5 -32t-56 -98t-28.5 -153.5t-8 -213.5z" />
<glyph unicode="&#xf6;" horiz-adv-x="1112" d="M49 502q0 127 43 230t114.5 168t162 99.5t188.5 34.5t188 -34.5t161.5 -99.5t114 -168t42.5 -230q0 -128 -42.5 -231.5t-114 -168t-161.5 -99t-188 -34.5t-188.5 34.5t-162 99t-114.5 168t-43 231.5zM209 1376q0 53 37 90t92 37t92 -37t37 -90q0 -54 -37 -90.5t-92 -36.5 t-92 36.5t-37 90.5zM375 502q0 -127 8 -214.5t28.5 -154t56 -98t89.5 -31.5t89.5 31.5t56 98t28.5 154t8 214.5q0 126 -8 213.5t-28.5 153.5t-56 98t-89.5 32t-89.5 -32t-56 -98t-28.5 -153.5t-8 -213.5zM651 1376q0 53 36 90t91 37t92 -37t37 -90q0 -54 -37 -90.5 t-92 -36.5t-91 36.5t-36 90.5z" />
<glyph unicode="&#xf7;" horiz-adv-x="1126" d="M115 469v74h897v-74h-897zM485 174q0 36 24.5 57t53.5 21q30 0 54 -21t24 -57q0 -34 -24 -56t-54 -22q-28 0 -53 22.5t-25 55.5zM485 838q0 36 24.5 56.5t53.5 20.5q30 0 54 -20.5t24 -56.5q0 -32 -24.5 -55t-53.5 -23q-28 0 -53 23t-25 55z" />
<glyph unicode="&#xf8;" horiz-adv-x="1112" d="M49 502q0 127 43 230t114.5 168t162 99.5t188.5 34.5q187 0 326 -112l90 104l41 -33l-94 -106q143 -146 143 -385q0 -128 -42.5 -231.5t-114 -168t-161.5 -99t-188 -34.5q-192 0 -330 117l-94 -109l-41 33l96 111q-139 146 -139 381zM375 502q0 -68 4 -166l350 407 q-15 128 -56 192t-116 64q-54 0 -89.5 -32t-56 -98t-28.5 -153.5t-8 -213.5zM385 270q14 -134 55 -200t117 -66q54 0 89.5 31.5t56 98t28.5 154t8 214.5q0 70 -4 172z" />
<glyph unicode="&#xf9;" horiz-adv-x="1193" d="M-27 973v31h463l-6 -170v-592q0 -185 123 -185q76 0 125 88t49 254v443q0 62 -16 87t-68 34l-68 10v31h465l-8 -183v-657q0 -64 16 -90t68 -33l66 -10v-31h-400l-24 20v379q0 -213 -78 -321.5t-244 -108.5q-142 0 -227.5 80.5t-85.5 235.5v557q0 62 -15 87t-67 34z M291 1530v6h223q34 -142 152 -352h-13q-124 71 -219 163t-143 183z" />
<glyph unicode="&#xfa;" horiz-adv-x="1193" d="M-27 973v31h463l-6 -170v-592q0 -185 123 -185q76 0 125 88t49 254v443q0 62 -16 87t-68 34l-68 10v31h465l-8 -183v-657q0 -64 16 -90t68 -33l66 -10v-31h-400l-24 20v379q0 -213 -78 -321.5t-244 -108.5q-142 0 -227.5 80.5t-85.5 235.5v557q0 62 -15 87t-67 34z M455 1182q113 201 149 352h223v-6q-47 -91 -142.5 -182.5t-217.5 -163.5h-12z" />
<glyph unicode="&#xfb;" horiz-adv-x="1193" d="M-27 973v31h463l-6 -170v-592q0 -185 123 -185q76 0 125 88t49 254v443q0 62 -16 87t-68 34l-68 10v31h465l-8 -183v-657q0 -64 16 -90t68 -33l66 -10v-31h-400l-24 20v379q0 -213 -78 -321.5t-244 -108.5q-142 0 -227.5 80.5t-85.5 235.5v557q0 62 -15 87t-67 34z M264 1184l234 352h135l217 -352h-16l-295 211l-263 -211h-12z" />
<glyph unicode="&#xfc;" horiz-adv-x="1193" d="M-27 973v31h463l-6 -170v-592q0 -185 123 -185q76 0 125 88t49 254v443q0 62 -16 87t-68 34l-68 10v31h465l-8 -183v-657q0 -64 16 -90t68 -33l66 -10v-31h-400l-24 20v379q0 -213 -78 -321.5t-244 -108.5q-142 0 -227.5 80.5t-85.5 235.5v557q0 62 -15 87t-67 34z M219 1376q0 53 37 90t92 37t92 -37t37 -90q0 -54 -37 -90.5t-92 -36.5t-92 36.5t-37 90.5zM662 1376q0 53 35.5 90t90.5 37t92.5 -37t37.5 -90q0 -54 -37.5 -90.5t-92.5 -36.5t-90.5 36.5t-35.5 90.5z" />
<glyph unicode="&#xfd;" horiz-adv-x="1122" d="M-20 -301q0 76 48 127t132 51q67 1 106 -31.5t47 -85.5q2 -30 -9 -62.5t-9 -43.5q3 -27 29 -27q101 0 219 320l10 30l-369 820q-41 91 -70.5 125t-78.5 43l-49 8v31q159 -3 317 -3q153 0 309 3v-31l-57 -8q-105 -14 -47 -154l197 -485l141 372q39 100 39 160 q0 42 -29 67.5t-90 37.5l-53 10v31q108 -3 217 -3q108 0 219 3v-31l-33 -8q-85 -23 -129 -77t-104 -204l-279 -704q-76 -194 -136.5 -295t-123 -141t-151.5 -40q-99 0 -156 54.5t-57 140.5zM520 1184q114 204 150 352h223v-6q-47 -91 -142.5 -182.5t-218.5 -163.5h-12z" />
<glyph unicode="&#xfe;" horiz-adv-x="1169" d="M-43 1477v24l469 88l37 -14q-14 -118 -14 -270v-107q0 -118 -15.5 -298t-15.5 -290q0 99 13.5 174t44.5 132.5t85 87.5t131 30q66 0 127 -19t116.5 -60t96 -100.5t64.5 -146.5t24 -192q0 -114 -32.5 -208t-84.5 -155.5t-120 -104t-137.5 -61t-137.5 -18.5q-86 0 -159 21 v-295q0 -68 17.5 -92.5t74.5 -34.5l61 -10v-29q-52 0 -152.5 1t-152.5 1q-53 0 -152.5 -1t-152.5 -1v29l59 10q56 10 73 34t17 91v1653q0 68 -20 89.5t-90 30.5zM449 72q49 -68 147 -68q66 0 108 44t66.5 158t24.5 304q0 252 -38.5 355.5t-127.5 103.5t-134.5 -94 t-45.5 -265v-538z" />
<glyph unicode="&#xff;" horiz-adv-x="1122" d="M-20 -301q0 76 48 127t132 51q67 1 106 -31.5t47 -85.5q2 -30 -9 -62.5t-9 -43.5q3 -27 29 -27q101 0 219 320l10 30l-369 820q-41 91 -70.5 125t-78.5 43l-49 8v31q159 -3 317 -3q153 0 309 3v-31l-57 -8q-105 -14 -47 -154l197 -485l141 372q39 100 39 160 q0 42 -29 67.5t-90 37.5l-53 10v31q108 -3 217 -3q108 0 219 3v-31l-33 -8q-85 -23 -129 -77t-104 -204l-279 -704q-76 -194 -136.5 -295t-123 -141t-151.5 -40q-99 0 -156 54.5t-57 140.5zM258 1376q0 53 37 90t92 37t92 -37t37 -90q0 -54 -37 -90.5t-92 -36.5t-92 36.5 t-37 90.5zM700 1376q0 53 36 90t91 37t92 -37t37 -90q0 -54 -37 -90.5t-92 -36.5t-91 36.5t-36 90.5z" />
<glyph unicode="&#x152;" horiz-adv-x="2144" d="M68 694q0 172 59 313t158 230.5t224 137.5t263 48q97 0 203 -32h1018l10 -484h-43q-94 246 -189.5 345.5t-230.5 99.5h-168v-617h72q92 0 147.5 69.5t116.5 252.5h31q-2 -113 -2 -344q0 -229 2 -344h-31q-62 191 -116.5 259t-147.5 68h-72v-546q0 -58 26 -84.5t83 -26.5 h67q80 0 141 22t118 76t107 143t103 226h39l-10 -506h-1067q-95 -33 -207 -33q-109 0 -212 29.5t-192.5 90t-156 146t-105 204t-38.5 257.5zM446 694q0 -123 9.5 -223.5t33 -189.5t60 -149t93 -95t130.5 -35q116 0 182 68t66 213v819q0 284 -248 284q-74 0 -130.5 -35 t-93 -95t-60 -149t-33 -189.5t-9.5 -223.5z" />
<glyph unicode="&#x153;" horiz-adv-x="1726" d="M49 502q0 127 43 230t114.5 168t162 99.5t188.5 34.5q102 0 191 -41t153 -119q62 80 151 121t193 41q199 0 308.5 -102t109.5 -287q0 -55 -6 -90h-592v-51q0 -224 71.5 -332t198.5 -108q91 0 163 46t134 150l29 -16q-74 -138 -176 -206.5t-246 -68.5q-218 0 -340 156 q-64 -77 -152.5 -117.5t-189.5 -40.5q-98 0 -188.5 34.5t-162 99t-114.5 168t-43 231.5zM375 502q0 -127 8 -214.5t28.5 -154t56 -98t89.5 -31.5t89.5 31.5t56 98t28.5 154t8 214.5q0 126 -8 213.5t-28.5 153.5t-56 98t-89.5 32t-89.5 -32t-56 -98t-28.5 -153.5t-8 -213.5z M1067 594l301 22l2 43q5 73 2 136t-14.5 109.5t-39.5 73t-73 26.5q-82 0 -126.5 -95t-51.5 -315z" />
<glyph unicode="&#x178;" horiz-adv-x="1490" d="M-14 1358v33q133 -2 401 -2t401 2v-33l-96 -17q-71 -10 -81 -54.5t30 -123.5l254 -522l192 373q74 145 74 223q0 44 -33 68t-100 38l-72 15v33q92 -2 277 -2q182 0 274 2v-33l-51 -12q-86 -24 -159 -97t-167 -256l-215 -409v-387q0 -75 26 -105t112 -45l88 -14v-33 q-67 0 -200 1t-202 1q-67 0 -199.5 -1t-201.5 -1v33l90 14q85 15 110 44.5t25 105.5v348l-325 620q-49 95 -90 133.5t-101 49.5zM467 1657q0 53 36.5 90t90.5 37q56 0 92.5 -37t36.5 -90q0 -55 -36.5 -91t-92.5 -36q-54 0 -90.5 36.5t-36.5 90.5zM907 1657q0 53 37 90t92 37 t92 -37t37 -90q0 -54 -37 -90.5t-92 -36.5t-92 36.5t-37 90.5z" />
<glyph unicode="&#x2c6;" horiz-adv-x="1132" d="M274 1184l234 352h135l217 -352h-16l-295 211l-262 -211h-13z" />
<glyph unicode="&#x2dc;" horiz-adv-x="1132" d="M322 1364q0 63 37.5 103t105.5 40q39 0 82.5 -18t75 -39t68 -39t63.5 -18q39 0 60.5 19.5t27.5 66.5h8q0 -117 -35.5 -174.5t-118.5 -57.5q-45 0 -97.5 28.5t-100.5 57.5t-82 29q-60 0 -60 -62q0 -25 6 -49l-6 -4q-34 56 -34 117z" />
<glyph unicode="&#x2000;" horiz-adv-x="939" />
<glyph unicode="&#x2001;" horiz-adv-x="1878" />
<glyph unicode="&#x2002;" horiz-adv-x="939" />
<glyph unicode="&#x2003;" horiz-adv-x="1878" />
<glyph unicode="&#x2004;" horiz-adv-x="626" />
<glyph unicode="&#x2005;" horiz-adv-x="469" />
<glyph unicode="&#x2006;" horiz-adv-x="313" />
<glyph unicode="&#x2007;" horiz-adv-x="313" />
<glyph unicode="&#x2008;" horiz-adv-x="234" />
<glyph unicode="&#x2009;" horiz-adv-x="375" />
<glyph unicode="&#x200a;" horiz-adv-x="104" />
<glyph unicode="&#x2010;" horiz-adv-x="612" d="M51 463v86h510v-86h-510z" />
<glyph unicode="&#x2011;" horiz-adv-x="612" d="M51 463v86h510v-86h-510z" />
<glyph unicode="&#x2012;" horiz-adv-x="612" d="M51 463v86h510v-86h-510z" />
<glyph unicode="&#x2013;" horiz-adv-x="1021" d="M51 469v74h920v-74h-920z" />
<glyph unicode="&#x2014;" horiz-adv-x="1878" d="M51 469v74h1776v-74h-1776z" />
<glyph unicode="&#x2018;" horiz-adv-x="571" d="M119 1126q0 123 84.5 235.5t206.5 174.5l22 -37q-106 -59 -168.5 -146t-62.5 -171q0 -27 20 -27q11 0 24.5 10.5t36 21.5t54.5 11q57 0 95 -40t38 -103q0 -65 -47.5 -109.5t-118.5 -44.5q-87 0 -135.5 61t-48.5 164z" />
<glyph unicode="&#x2019;" horiz-adv-x="591" d="M106 1364q0 65 47.5 109.5t118.5 44.5q87 0 136 -61.5t49 -164.5q0 -123 -84.5 -235t-206.5 -174l-23 37q106 59 169 146t63 171q0 27 -21 27q-11 0 -24.5 -11t-35.5 -21.5t-54 -10.5q-57 0 -95.5 40t-38.5 103z" />
<glyph unicode="&#x201a;" horiz-adv-x="587" d="M106 154q0 65 47 109t119 44q87 0 136 -61t49 -164q0 -123 -84.5 -235.5t-206.5 -174.5l-23 37q106 59 169 146.5t63 171.5q0 26 -21 26q-11 0 -24.5 -10.5t-35.5 -21.5t-54 -11q-57 0 -95.5 40.5t-38.5 103.5z" />
<glyph unicode="&#x201c;" horiz-adv-x="993" d="M131 1126q0 123 84.5 235.5t206.5 174.5l22 -37q-106 -59 -168.5 -146t-62.5 -171q0 -27 20 -27q11 0 24.5 10.5t36 21.5t54.5 11q57 0 95 -40t38 -103q0 -65 -47.5 -109.5t-118.5 -44.5q-87 0 -135.5 61t-48.5 164zM553 1126q0 123 84.5 235.5t206.5 174.5l22 -37 q-106 -59 -168.5 -146t-62.5 -171q0 -27 20 -27q11 0 24.5 10.5t36 21.5t54.5 11q57 0 95 -40t38 -103q0 -65 -47.5 -109.5t-118.5 -44.5q-87 0 -135.5 61t-48.5 164z" />
<glyph unicode="&#x201d;" horiz-adv-x="1011" d="M106 1364q0 65 47.5 109.5t118.5 44.5q87 0 136 -61.5t49 -164.5q0 -123 -84.5 -235t-206.5 -174l-23 37q106 59 169 146t63 171q0 27 -21 27q-11 0 -24.5 -11t-35.5 -21.5t-54 -10.5q-57 0 -95.5 40t-38.5 103zM526 1364q0 65 47.5 109.5t118.5 44.5q87 0 136 -61.5 t49 -164.5q0 -123 -84.5 -235t-206.5 -174l-23 37q106 59 169 146t63 171q0 27 -21 27q-11 0 -24.5 -11t-36 -21.5t-54.5 -10.5q-57 0 -95 40t-38 103z" />
<glyph unicode="&#x201e;" horiz-adv-x="1007" d="M106 154q0 65 47 109t119 44q87 0 136 -61t49 -164q0 -123 -84.5 -235.5t-206.5 -174.5l-23 37q106 59 169 146.5t63 171.5q0 26 -21 26q-11 0 -24.5 -10.5t-35.5 -21.5t-54 -11q-57 0 -95.5 40.5t-38.5 103.5zM526 154q0 65 47 109t119 44q87 0 136 -61t49 -164 q0 -123 -84.5 -235.5t-206.5 -174.5l-23 37q106 59 169 146.5t63 171.5q0 26 -21 26q-11 0 -24.5 -10.5t-36 -21.5t-54.5 -11q-56 0 -94.5 40.5t-38.5 103.5z" />
<glyph unicode="&#x2022;" horiz-adv-x="856" d="M160 506q0 113 77 191.5t189 78.5t191 -79t79 -191t-78.5 -190t-191.5 -78q-112 0 -189 77.5t-77 190.5z" />
<glyph unicode="&#x2026;" horiz-adv-x="1583" d="M106 152q0 75 52 124.5t127 49.5q76 0 127 -49t51 -125t-52 -126.5t-126 -50.5t-126.5 50.5t-52.5 126.5zM612 152q0 75 52 124.5t127 49.5q76 0 127 -49t51 -125t-52 -126.5t-126 -50.5t-126.5 50.5t-52.5 126.5zM1120 152q0 75 51.5 124.5t126.5 49.5q76 0 127.5 -49 t51.5 -125t-52.5 -126.5t-126.5 -50.5t-126 50.5t-52 126.5z" />
<glyph unicode="&#x202f;" horiz-adv-x="375" />
<glyph unicode="&#x2039;" horiz-adv-x="671" d="M102 479v53l400 369h30l-204 -395l204 -395h-30z" />
<glyph unicode="&#x203a;" horiz-adv-x="671" d="M139 111l205 395l-205 395h31l399 -369v-53l-399 -368h-31z" />
<glyph unicode="&#x205f;" horiz-adv-x="469" />
<glyph unicode="&#x20ac;" horiz-adv-x="1234" d="M37 477v31l127 24q-6 50 -6 105q0 34 4 88l-125 31v30l135 29q22 131 78 232t133.5 161.5t166 90.5t185.5 30q188 0 305 -117l64 103h18v-514h-30q-54 185 -110 295t-113 154t-128 44q-115 0 -169.5 -117.5t-65.5 -371.5h350l-14 -55l-338 -15q-2 -31 -2 -98 q0 -78 2 -111h297l-15 -55l-280 -14q12 -236 67.5 -347.5t169.5 -111.5q106 0 186.5 111.5t162.5 369.5h30v-504h-18l-64 107q-116 -119 -303 -119q-200 0 -356 123.5t-205 357.5z" />
<glyph unicode="&#x2122;" horiz-adv-x="1871" d="M137 1163l2 228h615l2 -228h-33l-37 123q-11 37 -29.5 52.5t-56.5 15.5h-78v-537q0 -21 21 -24l82 -17v-26h-357v26l80 17q21 3 21 24v537h-76q-39 0 -56.5 -14.5t-29.5 -53.5l-37 -123h-33zM831 750v26l82 21q14 5 19.5 11.5t5.5 22.5v496q0 18 -18 21l-89 16v27h271 l135 -349l47 -147h4l193 496h248v-17l-66 -16q-18 -3 -18 -23v-520q0 -19 18 -22l66 -17v-26h-328v26l72 17q18 5 18 22v473h-4l-213 -540h-86l-158 397l-43 135h-4v-449q0 -17 5 -23t20 -11l79 -21v-26h-256z" />
<glyph unicode="&#x25fc;" horiz-adv-x="1003" d="M0 0v1004h1004v-1004h-1004z" />
</font>
</defs>
</svg>
