<?xml version="1.0" standalone="no"?>
<!DOCTYPE svg PUBLIC "-//W3C//DTD SVG 1.1//EN" "http://www.w3.org/Graphics/SVG/1.1/DTD/svg11.dtd" >
<svg xmlns="http://www.w3.org/2000/svg">
<metadata></metadata>
<defs>
<font id="freightregular" horiz-adv-x="1429" >
<font-face units-per-em="2048" ascent="1638" descent="-410" />
<missing-glyph horiz-adv-x="253" />
<glyph horiz-adv-x="0" />
<glyph horiz-adv-x="682" />
<glyph unicode=" "  horiz-adv-x="253" />
<glyph unicode="&#x09;" horiz-adv-x="253" />
<glyph unicode="&#xa0;" horiz-adv-x="253" />
<glyph unicode="!" horiz-adv-x="501" d="M178 57q0 30 20.5 52t51.5 22q32 0 53 -22t21 -52q0 -31 -21 -54t-53 -23q-31 0 -51.5 22.5t-20.5 54.5zM201 1325h102l-27 -963h-47z" />
<glyph unicode="&#x22;" horiz-adv-x="618" d="M-2 815l285 512l90 -45l-307 -467h-68zM299 815l285 512l90 -45l-307 -467h-68z" />
<glyph unicode="#" horiz-adv-x="1159" d="M43 352v70h207l94 348h-260v70h278l127 475h74l-127 -475h375l127 475h74l-127 -475h188v-70h-209l-92 -348h260v-70h-280l-134 -504h-73l135 504h-377l-135 -504h-72l135 504h-188zM322 422h376l95 348h-377z" />
<glyph unicode="$" horiz-adv-x="974" d="M78 94l33 74q127 -85 268 -107l78 566q-45 15 -77 26.5t-71.5 30t-66.5 36.5t-55 44t-45 55t-27.5 67.5t-10.5 82.5q0 141 110.5 236t277.5 95q38 0 61 -2l27 197h75l-28 -209q130 -23 231 -92l-33 -76q-95 68 -209 92l-71 -526q58 -20 102.5 -39.5t90.5 -50t75.5 -66 t48.5 -86.5t19 -112q0 -151 -115 -250.5t-297 -99.5h-27l-30 -232h-76l33 238q-164 23 -291 108zM186 977q0 -54 19.5 -95t60.5 -73t88 -54.5t119 -47.5l70 516q-8 0 -25.5 1t-25.5 1q-143 0 -224.5 -73t-81.5 -175zM453 55h20q144 0 236 79t92 188q0 107 -70.5 171.5 t-204.5 108.5z" />
<glyph unicode="%" horiz-adv-x="1527" d="M35 987q0 144 93.5 243t246.5 99q154 0 247 -99t93 -243q0 -140 -93.5 -239t-246.5 -99q-152 0 -246 99t-94 239zM109 987q0 -112 73 -190t193 -78t193 78t73 190q0 117 -72.5 195t-193.5 78t-193.5 -78t-72.5 -195zM190 -31l1057 1340h92l-1054 -1340h-95zM813 291 q0 140 93.5 239t246.5 99q152 0 246 -99t94 -239q0 -144 -93.5 -243t-246.5 -99q-154 0 -247 99t-93 243zM887 291q0 -117 72.5 -195t193.5 -78t193.5 78t72.5 195q0 112 -73 190t-193 78t-193 -78t-73 -190z" />
<glyph unicode="&#x26;" horiz-adv-x="1282" d="M76 315q0 245 323 373q-99 48 -160 124.5t-61 176.5q0 123 98 216t244 93q135 0 226.5 -83t91.5 -205q0 -109 -72 -192.5t-203 -131.5q184 -91 336 -280l240 382h104l-301 -432l272 -340l-67 -41l-252 320q-90 -145 -208 -230t-247 -85q-161 0 -262.5 100t-101.5 235z M162 315q0 -107 80.5 -184.5t206.5 -77.5q103 0 206.5 76t198.5 213q-188 233 -397 313q-130 -56 -212.5 -141t-82.5 -199zM264 993q0 -98 66.5 -167.5t167.5 -112.5q129 53 192.5 121t63.5 167q0 93 -70 158.5t-172 65.5q-112 0 -180 -68t-68 -164z" />
<glyph unicode="'" horiz-adv-x="354" d="M-2 815l285 512l90 -45l-307 -467h-68z" />
<glyph unicode="(" horiz-adv-x="686" d="M141 479q0 137 34.5 269t89 234.5t125.5 191t141.5 148t138.5 95.5l45 -71q-66 -34 -133 -89.5t-132 -137.5t-115 -177.5t-81 -216t-31 -246.5t31 -246.5t81 -215.5t115 -177t132 -137.5t133 -89.5l-45 -72q-68 36 -138.5 95.5t-141.5 148t-125.5 191t-89 234.5 t-34.5 269z" />
<glyph unicode=")" horiz-adv-x="686" d="M-29 -387q66 34 133 89.5t132 137.5t115 177t81 215.5t31 246.5t-31 246.5t-81 216t-115 177.5t-132 137.5t-133 89.5l45 71q68 -36 138.5 -95.5t141.5 -148t125.5 -191t89 -234.5t34.5 -269t-34.5 -269t-89 -234.5t-125.5 -191t-141.5 -148t-138.5 -95.5z" />
<glyph unicode="*" horiz-adv-x="684" d="M33 805l258 166v10l-258 166l51 72l235 -207l7 2l80 301l83 -27l-122 -287l6 -6l299 27v-92l-299 26l-6 -6l122 -286l-83 -27l-80 301l-7 2l-235 -207z" />
<glyph unicode="+" horiz-adv-x="999" d="M86 442l6 78h369v383h82v-383h364l6 -78h-370v-387h-82v387h-375z" />
<glyph unicode="," horiz-adv-x="313" d="M23 -268q82 60 116.5 115t34.5 114q0 40 -25.5 61t-82.5 35q0 31 24.5 56.5t59.5 25.5q49 0 82.5 -38t33.5 -99q0 -78 -56 -161.5t-149 -143.5z" />
<glyph unicode="-" horiz-adv-x="561" d="M74 459v78h420v-78h-420z" />
<glyph unicode="." horiz-adv-x="313" d="M84 57q0 30 20.5 52t51.5 22t52 -22t21 -52q0 -32 -20.5 -54.5t-52.5 -22.5q-31 0 -51.5 22.5t-20.5 54.5z" />
<glyph unicode="/" horiz-adv-x="403" d="M-104 -408l497 1846h78l-500 -1846h-75z" />
<glyph unicode="0" horiz-adv-x="1185" d="M102 483q0 142 66 258t178 181t246 65q100 0 190.5 -38.5t156.5 -105t105 -160.5t39 -200q0 -142 -66 -257.5t-178.5 -180.5t-246.5 -65t-246 65t-178 180.5t-66 257.5zM186 483q0 -181 114.5 -303.5t291.5 -122.5t292 123t115 303t-115 303t-292 123t-291.5 -122.5 t-114.5 -303.5z" />
<glyph unicode="1" horiz-adv-x="630" d="M92 852l326 135v-987h-82v877l-238 -105z" />
<glyph unicode="2" horiz-adv-x="864" d="M100 0v88q102 78 156 120t125 99.5t105 90.5t74 76t57 74.5t28.5 67.5t11.5 72q0 94 -65.5 157.5t-169.5 63.5q-142 0 -291 -121l-31 72q160 127 326 127q140 0 229.5 -81.5t89.5 -205.5q0 -42 -12.5 -83.5t-31 -76.5t-54 -76.5t-65.5 -72t-83 -75.5t-90 -74t-102 -80 t-104 -82h590v-80h-693z" />
<glyph unicode="3" horiz-adv-x="821" d="M39 850q70 59 165 98t185 39q155 0 248.5 -83t93.5 -220q0 -117 -87 -210t-218 -140q155 0 253.5 -92.5t98.5 -233.5q0 -164 -123.5 -272.5t-298.5 -108.5q-83 0 -167 22t-142 58l33 76q126 -78 282 -78q143 0 236.5 81.5t93.5 213.5q0 127 -83 201.5t-216 74.5 q-99 0 -180 -20v63q212 54 322 144.5t110 212.5q0 113 -70.5 173t-189.5 60q-81 0 -163.5 -35.5t-149.5 -91.5z" />
<glyph unicode="4" horiz-adv-x="978" d="M23 117l655 882h72v-878h194l6 -78h-200v-420h-84v420h-627zM115 121h551v737z" />
<glyph unicode="5" horiz-adv-x="837" d="M41 -293l18 82q151 -84 287 -84q153 0 251.5 95.5t98.5 252.5q0 137 -90.5 225.5t-240.5 88.5q-81 0 -129.5 -9.5t-106.5 -31.5l-37 39l78 604h575l7 -80h-512l-68 -477q79 28 199 28q184 0 296.5 -108.5t112.5 -276.5q0 -188 -125 -308t-315 -120q-74 0 -155 22t-144 58 z" />
<glyph unicode="6" horiz-adv-x="1003" d="M94 471q0 100 26 201t83.5 201t140 184t204 150.5t267.5 99.5l23 -76q-143 -33 -260.5 -99t-196.5 -151t-128.5 -181t-68.5 -198l2 -2q176 158 365 158q72 0 136 -22t115.5 -64.5t82 -113.5t30.5 -161q0 -186 -110 -301.5t-293 -115.5q-127 0 -223.5 67t-145.5 177.5 t-49 246.5zM178 473q0 -113 38.5 -207.5t116.5 -153.5t181 -59q145 0 231 95t86 245q0 137 -82 214t-202 77q-203 0 -367 -164q-2 -16 -2 -47z" />
<glyph unicode="7" horiz-adv-x="862" d="M41 887l6 82h766v-60l-582 -1286h-86l576 1264h-680z" />
<glyph unicode="8" horiz-adv-x="968" d="M96 311q0 222 293 338q-61 25 -105 50t-84.5 61t-61.5 84.5t-21 109.5q0 153 105.5 248.5t262.5 95.5q158 0 262.5 -89t104.5 -242q0 -62 -24.5 -116.5t-66.5 -94.5t-83 -67t-88 -48q51 -23 86.5 -41.5t75.5 -47.5t64 -59t40 -73.5t16 -93.5q0 -67 -23.5 -127.5 t-69.5 -110t-122.5 -79t-173.5 -29.5q-98 0 -174 26.5t-121.5 73t-68.5 105t-23 126.5zM180 324q0 -126 77.5 -198.5t227.5 -72.5q152 0 227.5 72t75.5 188q0 48 -20 89.5t-42.5 67.5t-75 56.5t-81.5 44t-98 41.5q-9 4 -14 6q-277 -98 -277 -294zM201 965q0 -54 20.5 -96 t75 -79t86.5 -53.5t117 -53.5q16 -7 24 -11q244 96 244 282q0 117 -78.5 194t-204.5 77q-129 0 -206.5 -78t-77.5 -182z" />
<glyph unicode="9" horiz-adv-x="1003" d="M88 569q0 186 110.5 302t293.5 116q127 0 223.5 -67t145 -177.5t48.5 -246.5q0 -100 -26 -201t-83.5 -201t-140 -184t-204 -150.5t-267.5 -99.5l-22 76q143 33 260 99t196 151t128.5 181t68.5 198l-2 2q-176 -158 -364 -158q-72 0 -136 21.5t-116 64t-82.5 113.5 t-30.5 161zM172 573q0 -134 82.5 -212t202.5 -78q104 0 192.5 39t173.5 124q2 16 2 48q0 118 -37 211.5t-114.5 150.5t-184.5 57q-145 0 -231 -95t-86 -245z" />
<glyph unicode=":" horiz-adv-x="313" d="M84 57q0 30 20.5 52t51.5 22t52 -22t21 -52q0 -32 -20.5 -54.5t-52.5 -22.5q-31 0 -51.5 22.5t-20.5 54.5zM84 731q0 30 20.5 52t51.5 22t52 -22t21 -52q0 -32 -21 -55t-52 -23t-51.5 23t-20.5 55z" />
<glyph unicode=";" horiz-adv-x="313" d="M23 -268q82 60 116.5 115t34.5 114q0 40 -25.5 61t-82.5 35q0 31 24.5 56.5t59.5 25.5q49 0 82.5 -38t33.5 -99q0 -78 -56 -161.5t-149 -143.5zM84 731q0 30 20.5 52t51.5 22t52 -22t21 -52q0 -32 -21 -55t-52 -23t-51.5 23t-20.5 55z" />
<glyph unicode="&#x3c;" horiz-adv-x="894" d="M72 432v98l739 394v-86l-666 -349v-18l666 -348v-84z" />
<glyph unicode="=" horiz-adv-x="876" d="M74 268l6 78h719l6 -78h-731zM74 692h731l-6 -78h-719z" />
<glyph unicode="&#x3e;" horiz-adv-x="894" d="M98 39v84l666 348v18l-666 349v86l740 -394v-98z" />
<glyph unicode="?" horiz-adv-x="698" d="M111 1214v76q83 19 135 19q89 0 161.5 -30.5t116 -80.5t67 -109t23.5 -120q0 -59 -16 -104t-49.5 -77.5t-66 -52.5t-83.5 -45q-91 -41 -126 -70.5t-35 -74.5q0 -89 133 -176l-52 -21q-155 94 -155 197q0 74 46 121t144 88q91 39 137 85.5t46 127.5q0 108 -80.5 188 t-206.5 80q-68 0 -139 -21zM223 57q0 30 20.5 52t51.5 22q32 0 53 -22t21 -52q0 -31 -21 -54t-53 -23q-31 0 -51.5 22.5t-20.5 54.5z" />
<glyph unicode="@" horiz-adv-x="1708" d="M100 496q0 215 103.5 398.5t283.5 291.5t394 108q147 0 280.5 -47t234.5 -132t160.5 -211.5t59.5 -276.5q0 -122 -31 -222t-82.5 -163.5t-116 -98t-133.5 -34.5q-86 0 -146.5 43.5t-82.5 107.5q-66 -83 -127.5 -117t-130.5 -34q-128 0 -207.5 95.5t-79.5 239.5 q0 129 58 241.5t155 178.5t207 66q106 0 213 -80l92 59l-100 -481q-26 -122 16.5 -188t136.5 -66q54 0 105.5 29.5t93.5 84t68 143t26 196.5t-36.5 205.5t-100.5 171t-148 127.5t-182.5 82t-201.5 28q-117 0 -227 -39t-197.5 -109t-153.5 -162t-101.5 -204t-35.5 -229 q0 -189 82.5 -346t233.5 -249.5t339 -92.5q123 0 250 43l12 -58q-134 -41 -266 -41q-154 0 -288 57.5t-228 157t-147.5 236.5t-53.5 291zM565 444q0 -114 58.5 -189t160.5 -75q119 0 220 135l92 457q-90 90 -205 90q-130 0 -228 -125.5t-98 -292.5z" />
<glyph unicode="A" horiz-adv-x="1179" d="M51 0l490 1280h106l481 -1280h-88l-149 399h-604l-150 -399h-86zM317 477h543l-268 727z" />
<glyph unicode="B" horiz-adv-x="1093" d="M168 0v1280h373q218 0 321 -88.5t103 -239.5q0 -102 -68.5 -191t-204.5 -112q152 -20 233 -99.5t81 -199.5q0 -160 -109 -255t-336 -95h-393zM254 78h309q187 0 272 73.5t85 200.5q0 118 -97 184t-299 66h-270v-524zM254 680h270q159 0 257 68.5t98 197.5q0 256 -342 256 h-283v-522z" />
<glyph unicode="C" horiz-adv-x="1169" d="M100 637q0 299 166.5 481t427.5 182q212 0 383 -102l-26 -74q-70 44 -166 71.5t-195 27.5q-105 0 -196 -39t-159.5 -111.5t-107.5 -184.5t-39 -251q0 -268 138 -424t368 -156q208 0 355 105l20 -80q-157 -102 -377 -102q-275 0 -433.5 177t-158.5 480z" />
<glyph unicode="D" horiz-adv-x="1251" d="M168 0v1280h309q308 0 493 -174.5t185 -456.5q0 -310 -182 -479.5t-508 -169.5h-297zM254 78h215q133 0 241.5 34t188.5 102t124 176.5t44 250.5q0 256 -159.5 408.5t-438.5 152.5h-215v-1124z" />
<glyph unicode="E" horiz-adv-x="1003" d="M168 0v1280h733v-78h-647v-524h541v-76h-541v-524h647v-78h-733z" />
<glyph unicode="F" horiz-adv-x="948" d="M168 0v1280h715v-80h-629v-541h522v-77h-522v-582h-86z" />
<glyph unicode="G" horiz-adv-x="1249" d="M100 637q0 299 166.5 481t427.5 182q212 0 383 -102l-26 -74q-70 44 -166 71.5t-195 27.5q-105 0 -196 -39t-159.5 -111.5t-107.5 -184.5t-39 -251q0 -268 138 -424t368 -156q187 0 336 93v393h-383v75h467v-509q-180 -129 -422 -129q-275 0 -433.5 177t-158.5 480z" />
<glyph unicode="H" horiz-adv-x="1306" d="M168 0v1280h86v-600h799v600h86v-1280h-86v604h-799v-604h-86z" />
<glyph unicode="I" horiz-adv-x="425" d="M170 0v1280h86v-1280h-86z" />
<glyph unicode="J" horiz-adv-x="837" d="M29 59l18 84q145 -88 275 -88q142 0 217 88.5t75 255.5v881h86v-883q0 -200 -95 -308.5t-288 -108.5q-81 0 -158 23t-130 56z" />
<glyph unicode="K" horiz-adv-x="1075" d="M168 0v1280h86v-618h2l643 618h115l-674 -637l686 -643h-115l-655 616h-2v-616h-86z" />
<glyph unicode="L" horiz-adv-x="944" d="M168 0v1280h86v-1200h647v-80h-733z" />
<glyph unicode="M" horiz-adv-x="1536" d="M139 0l43 1280h121l469 -1210l465 1210h119l39 -1280h-86l-29 1171l-455 -1173h-110l-459 1176l-29 -1174h-88z" />
<glyph unicode="N" horiz-adv-x="1292" d="M168 0v1280h100l774 -1163v1163h82v-1292h-94l-780 1173v-1161h-82z" />
<glyph unicode="O" d="M100 639q0 147 47 271t129 209.5t195.5 133t245.5 47.5q126 0 238.5 -49t194.5 -134.5t130.5 -209t48.5 -264.5q0 -146 -46.5 -270.5t-128.5 -210.5t-195.5 -134t-245.5 -48q-125 0 -238 49.5t-195.5 135.5t-131 209.5t-48.5 264.5zM188 643q0 -255 152 -421.5 t379 -166.5q228 0 375 164t147 420q0 169 -69.5 303.5t-190.5 208.5t-270 74q-228 0 -375.5 -163t-147.5 -419z" />
<glyph unicode="P" horiz-adv-x="1024" d="M168 0v1280h287q240 0 364.5 -102t124.5 -283q0 -200 -134.5 -305.5t-377.5 -110.5l-178 -2v-477h-86zM254 555l178 2q209 5 315.5 84t106.5 252q0 147 -104.5 228t-294.5 81h-201v-647z" />
<glyph unicode="Q" d="M100 639q0 147 47 271t129 209.5t195.5 133t245.5 47.5q126 0 238.5 -49t194.5 -134.5t130.5 -209t48.5 -264.5q0 -229 -106.5 -394.5t-288.5 -230.5l436 -225l-39 -74l-497 271q-65 -10 -121 -10q-125 0 -238 49.5t-195.5 135.5t-131 209.5t-48.5 264.5zM188 643 q0 -255 152 -421.5t379 -166.5q228 0 375 164t147 420q0 169 -69.5 303.5t-190.5 208.5t-270 74q-228 0 -375.5 -163t-147.5 -419z" />
<glyph unicode="R" horiz-adv-x="1050" d="M168 0v1280h303q232 0 345.5 -96t113.5 -266q0 -135 -88 -225t-219 -126l364 -567h-96l-346 551l-291 -19v-532h-86zM254 610l248 8q137 5 238.5 86.5t101.5 210.5q0 139 -96 213t-285 74h-207v-592z" />
<glyph unicode="S" horiz-adv-x="964" d="M76 94l33 74q164 -113 362 -113q145 0 237.5 79t92.5 188q0 51 -18.5 92.5t-46 70t-76.5 56t-91 44t-110 40.5q-62 21 -106 39t-95.5 48t-83 63.5t-53 83.5t-21.5 110q0 141 111.5 236t277.5 95q205 0 367 -106l-33 -76q-156 107 -334 107q-145 0 -226 -72.5t-81 -177.5 q0 -46 17.5 -83.5t44 -64t74 -52.5t89.5 -43t109 -40q63 -21 108 -39.5t97 -49.5t84.5 -67t54 -89t21.5 -117q0 -151 -116.5 -250.5t-297.5 -99.5q-223 0 -391 114z" />
<glyph unicode="T" horiz-adv-x="1105" d="M57 1200v80h992v-80h-453v-1200h-86v1200h-453z" />
<glyph unicode="U" horiz-adv-x="1200" d="M137 463v817h84v-811q0 -196 96.5 -305t282.5 -109q189 0 284 111.5t95 318.5v795h84v-797q0 -233 -121 -368t-344 -135q-221 0 -341 127t-120 356z" />
<glyph unicode="V" horiz-adv-x="1120" d="M41 1280h88l432 -1196l432 1196h86l-469 -1280h-102z" />
<glyph unicode="W" horiz-adv-x="1826" d="M104 1280h89l321 -1147l350 1147h109l356 -1147l303 1147h90l-354 -1280h-80l-370 1188l-369 -1188h-80z" />
<glyph unicode="X" horiz-adv-x="1124" d="M29 0l481 659l-447 621h99l401 -567l402 567h98l-451 -618l482 -662h-101l-434 608l-430 -608h-100z" />
<glyph unicode="Y" horiz-adv-x="1038" d="M29 1280h96l397 -678l393 678h95l-447 -760v-520h-86v518z" />
<glyph unicode="Z" horiz-adv-x="1019" d="M53 0v61l795 1143h-764v76h870v-61l-794 -1143h792v-76h-899z" />
<glyph unicode="[" horiz-adv-x="837" d="M233 -455v1837h502v-73h-416v-1690h416v-74h-502z" />
<glyph unicode="\" horiz-adv-x="403" d="M-63 1438h77l498 -1846h-76z" />
<glyph unicode="]" horiz-adv-x="837" d="M102 -381h416v1690h-416v73h502v-1837h-502v74z" />
<glyph unicode="^" horiz-adv-x="735" d="M129 1055l229 362h103l229 -362h-67l-211 295h-4l-211 -295h-68z" />
<glyph unicode="_" horiz-adv-x="878" d="M-18 0h915v-78h-915v78z" />
<glyph unicode="`" horiz-adv-x="817" d="M147 1417h119l269 -362h-64z" />
<glyph unicode="a" horiz-adv-x="874" d="M70 227q0 296 577 332v86q0 236 -229 236q-80 0 -166 -35.5t-150 -85.5l-20 84q68 49 163 81.5t179 32.5q143 0 225 -73.5t82 -231.5v-508q0 -49 20 -74q19 -24 74 -24h4l-6 -63q-9 -1 -17 -1q-60 1 -100 33q-45 36 -49 111h-2q-45 -59 -127 -103t-166 -44 q-126 0 -209 69t-83 178zM154 236q0 -85 62.5 -134t156.5 -49q81 0 152 42t122 104v299q-267 -28 -380 -91.5t-113 -170.5z" />
<glyph unicode="b" horiz-adv-x="1021" d="M152 -29v1411l84 25v-580q54 49 132.5 85t168.5 36q176 0 289.5 -126t113.5 -330q0 -229 -127 -370.5t-324 -141.5q-141 0 -256 71zM236 133q44 -35 116 -56.5t144 -21.5q160 0 259 116.5t99 311.5q0 167 -91.5 278t-240.5 111q-161 0 -286 -118v-621z" />
<glyph unicode="c" horiz-adv-x="911" d="M90 465q0 214 126 353.5t319 139.5q166 0 282 -77l-20 -76q-120 76 -262 76q-158 0 -258.5 -116.5t-100.5 -295.5q0 -181 102 -296.5t267 -115.5q127 0 250 78l20 -76q-128 -79 -270 -79q-200 0 -327.5 136t-127.5 349z" />
<glyph unicode="d" horiz-adv-x="1028" d="M90 455q0 223 126.5 358t324.5 135q66 0 135 -20t119 -51v503l84 27v-1407h-84v92q-48 -47 -123 -79.5t-160 -32.5q-184 0 -303 131t-119 344zM176 455q0 -173 94.5 -287.5t247.5 -114.5q74 0 147 33.5t130 87.5v621q-44 35 -115.5 56t-144.5 21q-159 0 -259 -114.5 t-100 -302.5z" />
<glyph unicode="e" horiz-adv-x="942" d="M90 465q0 214 118 353.5t302 139.5q143 0 234.5 -87.5t91.5 -235.5q0 -62 -21 -148l-639 -4v-14q0 -182 93.5 -297t252.5 -115q139 0 262 78l19 -76q-124 -79 -287 -79q-191 0 -308.5 135t-117.5 350zM182 559h561q7 40 7 70q0 112 -65.5 182t-176.5 70 q-128 0 -215 -88.5t-111 -233.5z" />
<glyph unicode="f" horiz-adv-x="571" d="M31 860l6 53l127 17l2 178q8 317 256 317q94 0 158 -36l-21 -76q-69 37 -139 37q-170 0 -170 -238v-184h291l-6 -72h-285v-856h-84v852z" />
<glyph unicode="g" horiz-adv-x="942" d="M18 -236q0 78 59.5 148t147.5 100q-135 38 -135 140q0 55 43.5 99.5t108.5 74.5q-65 44 -105.5 117t-40.5 165q0 158 101.5 254t253.5 96q119 0 202 -55l279 17l6 -86l-233 10q40 -40 64 -104t24 -126q0 -157 -101.5 -251.5t-255.5 -94.5q-69 0 -145 31 q-117 -61 -117 -129q0 -104 211 -104h156q190 0 280 -64t90 -176q0 -98 -71 -176t-180 -118t-230 -40q-190 0 -301 76t-111 196zM96 -227q0 -95 90 -153t252 -58q160 0 276.5 75t116.5 179q0 90 -73 131t-217 41q-180 0 -224 4q-97 -24 -159 -86.5t-62 -132.5zM178 608 q0 -115 70.5 -193.5t193.5 -78.5q121 0 194 77.5t73 196.5q0 122 -70 200.5t-195 78.5t-195.5 -78t-70.5 -203z" />
<glyph unicode="h" horiz-adv-x="1007" d="M152 0v1380l84 27v-610q77 79 168 120t165 41q141 0 218 -81.5t77 -235.5v-641h-84v623q0 258 -221 258q-161 0 -323 -162v-719h-84z" />
<glyph unicode="i" horiz-adv-x="395" d="M137 1227q0 25 16 43t44 18t44.5 -18t16.5 -43q0 -26 -16.5 -46t-44.5 -20t-44 19.5t-16 46.5zM156 0v932l84 26v-958h-84z" />
<glyph unicode="j" horiz-adv-x="395" d="M-45 -455q117 65 159 144.5t42 228.5v1014l84 26v-1052q0 -161 -52.5 -259t-173.5 -161zM137 1227q0 25 16 43t44 18t44.5 -18t16.5 -43q0 -26 -16.5 -46t-44.5 -20t-44 19.5t-16 46.5z" />
<glyph unicode="k" horiz-adv-x="843" d="M152 0v1380l84 27v-905h4l454 436h109l-473 -451l475 -487h-111l-454 473h-4v-473h-84z" />
<glyph unicode="l" horiz-adv-x="385" d="M152 0v1380l84 27v-1407h-84z" />
<glyph unicode="m" horiz-adv-x="1550" d="M152 0v932l84 26v-127q71 63 148.5 95t141.5 32q195 0 265 -155q75 77 162 116t159 39q141 0 218 -81.5t77 -235.5v-641h-84v623q0 258 -221 258q-142 0 -291 -136q10 -52 10 -114v-631h-84v623q0 258 -221 258q-142 0 -280 -123v-758h-84z" />
<glyph unicode="n" horiz-adv-x="1007" d="M152 0v932l84 26v-163q77 80 168 121.5t165 41.5q141 0 218 -81.5t77 -235.5v-641h-84v623q0 258 -221 258q-161 0 -323 -162v-719h-84z" />
<glyph unicode="o" horiz-adv-x="1093" d="M90 465q0 217 133.5 355t327.5 138q195 0 324 -133.5t129 -351.5q0 -217 -133.5 -355t-327.5 -138q-195 0 -324 133.5t-129 351.5zM174 469q0 -189 104.5 -301.5t268.5 -112.5q160 0 266.5 117.5t106.5 296.5q0 189 -105 301.5t-268 112.5q-160 0 -266.5 -117.5 t-106.5 -296.5z" />
<glyph unicode="p" horiz-adv-x="1030" d="M152 -477v1421l84 25v-133q49 47 123 79.5t159 32.5q184 0 303 -131t119 -344q0 -223 -126.5 -358t-324.5 -135q-66 0 -134.5 20t-118.5 51v-528h-84zM236 133q44 -35 116 -56.5t144 -21.5q159 0 258.5 115t99.5 303q0 173 -94.5 286t-247.5 113q-75 0 -147 -32t-129 -86 v-621z" />
<glyph unicode="q" horiz-adv-x="1028" d="M90 455q0 223 126.5 358t324.5 135q141 0 256 -71l82 81v-1435h-84v569q-48 -47 -123 -79.5t-160 -32.5q-184 0 -303 131t-119 344zM176 455q0 -173 94.5 -286.5t247.5 -113.5q75 0 147.5 32.5t129.5 86.5v621q-44 35 -115.5 56t-144.5 21q-159 0 -259 -114.5 t-100 -302.5z" />
<glyph unicode="r" horiz-adv-x="675" d="M152 0v932l84 26v-233q42 107 117.5 170t170.5 63q90 0 154 -38l-25 -76q-64 37 -137 37q-83 0 -152.5 -68.5t-127.5 -222.5v-590h-84z" />
<glyph unicode="s" horiz-adv-x="761" d="M72 59l26 78q132 -84 262 -84q96 0 167 49t71 134q0 26 -7.5 49t-15.5 38.5t-30 32.5t-32.5 25t-44 21.5t-44 17t-50.5 17.5q-17 6 -26 9q-45 15 -76.5 28.5t-69.5 36.5t-61.5 48t-40 63t-16.5 83q0 121 83.5 187t211.5 66q139 0 266 -67l-29 -76q-134 72 -245 72 q-96 0 -153.5 -47t-57.5 -125q0 -20 3.5 -38t14 -33t18.5 -26.5t26.5 -23.5t29.5 -19t36.5 -17t36.5 -14.5t41 -15t40 -14.5q48 -16 78.5 -28t70.5 -35.5t63 -49t39.5 -66.5t16.5 -91q0 -119 -92 -191.5t-226 -72.5q-160 0 -284 79z" />
<glyph unicode="t" horiz-adv-x="653" d="M37 860l6 53l125 17l6 223h82l-6 -225h334l-6 -72h-330l-17 -590v-23q-1 -99 31 -146q36 -52 121 -52q89 0 190 55l17 -71q-97 -60 -209 -60q-127 -1 -181 75q-50 69 -50 200v24l16 584z" />
<glyph unicode="u" horiz-adv-x="1005" d="M143 297v641h84v-623q0 -258 222 -258q161 0 323 162v719h84v-932l-84 -26v165q-77 -80 -169 -122.5t-165 -42.5q-141 0 -218 81.5t-77 235.5z" />
<glyph unicode="v" horiz-adv-x="831" d="M10 938h90l320 -819l313 819h88l-368 -940h-72z" />
<glyph unicode="w" horiz-adv-x="1310" d="M33 938h88l235 -801l275 801h74l270 -805l221 805h88l-274 -940h-72l-270 813l-283 -813h-68z" />
<glyph unicode="x" horiz-adv-x="765" d="M14 0l326 483l-303 455h92l254 -393l254 393h90l-301 -451l326 -487h-97l-272 424l-274 -424h-95z" />
<glyph unicode="y" horiz-adv-x="831" d="M-61 -451l24 76q69 -37 137 -37q59 0 107.5 49t99.5 183l70 188l-367 930h90l320 -821l313 821h88l-354 -907l-88 -240q-59 -158 -124 -218t-155 -60q-87 0 -161 36z" />
<glyph unicode="z" horiz-adv-x="765" d="M43 0v57l573 809h-555v72h656v-57l-574 -809h574v-72h-674z" />
<glyph unicode="{" horiz-adv-x="663" d="M33 475l6 53q153 12 212.5 57.5t59.5 149.5q0 55 -27.5 129t-55 154.5t-27.5 152.5q0 122 107 177.5t325 68.5v-69q-189 -13 -267.5 -52t-78.5 -114q0 -66 55 -220t55 -214q0 -49 -16 -94.5t-49 -85t-90.5 -64.5t-132.5 -29v-2q75 -4 132.5 -28.5t90.5 -64t49 -85 t16 -96.5q0 -61 -55 -212t-55 -214q0 -79 78 -119t268 -53v-70q-218 13 -325 68.5t-107 177.5q0 58 17 122.5t38 111.5t38 103t17 99q0 104 -60 150.5t-212 58.5z" />
<glyph unicode="|" horiz-adv-x="548" d="M231 -408v1846h86v-1846h-86z" />
<glyph unicode="}" horiz-adv-x="663" d="M29 -401q193 17 270.5 53.5t77.5 111.5q0 66 -55.5 221t-55.5 214q0 49 16.5 94t49.5 84.5t90.5 64.5t132.5 29v2q-75 4 -132.5 29t-90.5 64.5t-49.5 85t-16.5 96.5q0 61 55.5 213t55.5 215q0 78 -77.5 115.5t-270.5 54.5v69q220 -13 327 -68.5t107 -177.5 q0 -74 -28.5 -155.5t-56.5 -154.5t-28 -126q0 -103 61 -150t214 -59l4 -53l-4 -53q-154 -12 -214.5 -57.5t-60.5 -149.5q0 -55 28 -129t56.5 -154.5t28.5 -152.5q0 -122 -107 -177.5t-327 -68.5v70z" />
<glyph unicode="~" horiz-adv-x="735" d="M96 369q41 213 166 213q46 0 106.5 -38t113.5 -76t81 -38q34 0 56.5 28t50.5 113h53q-41 -213 -166 -213q-37 0 -82.5 24t-80.5 52t-74 52t-64 24q-36 0 -57.5 -27t-51.5 -114h-51z" />
<glyph unicode="&#xa1;" horiz-adv-x="501" d="M178 1223q0 31 21 54t53 23q31 0 51.5 -22.5t20.5 -54.5q0 -30 -20.5 -52t-51.5 -22q-32 0 -53 22t-21 52zM199 -45l26 963h47l29 -963h-102z" />
<glyph unicode="&#xa2;" horiz-adv-x="911" d="M90 465q0 214 126 353.5t319 139.5h24l27 191h76l-27 -199q106 -19 182 -69l-20 -76q-68 45 -172 67l-111 -815h31q127 0 250 78l20 -76q-128 -79 -270 -79q-27 0 -41 2q0 -10 -15 -117q-4 -20 -9.5 -63.5t-6.5 -53.5h-76l17 123q3 26 7.5 57.5t6.5 48t2 17.5 q-155 37 -247.5 163.5t-92.5 307.5zM176 469q0 -152 70.5 -258t193.5 -141l109 811h-14q-158 0 -258.5 -116.5t-100.5 -295.5z" />
<glyph unicode="&#xa3;" horiz-adv-x="980" d="M33 37q140 49 191.5 115t51.5 188q0 113 -6 233h-192l-6 76h196q-8 117 -8 238q0 202 90.5 314t272.5 112q139 0 256 -66l-25 -73q-59 30 -112.5 45.5t-125.5 15.5q-274 0 -274 -330q0 -123 8 -256h400l-7 -76h-389q4 -144 4 -225q0 -96 -16 -143q70 -65 167 -112.5 t159 -47.5q85 0 141.5 50t85.5 173l61 -14q-20 -136 -94.5 -209.5t-181.5 -73.5q-90 0 -184.5 45t-178.5 125q-31 -57 -94 -99t-172 -77z" />
<glyph unicode="&#xa4;" horiz-adv-x="1036" d="M74 444l6 72h135q-4 78 -4 121q0 69 6 131h-137l-6 72h151q36 226 154 349.5t311 123.5q165 0 279 -62l-19 -75q-120 63 -260 63q-324 0 -383 -399h498l-6 -72h-500q-4 -78 -4 -123q0 -47 4 -129h438l6 -72h-436q59 -401 375 -401q149 0 270 57l13 -73q-123 -58 -287 -58 q-195 0 -308.5 122.5t-146.5 352.5h-149z" />
<glyph unicode="&#xa5;" horiz-adv-x="1120" d="M29 1280h94l399 -664l396 664h92l-205 -332q-204 -332 -205 -332h326l-6 -73h-357v-201h357l6 -74h-363v-268h-86v268h-364l6 74h358v201h-358l-6 73h325z" />
<glyph unicode="&#xa6;" horiz-adv-x="768" d="M31 47l16 86q51 -35 115.5 -56.5t120.5 -21.5q260 0 260 320v905h86v-911q0 -389 -350 -389q-65 0 -134 20t-114 47z" />
<glyph unicode="&#xa7;" horiz-adv-x="958" d="M43 610q0 99 76.5 171t195.5 98q-64 33 -97.5 76.5t-33.5 107.5q0 122 87 187t216 65q138 0 267 -68l-29 -71q-131 67 -246 67q-97 0 -157 -46.5t-60 -123.5q0 -51 43.5 -90t86.5 -56t138 -47q21 -7 31 -10q63 -18 104 -32t93.5 -39.5t83 -53t52 -70.5t21.5 -95 q0 -97 -72.5 -166.5t-187.5 -98.5q119 -68 119 -188t-95 -191t-230 -71q-159 0 -285 80l26 73q129 -79 263 -79q98 0 170.5 49.5t72.5 130.5q0 26 -9.5 48.5t-21.5 39t-38.5 34t-44.5 27t-57.5 24t-58.5 21t-65 20.5q-11 3 -16 5q-61 17 -102 31.5t-90.5 38.5t-79 50.5 t-50 65.5t-20.5 86zM121 623q0 -41 22 -74.5t56 -55t85.5 -42t98.5 -34t108 -33t103 -36.5q244 87 244 221q0 42 -21 76.5t-52.5 57t-81.5 44t-93.5 34.5t-105 32t-99.5 33q-48 -16 -90 -35t-83.5 -46.5t-66 -64t-24.5 -77.5z" />
<glyph unicode="&#xa8;" horiz-adv-x="819" d="M154 1227q0 30 19 50.5t50 20.5q32 0 52 -20.5t20 -50.5t-20.5 -53t-51.5 -23t-50 22.5t-19 53.5zM522 1227q0 30 21 50.5t53 20.5q30 0 50 -20.5t20 -50.5t-20 -53t-50 -23q-31 0 -52.5 23t-21.5 53z" />
<glyph unicode="&#xa9;" horiz-adv-x="1497" d="M80 637q0 182 89.5 336.5t244 245t336.5 90.5q137 0 261 -53.5t213 -143.5t142 -214.5t53 -260.5t-53 -260t-142 -214t-213 -143t-261 -53q-182 0 -336.5 90t-244 244t-89.5 336zM137 639q0 -165 82 -306.5t223.5 -224.5t307.5 -83q167 0 308.5 83t223.5 224.5t82 306.5 q0 166 -82 307.5t-223.5 225t-308.5 83.5q-166 0 -307.5 -83.5t-223.5 -225.5t-82 -307zM420 635q0 171 98 275t256 104q129 0 223 -60l-26 -71q-86 57 -197 57q-121 0 -195.5 -80t-74.5 -223q0 -139 73.5 -221t196.5 -82q118 0 203 65l14 -80q-83 -59 -219 -59 q-160 0 -256 101t-96 274z" />
<glyph unicode="&#xaa;" horiz-adv-x="671" d="M49 717q0 118 106.5 183.5t336.5 82.5v49q0 99 -39.5 148t-133.5 49q-118 0 -233 -92l-33 59q139 104 271 104q239 0 239 -262v-327q0 -109 72 -181l-76 -14q-44 35 -59 113h-2q-38 -43 -107 -78t-135 -35q-95 0 -151 59t-56 142zM121 723q0 -64 42 -100.5t105 -36.5 q56 0 119.5 29t104.5 73v236q-371 -30 -371 -201z" />
<glyph unicode="&#xab;" horiz-adv-x="1159" d="M63 444v70l445 367l16 -72l-385 -328v-2l385 -329l-16 -72zM590 442v74l467 385l16 -72l-407 -348v-2l407 -350l-16 -72z" />
<glyph unicode="&#xac;" horiz-adv-x="1028" d="M90 455q0 223 126.5 358t324.5 135q141 0 256 -71l82 81l-2 -813q0 -49 20 -74t78 -24l-6 -63q-142 -8 -162 122q-144 -126 -295 -126q-184 0 -303 131t-119 344zM176 455q0 -173 94.5 -286.5t247.5 -113.5q75 0 147.5 32.5t129.5 86.5v621q-44 35 -115.5 56t-144.5 21 q-159 0 -259 -114.5t-100 -302.5z" />
<glyph unicode="&#xad;" horiz-adv-x="561" d="M74 459v78h420v-78h-420z" />
<glyph unicode="&#xae;" horiz-adv-x="1497" d="M80 637q0 182 89.5 336.5t244 245t336.5 90.5q137 0 261 -53.5t213 -143.5t142 -214.5t53 -260.5t-53 -260t-142 -214t-213 -143t-261 -53q-182 0 -336.5 90t-244 244t-89.5 336zM137 639q0 -165 82 -306.5t223.5 -224.5t307.5 -83q167 0 308.5 83t223.5 224.5t82 306.5 q0 166 -82 307.5t-223.5 225t-308.5 83.5q-166 0 -307.5 -83.5t-223.5 -225.5t-82 -307zM524 283v725h205q137 0 206 -57.5t69 -162.5q0 -76 -40 -128t-110 -78l188 -299h-92l-174 280l-174 -10v-270h-78zM600 621l133 6q93 5 144 45.5t51 111.5q0 154 -205 154h-123v-317z " />
<glyph unicode="&#xaf;" horiz-adv-x="819" d="M172 1092l6 77h469l6 -77h-481z" />
<glyph unicode="&#xb0;" horiz-adv-x="694" d="M76 1034q0 116 74.5 195.5t195.5 79.5q124 0 197 -79t73 -196q0 -114 -73.5 -193t-196.5 -79q-121 0 -195.5 79.5t-74.5 192.5zM143 1034q0 -88 54.5 -147.5t148.5 -59.5t148.5 59.5t54.5 147.5q0 90 -54.5 149.5t-148.5 59.5t-148.5 -59.5t-54.5 -149.5z" />
<glyph unicode="&#xb1;" horiz-adv-x="1497" d="M80 637q0 182 89.5 336.5t244 245t336.5 90.5q137 0 261 -53.5t213 -143.5t142 -214.5t53 -260.5t-53 -260t-142 -214t-213 -143t-261 -53q-182 0 -336.5 90t-244 244t-89.5 336zM137 639q0 -165 82 -306.5t223.5 -224.5t307.5 -83q167 0 308.5 83t223.5 224.5t82 306.5 q0 166 -82 307.5t-223.5 225t-308.5 83.5q-166 0 -307.5 -83.5t-223.5 -225.5t-82 -307zM559 262v725h201q139 0 210.5 -60.5t71.5 -166.5q0 -119 -77.5 -180.5t-216.5 -61.5h-111v-256h-78zM637 588h117q211 0 211 170q0 78 -53.5 119t-153.5 41h-121v-330z" />
<glyph unicode="&#xb4;" horiz-adv-x="817" d="M285 1055l268 362h119l-324 -362h-63z" />
<glyph unicode="&#xb5;" horiz-adv-x="1028" d="M90 455q0 223 126.5 358t324.5 135q141 0 256 -71l82 81v-985q0 -237 -102.5 -348.5t-289.5 -111.5q-160 0 -288 55l20 78q118 -58 268 -58q149 0 228.5 91t79.5 296v117q-48 -47 -123 -79.5t-160 -32.5q-184 0 -303 131t-119 344zM176 455q0 -173 94.5 -286.5 t247.5 -113.5q75 0 147.5 32.5t129.5 86.5v621q-44 35 -115.5 56t-144.5 21q-159 0 -259 -114.5t-100 -302.5z" />
<glyph unicode="&#xb6;" horiz-adv-x="1032" d="M98 893q0 187 125.5 287t333.5 100h283v-1411h-82v674q-31 -8 -89.5 -15.5t-93.5 -7.5q-234 0 -355.5 103.5t-121.5 269.5z" />
<glyph unicode="&#xb7;" horiz-adv-x="313" d="M84 469q0 30 20.5 52t51.5 22t52 -22t21 -52q0 -32 -21 -55t-52 -23t-51.5 23t-20.5 55z" />
<glyph unicode="&#xb8;" horiz-adv-x="819" d="M260 -180l223 221h82l-184 -178q107 8 178.5 -36t71.5 -136q0 -83 -85 -146t-233 -73l-8 61q123 7 187.5 46.5t64.5 105.5q0 55 -39 84.5t-103.5 31.5t-148.5 -14z" />
<glyph unicode="&#xba;" horiz-adv-x="872" d="M72 907q0 175 105.5 284t262.5 109t260 -106t103 -281t-106 -285t-263 -110t-259.5 107t-102.5 282zM145 909q0 -150 81 -237.5t212 -87.5q127 0 209 92t82 233q0 150 -81 239t-210 89t-211 -92.5t-82 -235.5z" />
<glyph unicode="&#xbb;" horiz-adv-x="1159" d="M88 129l406 350v2l-406 348l16 72l467 -385v-74l-467 -385zM635 150l387 329v2l-387 328l16 72l447 -367v-70l-447 -366z" />
<glyph unicode="&#xbc;" horiz-adv-x="1146" d="M31 862l6 51l127 17l2 157q8 318 256 318q92 0 158 -37l-21 -76q-69 37 -139 37q-170 0 -170 -237v-164l489 2l2 178q8 317 256 317q94 0 158 -36l-20 -76q-69 37 -140 37q-170 0 -170 -238v-184h291l-6 -74h-285v-854h-84v854h-491v-854h-84v854z" />
<glyph unicode="&#xbd;" horiz-adv-x="1517" d="M31 862l6 51l127 17l2 157q0 167 69.5 242.5t186.5 75.5q92 0 158 -37l-21 -76q-69 37 -139 37q-170 0 -170 -237v-164l489 2l2 178q8 317 256 317q94 0 158 -36l-20 -76q-69 37 -140 37q-170 0 -170 -238v-184h441l96 30v-958h-84v854h-453v-854h-84v854h-491v-854h-84 v854z" />
<glyph unicode="&#xbe;" horiz-adv-x="1511" d="M31 862l6 51l127 17l2 157q8 318 256 318q92 0 158 -37l-21 -76q-69 37 -139 37q-170 0 -170 -237v-164l489 2l2 178q8 317 256 317q94 0 158 -36l-20 -76q-69 37 -140 37q-170 0 -170 -238v-184h291l-6 -74h-285v-854h-84v854h-491v-854h-84v854zM1278 0v1380l84 27 v-1407h-84z" />
<glyph unicode="&#xbf;" horiz-adv-x="698" d="M84 309q0 59 16 104t49.5 77.5t66 52.5t83.5 45q95 46 128.5 73.5t33.5 71.5q0 89 -133 176l51 21q156 -95 156 -197q0 -74 -46.5 -121t-144.5 -88q-92 -39 -137 -84.5t-45 -128.5q0 -108 80.5 -188t206.5 -80q72 0 139 20v-75q-83 -19 -135 -19q-89 0 -161.5 31 t-116.5 81.5t-67.5 109t-23.5 118.5zM330 1221q0 32 20.5 54.5t52.5 22.5q31 0 51.5 -22.5t20.5 -54.5q0 -30 -20.5 -52t-51.5 -22t-52 22t-21 52z" />
<glyph unicode="&#xc0;" horiz-adv-x="1179" d="M51 0l490 1280h106l481 -1280h-88l-149 399h-604l-150 -399h-86zM227 1759h119l268 -362h-63zM317 477h543l-268 727z" />
<glyph unicode="&#xc1;" horiz-adv-x="1179" d="M51 0l490 1280h106l481 -1280h-88l-149 399h-604l-150 -399h-86zM317 477h543l-268 727zM547 1397l268 362h119l-324 -362h-63z" />
<glyph unicode="&#xc2;" horiz-adv-x="1179" d="M51 0l490 1280h106l481 -1280h-88l-149 399h-604l-150 -399h-86zM309 1397l230 362h102l229 -362h-67l-211 295h-4l-211 -295h-68zM317 477h543l-268 727z" />
<glyph unicode="&#xc3;" horiz-adv-x="1179" d="M51 0l490 1280h106l481 -1280h-88l-149 399h-604l-150 -399h-86zM276 1417q41 213 166 213q37 0 83 -23.5t82 -52t74.5 -52t61.5 -23.5q34 0 56.5 28t50.5 113h53q-41 -213 -166 -213q-37 0 -82.5 23.5t-80.5 52.5t-74 52.5t-64 23.5q-35 0 -56 -27.5t-52 -114.5h-52z M317 477h543l-268 727z" />
<glyph unicode="&#xc4;" horiz-adv-x="1179" d="M51 0l490 1280h106l481 -1280h-88l-149 399h-604l-150 -399h-86zM317 477h543l-268 727zM330 1569q0 30 19 50.5t50 20.5q32 0 52 -20.5t20 -50.5t-20.5 -53t-51.5 -23t-50 22.5t-19 53.5zM698 1569q0 30 21 50.5t53 20.5q30 0 50 -20.5t20 -50.5t-20 -53t-50 -23 q-31 0 -52.5 23t-21.5 53z" />
<glyph unicode="&#xc5;" horiz-adv-x="1179" d="M51 0q31 80 81 210t87.5 227t67.5 177l233 613q-73 20 -114 71.5t-41 118.5q0 84 63 142.5t166 58.5t166 -58.5t63 -142.5q0 -67 -41 -118.5t-114 -71.5l460 -1227h-86l-149 399h-604l-152 -399h-86zM319 477h543l-268 727zM436 1419q0 -59 44 -100t114 -41 q71 0 114.5 38.5t43.5 96.5q0 59 -44 102.5t-114 43.5t-114 -40.5t-44 -99.5z" />
<glyph unicode="&#xc6;" horiz-adv-x="1644" d="M20 0l738 1280h784v-78h-647v-522h541v-78h-541v-524h647v-78h-733v379h-483l-220 -379h-86zM371 457h438v753z" />
<glyph unicode="&#xc7;" horiz-adv-x="1169" d="M100 637q0 299 166.5 481t427.5 182q212 0 383 -102l-26 -74q-70 44 -166 71.5t-195 27.5q-105 0 -196 -39t-159.5 -111.5t-107.5 -184.5t-39 -251q0 -268 138 -424t368 -156q208 0 355 105l20 -80q-136 -93 -342 -102l-121 -117q107 8 178.5 -36t71.5 -136 q0 -83 -84.5 -146t-232.5 -73l-9 61q123 7 187.5 46.5t64.5 105.5q0 55 -38.5 84.5t-103 31.5t-148.5 -14l-7 33l162 162q-253 12 -400 189t-147 466z" />
<glyph unicode="&#xc8;" horiz-adv-x="1003" d="M168 0v1280h733v-78h-647v-524h541v-76h-541v-524h647v-78h-733zM193 1759h118l269 -362h-64z" />
<glyph unicode="&#xc9;" horiz-adv-x="1003" d="M168 0v1280h733v-78h-647v-524h541v-76h-541v-524h647v-78h-733zM434 1397l268 362h119l-323 -362h-64z" />
<glyph unicode="&#xca;" horiz-adv-x="1003" d="M168 0v1280h733v-78h-647v-524h541v-76h-541v-524h647v-78h-733zM264 1397l230 362h102l229 -362h-67l-211 295h-4l-211 -295h-68z" />
<glyph unicode="&#xcb;" horiz-adv-x="1003" d="M168 0v1280h733v-78h-647v-524h541v-76h-541v-524h647v-78h-733zM268 1569q0 30 19.5 50.5t50.5 20.5q32 0 52 -20.5t20 -50.5t-20.5 -53t-51.5 -23t-50.5 22.5t-19.5 53.5zM637 1569q0 30 21 50.5t53 20.5q30 0 49.5 -20.5t19.5 -50.5t-19.5 -53t-49.5 -23 q-31 0 -52.5 23t-21.5 53z" />
<glyph unicode="&#xcc;" horiz-adv-x="425" d="M-133 1759h119l268 -362h-64zM170 0v1280h86v-1280h-86z" />
<glyph unicode="&#xcd;" horiz-adv-x="425" d="M170 0v1280h86v-1280h-86zM178 1397l268 362h119l-323 -362h-64z" />
<glyph unicode="&#xce;" horiz-adv-x="425" d="M-68 1397l230 362h102l230 -362h-68l-211 295h-4l-211 -295h-68zM170 0v1280h86v-1280h-86z" />
<glyph unicode="&#xcf;" horiz-adv-x="425" d="M-43 1569q0 30 19.5 50.5t50.5 20.5q32 0 51.5 -20.5t19.5 -50.5q0 -31 -20 -53.5t-51 -22.5t-50.5 22.5t-19.5 53.5zM170 0v1280h86v-1280h-86zM326 1569q0 30 20.5 50.5t52.5 20.5q30 0 50 -20.5t20 -50.5t-20 -53t-50 -23q-31 0 -52 23t-21 53z" />
<glyph unicode="&#xd0;" horiz-adv-x="1296" d="M33 604v76h176v600h309q308 0 493 -174.5t185 -456.5q0 -310 -182 -479.5t-508 -169.5h-297v604h-176zM295 78h215q133 0 241.5 34t188.5 102t124 176.5t44 250.5q0 256 -159.5 408.5t-438.5 152.5h-215v-522h389v-76h-389v-526z" />
<glyph unicode="&#xd1;" horiz-adv-x="1292" d="M168 0v1280h100l774 -1163v1163h82v-1292h-94l-780 1173v-1161h-82zM332 1417q41 213 166 213q37 0 83 -23.5t82 -52t74.5 -52t61.5 -23.5q34 0 56 28t50 113h53q-41 -213 -165 -213q-37 0 -82.5 23.5t-80.5 52.5t-74 52.5t-64 23.5q-36 0 -57.5 -27.5t-51.5 -114.5h-51z " />
<glyph unicode="&#xd2;" d="M100 639q0 147 47 271t129 209.5t195.5 133t245.5 47.5q126 0 238.5 -49t194.5 -134.5t130.5 -209t48.5 -264.5q0 -146 -46.5 -270.5t-128.5 -210.5t-195.5 -134t-245.5 -48q-125 0 -238 49.5t-195.5 135.5t-131 209.5t-48.5 264.5zM188 643q0 -255 152 -421.5 t379 -166.5q228 0 375 164t147 420q0 169 -69.5 303.5t-190.5 208.5t-270 74q-228 0 -375.5 -163t-147.5 -419zM379 1759h119l268 -362h-64z" />
<glyph unicode="&#xd3;" d="M100 639q0 147 47 271t129 209.5t195.5 133t245.5 47.5q126 0 238.5 -49t194.5 -134.5t130.5 -209t48.5 -264.5q0 -146 -46.5 -270.5t-128.5 -210.5t-195.5 -134t-245.5 -48q-125 0 -238 49.5t-195.5 135.5t-131 209.5t-48.5 264.5zM188 643q0 -255 152 -421.5 t379 -166.5q228 0 375 164t147 420q0 169 -69.5 303.5t-190.5 208.5t-270 74q-228 0 -375.5 -163t-147.5 -419zM666 1397l268 362h119l-324 -362h-63z" />
<glyph unicode="&#xd4;" d="M100 639q0 147 47 271t129 209.5t195.5 133t245.5 47.5q126 0 238.5 -49t194.5 -134.5t130.5 -209t48.5 -264.5q0 -146 -46.5 -270.5t-128.5 -210.5t-195.5 -134t-245.5 -48q-125 0 -238 49.5t-195.5 135.5t-131 209.5t-48.5 264.5zM188 643q0 -255 152 -421.5 t379 -166.5q228 0 375 164t147 420q0 169 -69.5 303.5t-190.5 208.5t-270 74q-228 0 -375.5 -163t-147.5 -419zM434 1397l230 362h102l229 -362h-67l-211 295h-4l-211 -295h-68z" />
<glyph unicode="&#xd5;" d="M100 639q0 147 47 271t129 209.5t195.5 133t245.5 47.5q126 0 238.5 -49t194.5 -134.5t130.5 -209t48.5 -264.5q0 -146 -46.5 -270.5t-128.5 -210.5t-195.5 -134t-245.5 -48q-125 0 -238 49.5t-195.5 135.5t-131 209.5t-48.5 264.5zM188 643q0 -255 152 -421.5 t379 -166.5q228 0 375 164t147 420q0 169 -69.5 303.5t-190.5 208.5t-270 74q-228 0 -375.5 -163t-147.5 -419zM401 1417q41 213 166 213q37 0 83 -23.5t82 -52t74.5 -52t61.5 -23.5q34 0 56.5 28t50.5 113h53q-41 -213 -166 -213q-37 0 -82.5 23.5t-80.5 52.5t-74 52.5 t-64 23.5q-35 0 -56 -27.5t-52 -114.5h-52z" />
<glyph unicode="&#xd6;" d="M100 639q0 147 47 271t129 209.5t195.5 133t245.5 47.5q126 0 238.5 -49t194.5 -134.5t130.5 -209t48.5 -264.5q0 -146 -46.5 -270.5t-128.5 -210.5t-195.5 -134t-245.5 -48q-125 0 -238 49.5t-195.5 135.5t-131 209.5t-48.5 264.5zM188 643q0 -255 152 -421.5 t379 -166.5q228 0 375 164t147 420q0 169 -69.5 303.5t-190.5 208.5t-270 74q-228 0 -375.5 -163t-147.5 -419zM459 1569q0 30 19 50.5t50 20.5q32 0 52 -20.5t20 -50.5t-20.5 -53t-51.5 -23t-50 22.5t-19 53.5zM827 1569q0 30 21 50.5t53 20.5q30 0 50 -20.5t20 -50.5 t-20 -53t-50 -23q-31 0 -52.5 23t-21.5 53z" />
<glyph unicode="&#xd7;" horiz-adv-x="999" d="M78 109l368 368l-368 369l53 53l369 -369l372 373l54 -53l-373 -373l369 -368l-54 -54l-368 369l-369 -369z" />
<glyph unicode="&#xd8;" d="M100 639q0 147 47 271t129 209.5t195.5 133t245.5 47.5q159 0 297 -77l112 194h80l-135 -231q120 -89 189 -229t69 -314q0 -146 -46.5 -270.5t-128.5 -210.5t-195.5 -134t-245.5 -48q-159 0 -297 77l-113 -194h-80q67 115 68 117q15 24 32 54t26 45.5t9 14.5 q-121 90 -189.5 230.5t-68.5 314.5zM188 643q0 -151 55.5 -274.5t155.5 -202.5l576 989q-116 72 -264 72q-228 0 -375.5 -164t-147.5 -420zM455 125q123 -72 264 -72q228 0 375 164.5t147 421.5q0 151 -55.5 274.5t-155.5 202.5z" />
<glyph unicode="&#xd9;" horiz-adv-x="1200" d="M137 463v817h84v-811q0 -196 96.5 -305t282.5 -109q189 0 284 111.5t95 318.5v795h84v-797q0 -233 -121 -368t-344 -135q-221 0 -341 127t-120 356zM272 1759h119l268 -362h-63z" />
<glyph unicode="&#xda;" horiz-adv-x="1200" d="M137 463v817h84v-811q0 -196 96.5 -305t282.5 -109q189 0 284 111.5t95 318.5v795h84v-797q0 -233 -121 -368t-344 -135q-221 0 -341 127t-120 356zM522 1397l269 362h118l-323 -362h-64z" />
<glyph unicode="&#xdb;" horiz-adv-x="1200" d="M137 463v817h84v-811q0 -196 96.5 -305t282.5 -109q189 0 284 111.5t95 318.5v795h84v-797q0 -233 -121 -368t-344 -135q-221 0 -341 127t-120 356zM319 1397l230 362h102l230 -362h-68l-211 295h-4l-211 -295h-68z" />
<glyph unicode="&#xdc;" horiz-adv-x="1200" d="M137 463v817h84v-811q0 -196 96.5 -305t282.5 -109q189 0 284 111.5t95 318.5v795h84v-797q0 -233 -121 -368t-344 -135q-221 0 -341 127t-120 356zM344 1569q0 30 19.5 50.5t50.5 20.5q32 0 51.5 -20.5t19.5 -50.5q0 -31 -20 -53.5t-51 -22.5t-50.5 22.5t-19.5 53.5z M713 1569q0 30 20.5 50.5t52.5 20.5q30 0 50 -20.5t20 -50.5t-20 -53t-50 -23q-31 0 -52 23t-21 53z" />
<glyph unicode="&#xdd;" horiz-adv-x="1038" d="M29 1280h96l397 -678l393 678h95l-447 -760v-520h-86v518zM455 1397l268 362h119l-324 -362h-63z" />
<glyph unicode="&#xde;" horiz-adv-x="1024" d="M168 0v1280h86v-231h201q240 0 364.5 -102t124.5 -283q0 -200 -134.5 -305.5t-377.5 -110.5l-178 -2v-246h-86zM254 324l178 2q209 5 315.5 84t106.5 252q0 147 -104.5 228t-294.5 81h-201v-647z" />
<glyph unicode="&#xdf;" horiz-adv-x="1159" d="M31 860l6 53l127 17l2 178q8 317 256 317q94 0 158 -36l-21 -76q-69 37 -139 37q-170 0 -170 -238v-1112h-84v852zM469 59l27 78q132 -84 262 -84q96 0 166.5 49t70.5 134q0 26 -7.5 49t-15.5 38.5t-30 32.5t-32.5 25t-44 21.5t-44 17t-50.5 17.5q-17 6 -26 9 q-45 15 -76.5 28.5t-69.5 36.5t-61.5 48t-40 63t-16.5 83q0 121 83.5 187t211.5 66q139 0 266 -67l-28 -76q-134 72 -246 72q-96 0 -153.5 -47t-57.5 -125q0 -20 3.5 -38t14 -33t18.5 -26.5t26.5 -23.5t29.5 -19t36.5 -17t36.5 -14.5t41 -15t40 -14.5q48 -16 78.5 -28 t70.5 -35.5t63 -49t39.5 -66.5t16.5 -91q0 -119 -91.5 -191.5t-225.5 -72.5q-161 0 -285 79z" />
<glyph unicode="&#xe0;" horiz-adv-x="874" d="M70 227q0 296 577 332v86q0 236 -229 236q-80 0 -166 -35.5t-150 -85.5l-20 84q68 49 163 81.5t179 32.5q143 0 225 -73.5t82 -231.5v-508q0 -49 20 -74t78 -24l-6 -63q-72 -5 -117 31.5t-49 111.5h-2q-45 -59 -127 -103t-166 -44q-126 0 -209 69t-83 178zM125 1417h119 l268 -362h-63zM154 236q0 -85 62.5 -134t156.5 -49q81 0 152 42t122 104v299q-267 -28 -380 -91.5t-113 -170.5z" />
<glyph unicode="&#xe1;" horiz-adv-x="874" d="M70 227q0 296 577 332v86q0 236 -229 236q-80 0 -166 -35.5t-150 -85.5l-20 84q68 49 163 81.5t179 32.5q143 0 225 -73.5t82 -231.5v-508q0 -49 20 -74t78 -24l-6 -63q-72 -5 -117 31.5t-49 111.5h-2q-45 -59 -127 -103t-166 -44q-126 0 -209 69t-83 178zM154 236 q0 -85 62.5 -134t156.5 -49q81 0 152 42t122 104v299q-267 -28 -380 -91.5t-113 -170.5zM322 1055l268 362h119l-324 -362h-63z" />
<glyph unicode="&#xe2;" horiz-adv-x="874" d="M70 227q0 296 577 332v86q0 236 -229 236q-80 0 -166 -35.5t-150 -85.5l-20 84q68 49 163 81.5t179 32.5q143 0 225 -73.5t82 -231.5v-508q0 -49 20 -74t78 -24l-6 -63q-72 -5 -117 31.5t-49 111.5h-2q-45 -59 -127 -103t-166 -44q-126 0 -209 69t-83 178zM139 1055 l230 362h102l229 -362h-67l-211 295h-4l-211 -295h-68zM154 236q0 -85 62.5 -134t156.5 -49q81 0 152 42t122 104v299q-267 -28 -380 -91.5t-113 -170.5z" />
<glyph unicode="&#xe3;" horiz-adv-x="874" d="M70 227q0 296 577 332v86q0 236 -229 236q-80 0 -166 -35.5t-150 -85.5l-20 84q68 49 163 81.5t179 32.5q143 0 225 -73.5t82 -231.5v-508q0 -49 20 -74t78 -24l-6 -63q-72 -5 -117 31.5t-49 111.5h-2q-45 -59 -127 -103t-166 -44q-126 0 -209 69t-83 178zM106 1075 q41 213 166 213q37 0 83 -23.5t82 -52t74.5 -52t61.5 -23.5q34 0 56.5 28t50.5 113h53q-41 -213 -166 -213q-37 0 -82.5 23.5t-80.5 52.5t-74 52.5t-64 23.5q-35 0 -56 -27.5t-52 -114.5h-52zM154 236q0 -85 62.5 -134t156.5 -49q81 0 152 42t122 104v299 q-267 -28 -380 -91.5t-113 -170.5z" />
<glyph unicode="&#xe4;" horiz-adv-x="874" d="M70 227q0 296 577 332v86q0 236 -229 236q-80 0 -166 -35.5t-150 -85.5l-20 84q68 49 163 81.5t179 32.5q143 0 225 -73.5t82 -231.5v-508q0 -49 20 -74t78 -24l-6 -63q-72 -5 -117 31.5t-49 111.5h-2q-45 -59 -127 -103t-166 -44q-126 0 -209 69t-83 178zM154 236 q0 -85 62.5 -134t156.5 -49q81 0 152 42t122 104v299q-267 -28 -380 -91.5t-113 -170.5zM164 1227q0 30 19 50.5t50 20.5q32 0 52 -20.5t20 -50.5t-20.5 -53t-51.5 -23t-50 22.5t-19 53.5zM532 1227q0 30 21 50.5t53 20.5q30 0 50 -20.5t20 -50.5t-20 -53t-50 -23 q-31 0 -52.5 23t-21.5 53z" />
<glyph unicode="&#xe5;" horiz-adv-x="874" d="M70 227q0 296 577 332v86q0 236 -229 236q-80 0 -166 -35.5t-150 -85.5l-20 84q68 49 163 81.5t179 32.5q143 0 225 -73.5t82 -231.5v-508q0 -49 20 -74t78 -24l-6 -63q-72 -5 -117 31.5t-49 111.5h-2q-45 -59 -127 -103t-166 -44q-126 0 -209 69t-83 178zM154 236 q0 -85 62.5 -134t156.5 -49q81 0 152 42t122 104v299q-267 -28 -380 -91.5t-113 -170.5zM193 1237q0 84 63 142.5t166 58.5t166 -58.5t63 -142.5t-63 -141.5t-166 -57.5t-166 57.5t-63 141.5zM264 1239q0 -59 44 -100t114 -41q71 0 114.5 38.5t43.5 96.5q0 59 -44 102 t-114 43t-114 -40t-44 -99z" />
<glyph unicode="&#xe6;" horiz-adv-x="1474" d="M70 217q0 150 134 230.5t423 93.5l4 84q10 252 -225 252q-139 0 -291 -117l-39 69q168 129 336 129q241 0 284 -200q57 94 146.5 147t199.5 53q143 0 234.5 -87.5t91.5 -235.5q0 -66 -20 -148l-639 -4v-14q0 -182 93.5 -297t252.5 -115q139 0 262 78l18 -76 q-128 -79 -286 -79q-120 0 -212.5 53.5t-146.5 152.5q-61 -89 -166.5 -147.5t-193.5 -58.5q-121 0 -190.5 67.5t-69.5 169.5zM152 223q0 -81 52.5 -121.5t135.5 -40.5q75 0 164 46.5t160 134.5q-41 106 -41 231q-471 -30 -471 -250zM715 559h561q6 35 6 70q0 112 -65.5 182 t-176.5 70q-128 0 -214.5 -88.5t-110.5 -233.5z" />
<glyph unicode="&#xe7;" horiz-adv-x="911" d="M90 465q0 214 126 353.5t319 139.5q166 0 282 -77l-20 -76q-120 76 -262 76q-158 0 -258.5 -116.5t-100.5 -295.5q0 -181 102 -296.5t267 -115.5q127 0 250 78l20 -76q-114 -69 -235 -77l-123 -119q107 8 178.5 -36t71.5 -136q0 -83 -85 -146t-233 -73l-8 61 q123 7 187.5 46.5t64.5 105.5q0 55 -39 84.5t-103.5 31.5t-148.5 -14l-6 33l164 162q-182 17 -296 150t-114 333z" />
<glyph unicode="&#xe8;" horiz-adv-x="942" d="M90 465q0 214 118 353.5t302 139.5q143 0 234.5 -87.5t91.5 -235.5q0 -62 -21 -148l-639 -4v-14q0 -182 93.5 -297t252.5 -115q139 0 262 78l19 -76q-124 -79 -287 -79q-191 0 -308.5 135t-117.5 350zM174 1417h119l268 -362h-63zM182 559h561q7 40 7 70q0 112 -65.5 182 t-176.5 70q-128 0 -215 -88.5t-111 -233.5z" />
<glyph unicode="&#xe9;" horiz-adv-x="942" d="M90 465q0 214 118 353.5t302 139.5q143 0 234.5 -87.5t91.5 -235.5q0 -62 -21 -148l-639 -4v-14q0 -182 93.5 -297t252.5 -115q139 0 262 78l19 -76q-124 -79 -287 -79q-191 0 -308.5 135t-117.5 350zM182 559h561q7 40 7 70q0 112 -65.5 182t-176.5 70 q-128 0 -215 -88.5t-111 -233.5zM436 1055l269 362h118l-323 -362h-64z" />
<glyph unicode="&#xea;" horiz-adv-x="942" d="M90 465q0 214 118 353.5t302 139.5q143 0 234.5 -87.5t91.5 -235.5q0 -62 -21 -148l-639 -4v-14q0 -182 93.5 -297t252.5 -115q139 0 262 78l19 -76q-124 -79 -287 -79q-191 0 -308.5 135t-117.5 350zM182 559h561q7 40 7 70q0 112 -65.5 182t-176.5 70 q-128 0 -215 -88.5t-111 -233.5zM190 1055l230 362h102l230 -362h-68l-211 295h-4l-211 -295h-68z" />
<glyph unicode="&#xeb;" horiz-adv-x="942" d="M90 465q0 214 118 353.5t302 139.5q143 0 234.5 -87.5t91.5 -235.5q0 -62 -21 -148l-639 -4v-14q0 -182 93.5 -297t252.5 -115q139 0 262 78l19 -76q-124 -79 -287 -79q-191 0 -308.5 135t-117.5 350zM182 559h561q7 40 7 70q0 112 -65.5 182t-176.5 70 q-128 0 -215 -88.5t-111 -233.5zM223 1227q0 30 19.5 50.5t50.5 20.5q32 0 52 -20.5t20 -50.5t-20.5 -53t-51.5 -23t-50.5 22.5t-19.5 53.5zM592 1227q0 30 21 50.5t53 20.5q30 0 49.5 -20.5t19.5 -50.5t-19.5 -53t-49.5 -23q-31 0 -52.5 23t-21.5 53z" />
<glyph unicode="&#xec;" horiz-adv-x="395" d="M-154 1417h119l268 -362h-63zM156 0v932l84 26v-958h-84z" />
<glyph unicode="&#xed;" horiz-adv-x="395" d="M156 0v932l84 26v-958h-84zM156 1055l268 362h119l-324 -362h-63z" />
<glyph unicode="&#xee;" horiz-adv-x="395" d="M-78 1055l230 362h102l229 -362h-67l-211 295h-4l-211 -295h-68zM156 0v932l84 26v-958h-84z" />
<glyph unicode="&#xef;" horiz-adv-x="395" d="M-53 1227q0 30 19 50.5t50 20.5q32 0 52 -20.5t20 -50.5t-20.5 -53t-51.5 -23t-50 22.5t-19 53.5zM156 0v932l84 26v-958h-84zM315 1227q0 30 21 50.5t53 20.5q30 0 50 -20.5t20 -50.5t-20 -53t-50 -23q-31 0 -52.5 23t-21.5 53z" />
<glyph unicode="&#xf0;" horiz-adv-x="1054" d="M90 430q0 210 125.5 333.5t310.5 123.5q146 0 281 -80h2q-82 178 -254 362l-272 -73l-19 73l230 62q-127 119 -199 170l45 12l45 12q94 -67 197 -170l221 60l18 -74l-90 -24q-84 -25 -90 -25q147 -164 235.5 -341t88.5 -343q0 -153 -48 -270t-150.5 -187.5t-248.5 -70.5 q-187 0 -307.5 125t-120.5 325zM176 430q0 -162 97 -269.5t247 -107.5q176 0 268.5 121.5t92.5 329.5q0 102 -37 209q-63 43 -144 70.5t-159 27.5q-172 0 -268.5 -103t-96.5 -278z" />
<glyph unicode="&#xf1;" horiz-adv-x="1007" d="M152 0v932l84 26v-163q77 80 168 121.5t165 41.5q141 0 218 -81.5t77 -235.5v-641h-84v623q0 258 -221 258q-161 0 -323 -162v-719h-84zM190 1075q41 213 166 213q37 0 83 -23.5t82 -52t74.5 -52t61.5 -23.5q34 0 56.5 28t50.5 113h53q-41 -213 -166 -213 q-37 0 -82.5 23.5t-80.5 52.5t-74 52.5t-64 23.5q-35 0 -56 -27.5t-52 -114.5h-52z" />
<glyph unicode="&#xf2;" horiz-adv-x="1093" d="M90 465q0 217 133.5 355t327.5 138q195 0 324 -133.5t129 -351.5q0 -217 -133.5 -355t-327.5 -138q-195 0 -324 133.5t-129 351.5zM174 469q0 -189 104.5 -301.5t268.5 -112.5q160 0 266.5 117.5t106.5 296.5q0 189 -105 301.5t-268 112.5q-160 0 -266.5 -117.5 t-106.5 -296.5zM223 1417h119l268 -362h-63z" />
<glyph unicode="&#xf3;" horiz-adv-x="1093" d="M90 465q0 217 133.5 355t327.5 138q195 0 324 -133.5t129 -351.5q0 -217 -133.5 -355t-327.5 -138q-195 0 -324 133.5t-129 351.5zM174 469q0 -189 104.5 -301.5t268.5 -112.5q160 0 266.5 117.5t106.5 296.5q0 189 -105 301.5t-268 112.5q-160 0 -266.5 -117.5 t-106.5 -296.5zM485 1055l269 362h118l-323 -362h-64z" />
<glyph unicode="&#xf4;" horiz-adv-x="1093" d="M90 465q0 217 133.5 355t327.5 138q195 0 324 -133.5t129 -351.5q0 -217 -133.5 -355t-327.5 -138q-195 0 -324 133.5t-129 351.5zM174 469q0 -189 104.5 -301.5t268.5 -112.5q160 0 266.5 117.5t106.5 296.5q0 189 -105 301.5t-268 112.5q-160 0 -266.5 -117.5 t-106.5 -296.5zM266 1055l230 362h102l229 -362h-67l-211 295h-4l-211 -295h-68z" />
<glyph unicode="&#xf5;" horiz-adv-x="1093" d="M90 465q0 217 133.5 355t327.5 138q195 0 324 -133.5t129 -351.5q0 -217 -133.5 -355t-327.5 -138q-195 0 -324 133.5t-129 351.5zM174 469q0 -189 104.5 -301.5t268.5 -112.5q160 0 266.5 117.5t106.5 296.5q0 189 -105 301.5t-268 112.5q-160 0 -266.5 -117.5 t-106.5 -296.5zM233 1075q41 213 166 213q37 0 83 -23.5t82 -52t74.5 -52t61.5 -23.5q34 0 56.5 28t50.5 113h53q-41 -213 -166 -213q-37 0 -82.5 23.5t-80.5 52.5t-74 52.5t-64 23.5q-35 0 -56 -27.5t-52 -114.5h-52z" />
<glyph unicode="&#xf6;" horiz-adv-x="1093" d="M90 465q0 217 133.5 355t327.5 138q195 0 324 -133.5t129 -351.5q0 -217 -133.5 -355t-327.5 -138q-195 0 -324 133.5t-129 351.5zM174 469q0 -189 104.5 -301.5t268.5 -112.5q160 0 266.5 117.5t106.5 296.5q0 189 -105 301.5t-268 112.5q-160 0 -266.5 -117.5 t-106.5 -296.5zM291 1227q0 30 19 50.5t50 20.5q32 0 52 -20.5t20 -50.5t-20.5 -53t-51.5 -23t-50 22.5t-19 53.5zM659 1227q0 30 21 50.5t53 20.5q30 0 50 -20.5t20 -50.5t-20 -53t-50 -23q-31 0 -52.5 23t-21.5 53z" />
<glyph unicode="&#xf7;" horiz-adv-x="999" d="M86 444l6 74h817l6 -74h-829zM430 219q0 30 20.5 52t51.5 22t52 -22t21 -52q0 -32 -21 -55t-52 -23t-51.5 23t-20.5 55zM430 739q0 30 20.5 52t51.5 22t52 -22t21 -52q0 -32 -20.5 -54.5t-52.5 -22.5q-31 0 -51.5 22.5t-20.5 54.5z" />
<glyph unicode="&#xf8;" horiz-adv-x="1093" d="M90 465q0 217 133.5 355t327.5 138q117 0 211 -49q11 16 32 55t33 56q8 12 33 57h80l-119 -205q87 -63 135 -165t48 -234q0 -217 -133.5 -355t-327.5 -138q-117 0 -211 49l-96 -166h-80l116 203q-87 63 -134.5 165t-47.5 234zM174 469q0 -220 139 -334l205 352 q45 76 97 166t80 139t28 48q-76 43 -176 43q-160 0 -266.5 -117.5t-106.5 -296.5zM371 96q84 -41 176 -41q160 0 266.5 117.5t106.5 296.5q0 219 -140 334z" />
<glyph unicode="&#xf9;" horiz-adv-x="1005" d="M143 297v641h84v-623q0 -258 222 -258q161 0 323 162v719h84v-932l-84 -26v165q-77 -80 -169 -122.5t-165 -42.5q-141 0 -218 81.5t-77 235.5zM174 1417h119l268 -362h-63z" />
<glyph unicode="&#xfa;" horiz-adv-x="1005" d="M143 297v641h84v-623q0 -258 222 -258q161 0 323 162v719h84v-932l-84 -26v165q-77 -80 -169 -122.5t-165 -42.5q-141 0 -218 81.5t-77 235.5zM424 1055l268 362h119l-324 -362h-63z" />
<glyph unicode="&#xfb;" horiz-adv-x="1005" d="M143 297v641h84v-623q0 -258 222 -258q161 0 323 162v719h84v-932l-84 -26v165q-77 -80 -169 -122.5t-165 -42.5q-141 0 -218 81.5t-77 235.5zM221 1055l230 362h102l229 -362h-67l-211 295h-4l-211 -295h-68z" />
<glyph unicode="&#xfc;" horiz-adv-x="1005" d="M143 297v641h84v-623q0 -258 222 -258q161 0 323 162v719h84v-932l-84 -26v165q-77 -80 -169 -122.5t-165 -42.5q-141 0 -218 81.5t-77 235.5zM238 1227q0 30 19 50.5t50 20.5q32 0 52 -20.5t20 -50.5t-20.5 -53t-51.5 -23t-50 22.5t-19 53.5zM606 1227q0 30 21 50.5 t53 20.5q30 0 50 -20.5t20 -50.5t-20 -53t-50 -23q-31 0 -52.5 23t-21.5 53z" />
<glyph unicode="&#xfd;" horiz-adv-x="831" d="M-61 -451l24 76q69 -37 137 -37q59 0 107.5 49t99.5 183l70 188l-367 930h90l320 -821l313 821h88l-354 -907l-88 -240q-59 -158 -124 -218t-155 -60q-87 0 -161 36zM322 1055l268 362h119l-324 -362h-63z" />
<glyph unicode="&#xfe;" horiz-adv-x="1030" d="M152 -477v1859l84 25v-571q49 47 123 79.5t159 32.5q184 0 303 -131t119 -344q0 -223 -126.5 -358t-324.5 -135q-66 0 -134.5 20t-118.5 51v-528h-84zM236 133q44 -35 116 -56.5t144 -21.5q159 0 258.5 115t99.5 303q0 173 -94.5 286t-247.5 113q-75 0 -147 -32t-129 -86 v-621z" />
<glyph unicode="&#xff;" horiz-adv-x="831" d="M-61 -451l24 76q69 -37 137 -37q59 0 107.5 49t99.5 183l70 188l-367 930h90l320 -821l313 821h88l-354 -907l-88 -240q-59 -158 -124 -218t-155 -60q-87 0 -161 36zM158 1227q0 30 19 50.5t50 20.5q32 0 52 -20.5t20 -50.5t-20.5 -53t-51.5 -23t-50 22.5t-19 53.5z M526 1227q0 30 21 50.5t53 20.5q30 0 50 -20.5t20 -50.5t-20 -53t-50 -23q-31 0 -52.5 23t-21.5 53z" />
<glyph unicode="&#x152;" horiz-adv-x="1837" d="M100 631q0 310 182.5 479.5t508.5 169.5h944v-78h-648v-522h541v-78h-541v-524h648v-78h-957q-308 0 -493 174.5t-185 456.5zM188 639q0 -256 159.5 -408.5t438.5 -152.5h215v1124h-215q-133 0 -241 -34t-188.5 -101.5t-124.5 -176t-44 -251.5z" />
<glyph unicode="&#x153;" horiz-adv-x="1769" d="M90 465q0 217 133.5 355t327.5 138q141 0 248.5 -71.5t161.5 -200.5q48 127 146.5 199.5t229.5 72.5q143 0 234.5 -87.5t91.5 -235.5q0 -62 -21 -148l-638 -4v-14q0 -182 93.5 -297t252.5 -115q139 0 262 78l18 -76q-128 -79 -287 -79q-139 0 -239 72.5t-148 201.5 q-54 -129 -163.5 -201.5t-249.5 -72.5q-195 0 -324 133.5t-129 351.5zM174 469q0 -189 104.5 -301.5t268.5 -112.5q160 0 266.5 117.5t106.5 296.5q0 189 -105 301.5t-268 112.5q-160 0 -266.5 -117.5t-106.5 -296.5zM1010 559h561q6 35 6 70q0 112 -65.5 182t-176.5 70 q-128 0 -214.5 -88.5t-110.5 -233.5z" />
<glyph unicode="&#x178;" horiz-adv-x="1038" d="M29 1280h96l397 -678l393 678h95l-447 -760v-520h-86v518zM262 1569q0 30 19.5 50.5t50.5 20.5q32 0 51.5 -20.5t19.5 -50.5q0 -31 -20 -53.5t-51 -22.5t-50.5 22.5t-19.5 53.5zM631 1569q0 30 21 50.5t53 20.5q30 0 49.5 -20.5t19.5 -50.5t-19.5 -53t-49.5 -23 q-31 0 -52.5 23t-21.5 53z" />
<glyph unicode="&#x2c6;" horiz-adv-x="819" d="M129 1055l229 362h103l229 -362h-67l-211 295h-4l-211 -295h-68z" />
<glyph unicode="&#x2dc;" horiz-adv-x="819" d="M96 1075q41 213 166 213q37 0 83 -23.5t82 -52t74.5 -52t61.5 -23.5q34 0 56.5 28t50.5 113h53q-41 -213 -166 -213q-37 0 -82.5 23.5t-80.5 52.5t-74 52.5t-64 23.5q-36 0 -57.5 -27.5t-51.5 -114.5h-51z" />
<glyph unicode="&#x2000;" horiz-adv-x="879" />
<glyph unicode="&#x2001;" horiz-adv-x="1759" />
<glyph unicode="&#x2002;" horiz-adv-x="879" />
<glyph unicode="&#x2003;" horiz-adv-x="1759" />
<glyph unicode="&#x2004;" horiz-adv-x="586" />
<glyph unicode="&#x2005;" horiz-adv-x="439" />
<glyph unicode="&#x2006;" horiz-adv-x="293" />
<glyph unicode="&#x2007;" horiz-adv-x="293" />
<glyph unicode="&#x2008;" horiz-adv-x="219" />
<glyph unicode="&#x2009;" horiz-adv-x="351" />
<glyph unicode="&#x200a;" horiz-adv-x="97" />
<glyph unicode="&#x2010;" horiz-adv-x="561" d="M74 459v78h420v-78h-420z" />
<glyph unicode="&#x2011;" horiz-adv-x="561" d="M74 459v78h420v-78h-420z" />
<glyph unicode="&#x2012;" horiz-adv-x="561" d="M74 459v78h420v-78h-420z" />
<glyph unicode="&#x2013;" horiz-adv-x="876" d="M66 459l6 78h735l6 -78h-747z" />
<glyph unicode="&#x2014;" horiz-adv-x="1839" d="M66 459l6 78h1697l7 -78h-1710z" />
<glyph unicode="&#x2018;" horiz-adv-x="313" d="M47 1020q0 78 56 161.5t149 143.5l39 -35q-83 -60 -117.5 -115t-34.5 -114q0 -39 26 -60.5t83 -35.5q0 -31 -24.5 -56.5t-59.5 -25.5q-49 0 -83 38t-34 99z" />
<glyph unicode="&#x2019;" horiz-adv-x="313" d="M23 922q82 60 116.5 115t34.5 114q0 40 -25.5 61t-82.5 35q0 31 24.5 56.5t59.5 25.5q49 0 82.5 -38t33.5 -99q0 -78 -56 -161.5t-149 -143.5z" />
<glyph unicode="&#x201a;" horiz-adv-x="313" d="M23 -268q82 60 116.5 115t34.5 114q0 40 -25.5 61t-82.5 35q0 31 24.5 56.5t59.5 25.5q49 0 82.5 -38t33.5 -99q0 -78 -56 -161.5t-149 -143.5z" />
<glyph unicode="&#x201c;" horiz-adv-x="681" d="M47 1020q0 78 56 161.5t149 143.5l39 -35q-83 -60 -117.5 -115t-34.5 -114q0 -39 26 -60.5t83 -35.5q0 -31 -24.5 -56.5t-59.5 -25.5q-49 0 -83 38t-34 99zM416 1020q0 78 56 161.5t149 143.5l38 -35q-82 -60 -116.5 -115t-34.5 -114q0 -40 25.5 -61t82.5 -35 q0 -31 -24.5 -56.5t-59.5 -25.5q-49 0 -82.5 38t-33.5 99z" />
<glyph unicode="&#x201d;" horiz-adv-x="681" d="M23 922q82 60 116.5 115t34.5 114q0 40 -25.5 61t-82.5 35q0 31 24.5 56.5t59.5 25.5q49 0 82.5 -38t33.5 -99q0 -78 -56 -161.5t-149 -143.5zM391 922q83 60 117.5 115t34.5 114q0 39 -26 60.5t-83 35.5q0 31 24.5 56.5t59.5 25.5q49 0 83 -38t34 -99q0 -78 -56 -161.5 t-149 -143.5z" />
<glyph unicode="&#x201e;" horiz-adv-x="681" d="M23 -268q82 60 116.5 115t34.5 114q0 40 -25.5 61t-82.5 35q0 31 24.5 56.5t59.5 25.5q49 0 82.5 -38t33.5 -99q0 -78 -56 -161.5t-149 -143.5zM391 -268q83 60 117.5 115t34.5 114q0 39 -26 60.5t-83 35.5q0 31 24.5 56.5t59.5 25.5q49 0 83 -38t34 -99 q0 -78 -56 -161.5t-149 -143.5z" />
<glyph unicode="&#x2022;" horiz-adv-x="931" d="M72 475q0 43 42.5 145.5t73.5 133.5t133.5 72.5t145.5 41.5t147 -41.5t131 -72.5q31 -27 73 -131.5t42 -147.5t-41.5 -145.5t-73.5 -134.5q-31 -31 -133.5 -73t-146.5 -42q-42 0 -145 43t-132 72q-30 35 -73 136t-43 144z" />
<glyph unicode="&#x2026;" horiz-adv-x="940" d="M84 57q0 30 20.5 52t51.5 22t52 -22t21 -52q0 -32 -20.5 -54.5t-52.5 -22.5q-31 0 -51.5 22.5t-20.5 54.5zM397 57q0 30 20.5 52t51.5 22q32 0 53 -22t21 -52q0 -31 -21 -54t-53 -23q-31 0 -51.5 22.5t-20.5 54.5zM711 57q0 30 20 52t51 22q32 0 53 -22t21 -52 q0 -31 -21 -54t-53 -23q-31 0 -51 22.5t-20 54.5z" />
<glyph unicode="&#x202f;" horiz-adv-x="351" />
<glyph unicode="&#x2039;" horiz-adv-x="641" d="M66 442v74l466 385l17 -72l-408 -348v-2l408 -350l-17 -72z" />
<glyph unicode="&#x203a;" horiz-adv-x="641" d="M92 129l408 350v2l-408 348l17 72l466 -385v-74l-466 -385z" />
<glyph unicode="&#x205f;" horiz-adv-x="439" />
<glyph unicode="&#x20ac;" horiz-adv-x="1036" d="M74 444l6 72h135q-4 78 -4 121q0 69 6 131h-137l-6 72h151q36 226 154 349.5t311 123.5q165 0 279 -62l-19 -75q-120 63 -260 63q-324 0 -383 -399h498l-6 -72h-500q-4 -78 -4 -123q0 -47 4 -129h438l6 -72h-436q59 -401 375 -401q149 0 270 57l13 -73q-123 -58 -287 -58 q-195 0 -308.5 122.5t-146.5 352.5h-149z" />
<glyph unicode="&#x2122;" horiz-adv-x="1775" d="M47 1214v66h649v-66h-288v-700h-70v700h-291zM809 514l47 766h107l241 -696h6l265 696h102l45 -766h-68l-38 678h-7l-262 -678h-88l-237 678h-7l-36 -678h-70z" />
<glyph unicode="&#x25fc;" horiz-adv-x="942" d="M0 0v942h942v-942h-942z" />
<glyph unicode="&#xfb01;" horiz-adv-x="942" d="M31 862l6 51l127 17l2 178q8 317 256 317q94 0 158 -36l-21 -76q-69 37 -139 37q-170 0 -170 -238v-184h440l96 30v-958h-84v854h-452v-854h-84v854z" />
<glyph unicode="&#xfb02;" horiz-adv-x="935" d="M31 862l6 51l127 17l2 178q8 317 256 317q94 0 158 -36l-21 -76q-69 37 -139 37q-170 0 -170 -238v-184h291l-6 -74h-285v-854h-84v854zM702 0v1380l84 27v-1407h-84z" />
<glyph unicode="&#xfb03;" horiz-adv-x="1517" d="M31 862l6 51l127 17l2 157q0 167 69.5 242.5t186.5 75.5q92 0 158 -37l-21 -76q-69 37 -139 37q-170 0 -170 -237v-164l489 2l2 178q8 317 256 317q94 0 158 -36l-20 -76q-69 37 -140 37q-170 0 -170 -238v-184h441l96 30v-958h-84v854h-453v-854h-84v854h-491v-854h-84 v854z" />
<glyph unicode="&#xfb04;" horiz-adv-x="1511" d="M31 862l6 51l127 17l2 157q8 318 256 318q92 0 158 -37l-21 -76q-69 37 -139 37q-170 0 -170 -237v-164l489 2l2 178q8 317 256 317q94 0 158 -36l-20 -76q-69 37 -140 37q-170 0 -170 -238v-184h291l-6 -74h-285v-854h-84v854h-491v-854h-84v854zM1278 0v1380l84 27 v-1407h-84z" />
</font>
</defs>
</svg>
