<?xml version="1.0" standalone="no"?>
<!DOCTYPE svg PUBLIC "-//W3C//DTD SVG 1.1//EN" "http://www.w3.org/Graphics/SVG/1.1/DTD/svg11.dtd" >
<svg>
<metadata>
Created by FontForge 20120731 at Fri Jan  8 19:41:16 2016
 By ,,,
Copyright (C) 1990, 2011 Hoefler &#38; Frere-Jones. http://www.typography.com
</metadata>
<defs>
<font id="IdealSans-Book" horiz-adv-x="374" >
  <font-face 
    font-family="Ideal Sans Book"
    font-weight="325"
    font-stretch="normal"
    units-per-em="1000"
    panose-1="0 0 0 0 0 0 0 0 0 0"
    ascent="800"
    descent="-200"
    x-height="465"
    cap-height="708"
    bbox="-165 -260 1195 1107"
    underline-thickness="50"
    underline-position="-50"
    unicode-range="U+0020-FB04"
  />
<missing-glyph horiz-adv-x="500" 
d="M0 -200v1000h500v-1000h-500zM71 750l179 -390l179 390h-358zM50 -76l172 376l-172 376v-752zM450 676l-172 -376l172 -376v752zM250 240l-179 -390h358z" />
    <glyph glyph-name="f_f" unicode="ff" horiz-adv-x="666" 
d="M326 715l7 -86q-21 8 -44 8q-87 0 -87 -122v-51h125q-4 -29 -4 -80h-121v-287q0 -64 4 -97h-102q7 60 7 163v221h-91l25 80h66v41q0 100 43 159t122 59q26 0 50 -8zM659 715l7 -86q-21 8 -44 8q-87 0 -87 -122v-51h125q-4 -29 -4 -80h-121v-287q0 -64 4 -97h-102
q7 60 7 163v221h-91l25 80h66v41q0 100 43 159t122 59q26 0 50 -8z" />
    <glyph glyph-name="fi" unicode="fi" horiz-adv-x="571" 
d="M326 715l7 -86q-21 8 -44 8q-87 0 -87 -122v-51h125q-4 -29 -4 -80h-121v-287q0 -64 4 -97h-102q7 60 7 163v221h-91l25 80h66v41q0 100 43 159t122 59q26 0 50 -8zM502 0h-103q7 60 7 164v126q0 110 -7 170q53 0 103 5q-4 -35 -4 -107v-261q0 -62 4 -97zM517 632
q0 -27 -17.5 -46t-44.5 -19q-26 0 -42.5 17.5t-16.5 41.5q0 27 17.5 46t44.5 19q25 0 42 -18t17 -41z" />
    <glyph glyph-name="fl" unicode="fl" horiz-adv-x="571" 
d="M326 715l7 -86q-21 8 -44 8q-87 0 -87 -122v-51h125q-4 -29 -4 -80h-121v-287q0 -64 4 -97h-102q7 60 7 163v221h-91l25 80h66v41q0 100 43 159t122 59q26 0 50 -8zM502 0h-103q7 60 7 164v381q0 105 -7 165q65 5 103 13q-4 -35 -4 -109v-517q0 -62 4 -97z" />
    <glyph glyph-name="f_f_i" unicode="ffi" horiz-adv-x="904" 
d="M326 715l7 -86q-21 8 -44 8q-87 0 -87 -122v-51h125q-4 -29 -4 -80h-121v-287q0 -64 4 -97h-102q7 60 7 163v221h-91l25 80h66v41q0 100 43 159t122 59q26 0 50 -8zM659 715l7 -86q-21 8 -44 8q-87 0 -87 -122v-51h125q-4 -29 -4 -80h-121v-287q0 -64 4 -97h-102
q7 60 7 163v221h-91l25 80h66v41q0 100 43 159t122 59q26 0 50 -8zM835 0h-103q7 60 7 164v126q0 110 -7 170q53 0 103 5q-4 -35 -4 -107v-261q0 -62 4 -97zM850 632q0 -27 -17.5 -46t-44.5 -19q-26 0 -42.5 17.5t-16.5 41.5q0 27 17.5 46t44.5 19q25 0 42 -18t17 -41z" />
    <glyph glyph-name="f_f_l" unicode="ffl" horiz-adv-x="904" 
d="M326 715l7 -86q-21 8 -44 8q-87 0 -87 -122v-51h125q-4 -29 -4 -80h-121v-287q0 -64 4 -97h-102q7 60 7 163v221h-91l25 80h66v41q0 100 43 159t122 59q26 0 50 -8zM659 715l7 -86q-21 8 -44 8q-87 0 -87 -122v-51h125q-4 -29 -4 -80h-121v-287q0 -64 4 -97h-102
q7 60 7 163v221h-91l25 80h66v41q0 100 43 159t122 59q26 0 50 -8zM835 0h-103q7 60 7 164v381q0 105 -7 165q65 5 103 13q-4 -35 -4 -109v-517q0 -62 4 -97z" />
    <glyph glyph-name="f_f_b" unicode="ffb" horiz-adv-x="1216" 
d="M326 715l7 -86q-21 8 -44 8q-87 0 -87 -122v-51h125q-4 -29 -4 -80h-121v-287q0 -64 4 -97h-102q7 60 7 163v221h-91l25 80h66v41q0 100 43 159t122 59q26 0 50 -8zM659 715l7 -86q-21 8 -44 8q-87 0 -87 -122v-51h125q-4 -29 -4 -80h-121v-287q0 -64 4 -97h-102
q7 60 7 163v221h-91l25 80h66v41q0 100 43 159t122 59q26 0 50 -8zM1177 247q0 -109 -72.5 -187t-178.5 -78q-64 0 -111 34l-66 -31l-17 6q7 80 7 174v381q0 105 -7 165q50 4 103 13q-4 -35 -4 -109v-197q64 56 145 56q88 0 144.5 -63t56.5 -164zM1085 236q0 73 -34.5 115
t-98.5 42q-33 0 -65.5 -15.5t-55.5 -41.5v-246q41 -27 103 -27q65 0 108 51.5t43 121.5z" />
    <glyph glyph-name="f_f_h" unicode="ffh" horiz-adv-x="1211" 
d="M326 715l7 -86q-21 8 -44 8q-87 0 -87 -122v-51h125q-4 -29 -4 -80h-121v-287q0 -64 4 -97h-102q7 60 7 163v221h-91l25 80h66v41q0 100 43 159t122 59q26 0 50 -8zM659 715l7 -86q-21 8 -44 8q-87 0 -87 -122v-51h125q-4 -29 -4 -80h-121v-287q0 -64 4 -97h-102
q7 60 7 163v221h-91l25 80h66v41q0 100 43 159t122 59q26 0 50 -8zM1144 0h-103q7 60 7 170v120q0 103 -80 103q-49 0 -93 -40t-44 -85v-171q0 -62 4 -97h-102q6 64 6 164v381q0 101 -6 165q65 6 102 13q-4 -35 -4 -109v-237q28 45 73 71t88 26q74 0 111 -43t37 -123v-205
q0 -51 4 -103z" />
    <glyph glyph-name="f_f_j" unicode="ffj" horiz-adv-x="904" 
d="M326 715l7 -86q-21 8 -44 8q-87 0 -87 -122v-51h125q-4 -29 -4 -80h-121v-287q0 -64 4 -97h-102q7 60 7 163v221h-91l25 80h66v41q0 100 43 159t122 59q26 0 50 -8zM659 715l7 -86q-21 8 -44 8q-87 0 -87 -122v-51h125q-4 -29 -4 -80h-121v-287q0 -64 4 -97h-102
q7 60 7 163v221h-91l25 80h66v41q0 100 43 159t122 59q26 0 50 -8zM835 465q-4 -35 -4 -107v-397q0 -90 -39 -132.5t-98 -42.5q-24 0 -45 7l-11 81q20 -3 34 -3q35 0 51 20t16 66l1 333q0 110 -7 170q52 0 102 5zM850 632q0 -27 -17.5 -46t-44.5 -19q-26 0 -42.5 17.5
t-16.5 41.5q0 27 17.5 46t44.5 19q25 0 42 -18t17 -41z" />
    <glyph glyph-name="f_f_k" unicode="ffk" horiz-adv-x="1136" 
d="M1040 -12l-209 240v-131q0 -64 4 -97h-103q7 60 7 163v382q0 105 -7 165q65 5 103 13q-4 -35 -4 -110v-355q14 17 85 101t89 108q73 0 117 4l-199 -219l43 -48q12 -13 78 -90t94 -106zM659 715l7 -86q-21 8 -44 8q-87 0 -87 -122v-51h125q-4 -29 -4 -80h-121v-287
q0 -64 4 -97h-102q7 60 7 163v221h-91l25 80h66v41q0 100 43 159t122 59q26 0 50 -8zM326 715l7 -86q-21 8 -44 8q-87 0 -87 -122v-51h125q-4 -29 -4 -80h-121v-287q0 -64 4 -97h-102q7 60 7 163v221h-91l25 80h66v41q0 100 43 159t122 59q26 0 50 -8z" />
    <glyph glyph-name="f_b" unicode="fb" horiz-adv-x="883" 
d="M326 715l7 -86q-21 8 -44 8q-87 0 -87 -122v-51h125q-4 -29 -4 -80h-121v-287q0 -64 4 -97h-102q7 60 7 163v221h-91l25 80h66v41q0 100 43 159t122 59q26 0 50 -8zM844 247q0 -109 -72.5 -187t-178.5 -78q-64 0 -111 34l-66 -31l-17 6q7 80 7 174v381q0 105 -7 165
q50 4 103 13q-4 -35 -4 -109v-197q64 56 145 56q88 0 144.5 -63t56.5 -164zM752 236q0 73 -34.5 115t-98.5 42q-33 0 -65.5 -15.5t-55.5 -41.5v-246q40 -27 103 -27q65 0 108 51.5t43 121.5z" />
    <glyph glyph-name="f_h" unicode="fh" horiz-adv-x="878" 
d="M326 715l7 -86q-21 8 -44 8q-87 0 -87 -122v-51h125q-4 -29 -4 -80h-121v-287q0 -64 4 -97h-102q7 60 7 163v221h-91l25 80h66v41q0 100 43 159t122 59q26 0 50 -8zM811 0h-103q7 60 7 170v120q0 103 -80 103q-49 0 -93 -40t-44 -85v-171q0 -62 4 -97h-102q6 64 6 164
v381q0 101 -6 165q65 6 102 13q-4 -35 -4 -109v-237q28 45 73 71t88 26q74 0 111 -43t37 -123v-205q0 -51 4 -103z" />
    <glyph glyph-name="f_j" unicode="fj" horiz-adv-x="571" 
d="M326 715l7 -86q-21 8 -44 8q-87 0 -87 -122v-51h125q-4 -29 -4 -80h-121v-287q0 -64 4 -97h-102q7 60 7 163v221h-91l25 80h66v41q0 100 43 159t122 59q26 0 50 -8zM502 465q-4 -35 -4 -107v-397q0 -90 -39 -132.5t-98 -42.5q-24 0 -45 7l-11 81q19 -3 34 -3q35 0 51 20
t16 66l1 333q0 110 -7 170q52 0 102 5zM517 632q0 -27 -17.5 -46t-44.5 -19q-26 0 -42.5 17.5t-16.5 41.5q0 27 17.5 46t44.5 19q25 0 42 -18t17 -41z" />
    <glyph glyph-name="f_k" unicode="fk" horiz-adv-x="803" 
d="M707 -12l-209 240v-131q0 -64 4 -97h-103q7 60 7 163v382q0 105 -7 165q65 5 103 13q-4 -35 -4 -110v-355q14 17 85 101t89 108q73 0 117 4l-199 -219l43 -48q12 -13 78 -90t94 -106zM326 715l7 -86q-21 8 -44 8q-87 0 -87 -122v-51h125q-4 -29 -4 -80h-121v-287
q0 -64 4 -97h-102q7 60 7 163v221h-91l25 80h66v41q0 100 43 159t122 59q26 0 50 -8z" />
    <glyph glyph-name=".notdef" horiz-adv-x="500" 
d="M0 -200v1000h500v-1000h-500zM71 750l179 -390l179 390h-358zM50 -76l172 376l-172 376v-752zM450 676l-172 -376l172 -376v752zM250 240l-179 -390h358z" />
    <glyph glyph-name=".null" horiz-adv-x="0" 
 />
    <glyph glyph-name="nonmarkingreturn" horiz-adv-x="333" 
 />
    <glyph glyph-name="space" unicode=" " horiz-adv-x="215" 
 />
    <glyph glyph-name="exclam" unicode="!" horiz-adv-x="252" 
d="M187 717q-6 -62 -8 -103l-15 -308q-4 -84 -4 -94l-66 -5q0 15 -1 35.5t-2.5 57.5t-2.5 67l-7 201q-1 61 -10 140q82 5 116 9zM187 49q0 -28 -18 -47.5t-45 -19.5q-26 0 -42.5 18.5t-16.5 42.5q0 28 17.5 47.5t44.5 19.5q26 0 43 -18t17 -43z" />
    <glyph glyph-name="quotedbl" unicode="&#x22;" horiz-adv-x="357" 
d="M267 466l-51 -12q11 133 9 258q91 13 104 14q-26 -145 -62 -260zM93 460l-51 -12q11 133 9 258q87 12 105 14q-25 -138 -63 -260z" />
    <glyph glyph-name="numbersign" unicode="#" horiz-adv-x="695" 
d="M523 499l-2 -14q110 0 160 2q-10 -38 -15 -78q-4 0 -59.5 0.5t-95.5 0.5l-21 -166q111 0 161 2q-10 -38 -15 -78q-5 0 -60.5 0.5t-94.5 0.5l-1 -9q-15 -129 -16 -160h-89q15 62 28 169l-157 1l-1 -10q-15 -129 -16 -160h-89q9 39 29 170q-113 0 -155 -2q9 50 13 78
q48 -2 151 -2l22 168q-90 0 -156 -3q9 50 13 78q48 -2 153 -2q12 96 14 173q45 0 89 5q-13 -61 -25 -164l-2 -14h158q13 106 15 173q45 0 89 5q-7 -32 -25 -164zM277 411l-22 -167h158l22 166z" />
    <glyph glyph-name="dollar" unicode="$" horiz-adv-x="529" 
d="M278 -124h-78q7 51 12 110q-93 10 -177 56l7 98q83 -60 178 -75q1 9 3.5 43.5t6.5 84.5t9 111q-32 12 -52.5 21.5t-46.5 25.5t-41.5 33t-26 42.5t-10.5 56.5q0 74 55.5 127t147.5 59l4 100q47 0 74 2q-2 -11 -9 -104q74 -10 136 -47l-26 -83q-51 35 -117 49l-16 -216
q40 -15 65 -27.5t53.5 -34t42.5 -51t14 -67.5q0 -84 -53.5 -139t-149.5 -65zM397 183q0 33 -24 54.5t-69 40.5l-17 -215q52 7 81 40t29 80zM150 492q0 -34 24.5 -56t71.5 -42q4 57 15 197q-52 -4 -81.5 -31.5t-29.5 -67.5z" />
    <glyph glyph-name="percent" unicode="%" horiz-adv-x="733" 
d="M339 547q0 -88 -57 -165.5t-130 -77.5q-54 0 -84 35.5t-30 90.5q0 88 57.5 165.5t130.5 77.5q53 0 83 -35t30 -91zM695 229q0 -88 -57 -165.5t-130 -77.5q-54 0 -84 35.5t-30 90.5q0 88 57.5 165.5t130.5 77.5q53 0 83 -35t30 -91zM131 -31l-64 31q57 68 129 162l282 368
q100 130 120 160l63 -35q-32 -38 -91 -116l-362 -471q-14 -18 -41 -52.5t-36 -46.5zM265 548q0 58 -42 58q-43 0 -76.5 -57.5t-33.5 -118.5q0 -58 42 -58t76 58t34 118zM621 230q0 58 -42 58q-43 0 -76.5 -57.5t-33.5 -118.5q0 -58 42 -58t76 58t34 118z" />
    <glyph glyph-name="ampersand" unicode="&#x26;" horiz-adv-x="703" 
d="M264 -18q-92 0 -154.5 52t-62.5 140q0 129 167 200q-46 74 -46 130q0 75 51.5 121.5t125.5 46.5q75 0 117 -44.5t42 -101.5q0 -55 -34.5 -99t-121.5 -85q56 -73 144 -149q54 56 110 131l66 -54q-57 -70 -114 -129q73 -61 122 -96l-61 -70q-51 48 -123 107
q-123 -100 -228 -100zM272 67q79 0 159 69q-113 94 -171 173q-116 -51 -116 -131q0 -48 33.5 -79.5t94.5 -31.5zM261 506q0 -47 41 -103q111 49 111 119q0 33 -20 53.5t-52 20.5q-33 0 -56.5 -24.5t-23.5 -65.5z" />
    <glyph glyph-name="quotesingle" unicode="'" horiz-adv-x="183" 
d="M93 460l-51 -12q11 133 9 258q87 12 105 14q-25 -138 -63 -260z" />
    <glyph glyph-name="parenleft" unicode="(" horiz-adv-x="417" 
d="M378 -228q-134 76 -216 198t-82 274q0 154 81.5 279.5t216.5 201.5l35 -61q-107 -66 -176.5 -170.5t-69.5 -245.5t70 -246.5t177 -171.5z" />
    <glyph glyph-name="parenright" unicode=")" horiz-adv-x="417" 
d="M39 -228l-35 61q107 66 176.5 170.5t69.5 245.5t-70 245.5t-178 171.5l37 59q134 -76 216 -198t82 -274q0 -154 -81.5 -279.5t-216.5 -201.5z" />
    <glyph glyph-name="asterisk" unicode="*" 
d="M354 612q2 -50 5 -70q-57 2 -129 -1q24 -59 57 -119q-26 -8 -66 -25q-23 89 -38 129q-22 -16 -101 -91q-23 32 -45 54q105 68 113 74q-45 30 -111 66q25 36 39 59q79 -67 100 -83q9 30 29 128q52 -14 70 -18q-30 -64 -48 -122q24 1 125 19z" />
    <glyph glyph-name="plus" unicode="+" horiz-adv-x="570" 
d="M495 315q-4 -25 -6 -76l-148 2h-19v-30q0 -117 4 -154h-85q5 47 7 184h-27l-146 -2q3 27 3 76q50 -2 170 -4q-2 135 -7 181q20 0 85 5q-4 -39 -4 -157v-29q137 2 173 4z" />
    <glyph glyph-name="comma" unicode="," horiz-adv-x="233" 
d="M45 -192l-29 47q50 30 73 57.5t23 60.5q0 41 -53 67l-16 8q22 65 75 65q32 0 55 -26t23 -69q0 -109 -151 -210z" />
    <glyph glyph-name="hyphen" unicode="-" horiz-adv-x="446" 
d="M381 315q-5 -33 -5 -76q-78 2 -113 2h-90q-42 0 -108 -2q3 29 3 76q74 -3 156 -3q84 0 157 3z" />
    <glyph glyph-name="period" unicode="." horiz-adv-x="232" 
d="M177 49q0 -28 -18 -47.5t-45 -19.5q-26 0 -42.5 18.5t-16.5 42.5q0 28 17.5 47.5t44.5 19.5q26 0 43 -18t17 -43z" />
    <glyph glyph-name="slash" unicode="/" horiz-adv-x="340" 
d="M340 737q-38 -122 -48 -158l-188 -677q-7 -24 -38 -140l-84 -8q23 77 65 229l148 530q43 151 58 220q33 -1 87 4z" />
    <glyph glyph-name="zero" unicode="0" horiz-adv-x="593" 
d="M542 261q0 -120 -69.5 -200t-183.5 -80q-108 0 -173 74t-65 180q0 119 69.5 199t183.5 80q108 0 173 -73.5t65 -179.5zM448 245q0 86 -40 136.5t-108 50.5q-72 0 -113.5 -54t-41.5 -128q0 -86 40.5 -136.5t108.5 -50.5q71 0 112.5 54t41.5 128z" />
    <glyph glyph-name="one" unicode="1" horiz-adv-x="362" 
d="M255 0h-100q5 42 5 173v234l-108 -27l-15 82q104 26 150 40l55 15l13 -10q-3 -27 -3 -109v-294q0 -72 3 -104z" />
    <glyph glyph-name="two" unicode="2" horiz-adv-x="493" 
d="M447 85q-5 -37 -8 -89q-81 4 -190 4t-192 -4l-15 65q171 130 228.5 188t57.5 105q0 37 -25 58t-68 21q-69 0 -139 -58l-28 79q79 61 173 61q76 0 128 -42t52 -111q0 -87 -100 -176q-51 -45 -131 -105q164 0 257 4z" />
    <glyph glyph-name="three" unicode="3" horiz-adv-x="480" 
d="M420 30q0 -83 -69 -136.5t-175 -53.5q-67 0 -129 17l-14 83q75 -18 129 -18q73 0 118.5 27.5t45.5 82.5q0 49 -52.5 79.5t-146.5 24.5l-13 67q108 36 154 71t46 79q0 34 -26 57t-75 23q-34 0 -72.5 -14t-65.5 -36l-31 76q85 56 173 56q85 0 137.5 -43t52.5 -108
q0 -62 -38 -102t-113 -71q72 -10 118 -51t46 -110z" />
    <glyph glyph-name="four" unicode="4" horiz-adv-x="538" 
d="M318 -157q5 43 5 163v36h-52q-153 0 -236 -4l-18 63l252 323l72 95l74 -7q-3 -40 -3 -109v-287q57 0 105 2q-7 -41 -8 -80l-97 3v-83q0 -84 3 -115h-97zM127 116h196v256z" />
    <glyph glyph-name="five" unicode="5" horiz-adv-x="487" 
d="M55 -152l-14 83q38 -8 81 -8q96 0 157.5 35.5t61.5 97.5q0 50 -36.5 77t-97.5 27q-51 0 -118 -14l-24 15q4 45 6 115l4 119q2 74 0 99l14 13q99 -3 172 -3q60 0 167 3q-6 -22 -12 -90q-100 2 -155 2h-99l-6 -181q35 5 61 5q107 0 162.5 -48.5t55.5 -130.5
q0 -104 -85 -164t-213 -60q-50 0 -82 8z" />
    <glyph glyph-name="six" unicode="6" horiz-adv-x="553" 
d="M470 596q-260 -44 -311 -241q67 60 152 60q88 0 140 -59.5t52 -142.5q0 -99 -63 -165t-163 -66q-103 0 -164 72.5t-61 191.5q0 74 24 142.5t70.5 128.5t125.5 103t181 58zM282 338q-71 0 -135 -53q-1 -12 -1 -36q0 -91 37 -138.5t102 -47.5q57 0 90.5 40.5t33.5 101.5
q0 62 -34 97.5t-93 35.5z" />
    <glyph glyph-name="seven" unicode="7" horiz-adv-x="496" 
d="M443 507l22 -41q-9 -14 -59 -117l-186 -390q-48 -100 -57 -130l-84 44q53 92 85 163l181 383h-129q-120 0 -181 -1q7 84 7 89q110 -3 188 -3q103 0 213 3z" />
    <glyph glyph-name="eight" unicode="8" horiz-adv-x="532" 
d="M50 162q0 61 36 106.5t96 68.5q-48 24 -78 64t-30 94q0 76 58 129.5t144 53.5q82 0 137.5 -51.5t55.5 -122.5q0 -97 -110 -158q123 -65 123 -164q0 -88 -60.5 -144t-157.5 -56q-93 0 -153.5 51.5t-60.5 128.5zM389 172q0 43 -30 74.5t-94 59.5q-122 -50 -122 -138
q0 -49 38 -78.5t91 -29.5q54 0 85.5 32t31.5 80zM166 495q0 -71 112 -116q48 18 73.5 50.5t25.5 69.5q0 46 -29.5 74t-75.5 28q-48 0 -77 -30t-29 -76z" />
    <glyph glyph-name="nine" unicode="9" horiz-adv-x="555" 
d="M91 -96q126 33 198.5 87t99.5 136q-73 -44 -144 -44q-82 0 -138 58.5t-56 145.5q0 97 63 162.5t163 65.5q102 0 162 -69t60 -189q0 -164 -88 -269t-281 -159zM273 161q71 0 130 36q3 25 3 54q0 182 -132 182q-57 0 -92.5 -40.5t-35.5 -98.5q0 -60 34.5 -96.5t92.5 -36.5z
" />
    <glyph glyph-name="colon" unicode=":" horiz-adv-x="232" 
d="M177 49q0 -28 -18 -47.5t-45 -19.5q-26 0 -42.5 18.5t-16.5 42.5q0 28 17.5 47.5t44.5 19.5q26 0 43 -18t17 -43zM177 351q0 -28 -18 -47.5t-45 -19.5q-26 0 -42.5 18.5t-16.5 42.5q0 28 17.5 47.5t44.5 19.5q26 0 43 -18t17 -43z" />
    <glyph glyph-name="semicolon" unicode=";" horiz-adv-x="233" 
d="M45 -192l-29 47q50 30 73 57.5t23 60.5q0 40 -53 67l-16 8q22 65 75 65q32 0 55 -26t23 -69q0 -109 -151 -210zM179 351q0 -28 -18 -47.5t-45 -19.5q-26 0 -42.5 18.5t-16.5 42.5q0 28 17.5 47.5t44.5 19.5q26 0 43 -18t17 -43z" />
    <glyph glyph-name="less" unicode="&#x3c;" horiz-adv-x="570" 
d="M404 34q-63 50 -282 215l-2 44q150 115 283 225l43 -64q-78 -57 -137 -103l-97 -77l102 -79q71 -56 134 -97z" />
    <glyph glyph-name="equal" unicode="=" horiz-adv-x="570" 
d="M486 402q-4 -25 -6 -77l-139 2h-118l-138 -2q3 27 3 77q118 -4 198 -4q82 0 200 4zM486 227q-4 -25 -6 -77l-139 2h-118l-138 -2q3 27 3 77q118 -4 198 -4q82 0 200 4z" />
    <glyph glyph-name="greater" unicode="&#x3e;" horiz-adv-x="570" 
d="M166 518q63 -50 282 -215l2 -44q-150 -115 -283 -225l-43 64q78 57 137 103l96 77l-101 79q-71 56 -134 97z" />
    <glyph glyph-name="question" unicode="?" horiz-adv-x="453" 
d="M421 562q0 -42 -25.5 -74t-62 -50.5t-73 -34t-62 -34t-25.5 -42.5q0 -53 70 -53q39 0 73 14l18 -87q-43 -13 -90 -13q-76 0 -121 36.5t-45 98.5q0 42 25.5 73t62 48.5t73.5 33t62.5 36t25.5 46.5q0 35 -27 54t-76 19q-97 0 -169 -56l-5 96q29 20 79.5 33.5t93.5 13.5
q90 0 144 -43t54 -115zM261 51q0 -28 -18.5 -48.5t-47.5 -20.5q-27 0 -44.5 19t-17.5 44q0 29 18 49t47 20q27 0 45 -19t18 -44z" />
    <glyph glyph-name="at" unicode="@" horiz-adv-x="869" 
d="M750 328q0 49 -15.5 93.5t-46.5 82.5t-86.5 60.5t-128.5 22.5q-141 0 -241.5 -106.5t-100.5 -251.5t84 -225.5t218 -80.5q63 0 131.5 18.5t116.5 48.5l20 -47q-126 -75 -280 -75q-153 0 -251.5 101.5t-98.5 243.5q0 96 36 178t95 136t134 84.5t153 30.5
q150 0 235.5 -88.5t85.5 -209.5q0 -115 -68 -201t-169 -86q-52 0 -68 38t1 90q-28 -56 -73 -92t-80 -36q-47 0 -71 35.5t-24 93.5q0 94 64.5 178.5t148.5 84.5q26 0 48.5 -7t30.5 -16l55 28l7 -7l-42 -268q-7 -30 -2 -50t28 -20q57 0 105.5 61.5t48.5 157.5zM527 367
q-21 20 -62 20q-51 0 -91.5 -57t-40.5 -125q0 -46 11.5 -65.5t36.5 -19.5q37 0 81.5 54.5t55.5 131.5z" />
    <glyph glyph-name="A" unicode="A" horiz-adv-x="701" 
d="M6 0l237 512q59 127 87 201l26 7l240 -516q60 -131 98 -204l-108 -8l-94 209h-296l-4 -10q-26 -61 -78 -191h-108zM344 533l-112 -252h224z" />
    <glyph glyph-name="B" unicode="B" horiz-adv-x="622" 
d="M311 0h-212q7 67 7 241v221q0 174 -7 241q16 0 92.5 2.5t100.5 2.5q123 0 185.5 -55t62.5 -126q0 -52 -30 -90.5t-79 -58.5q69 -22 105 -67t36 -106q0 -86 -69.5 -145.5t-191.5 -59.5zM203 90q50 -5 101 -5q79 0 123 30.5t44 92.5q0 55 -46.5 87t-139.5 32q-58 0 -83 -3
v-180q0 -34 1 -54zM203 408q44 -2 74 -2q78 0 120.5 29.5t42.5 81.5q0 51 -40 78.5t-115 27.5q-22 0 -82 -3q-1 -17 -1 -59v-97q0 -42 1 -56z" />
    <glyph glyph-name="C" unicode="C" horiz-adv-x="679" 
d="M640 171l-7 -109q-103 -80 -229 -80q-151 0 -250.5 103.5t-99.5 247.5q0 163 105 275t264 112q120 0 208 -63l-28 -90q-82 64 -186 64q-114 0 -188 -79t-74 -198q0 -133 72 -208.5t183 -75.5q123 0 230 101z" />
    <glyph glyph-name="D" unicode="D" horiz-adv-x="729" 
d="M674 373q0 -164 -100.5 -268.5t-262.5 -104.5h-212q7 67 7 241v221q0 174 -7 241q11 0 75.5 2.5t119.5 2.5q179 0 279.5 -96t100.5 -239zM573 360q0 121 -73.5 192t-207.5 71q-47 0 -87 -3q-1 -18 -1 -62v-412q0 -36 1 -56q50 -5 90 -5q142 0 210 77t68 198z" />
    <glyph glyph-name="E" unicode="E" horiz-adv-x="545" 
d="M515 84q-5 -38 -7 -88q-75 5 -205 5q-131 0 -204 -5q7 67 7 245v221q0 180 -7 247q97 -5 197 -5q99 0 199 5q-6 -37 -8 -87q-118 2 -191 2q-62 0 -91 -1q-1 -19 -1 -61v-151l244 2q-3 -36 -3 -86l-241 2v-185q0 -43 1 -62q15 0 45.5 -0.5t45.5 -0.5q117 0 219 3z" />
    <glyph glyph-name="F" unicode="F" horiz-adv-x="526" 
d="M494 709q-6 -40 -7 -87q-118 2 -191 2q-62 0 -91 -1q-1 -19 -1 -61v-160l237 1q-3 -36 -3 -85l-234 2v-176q0 -116 3 -144h-108q7 67 7 241v221q0 180 -7 247q97 -5 197 -5t198 5z" />
    <glyph glyph-name="G" unicode="G" horiz-adv-x="737" 
d="M665 56q-112 -74 -249 -74q-153 0 -257.5 104.5t-104.5 255.5q0 159 109.5 268.5t271.5 109.5q56 0 118 -18t104 -45l-28 -90q-36 29 -93.5 46.5t-110.5 17.5q-120 0 -195 -79t-75 -202q0 -129 78 -204.5t194 -75.5q81 0 142 32v125q0 42 -2 60q-30 1 -53 1
q-51 0 -136 -3q3 53 0 90q91 -3 136 -3q79 0 158 4q-7 -55 -7 -242v-78z" />
    <glyph glyph-name="H" unicode="H" horiz-adv-x="777" 
d="M674 0h-108q7 67 7 241v84h-369v-181q0 -102 3 -144h-108q7 67 7 241v221q0 174 -7 241q68 0 108 5q-3 -43 -3 -148v-153h369v55q0 174 -7 241q68 0 108 5q-3 -44 -3 -148v-416q0 -102 3 -144z" />
    <glyph glyph-name="I" unicode="I" horiz-adv-x="318" 
d="M211 0h-108q7 67 7 241v221q0 174 -7 241q68 0 108 5q-3 -43 -3 -148v-416q0 -102 3 -144z" />
    <glyph glyph-name="J" unicode="J" horiz-adv-x="426" 
d="M232 462q0 174 -7 241q68 0 108 5q-3 -44 -3 -148v-363q0 -112 -43 -163.5t-143 -51.5q-68 0 -127 27l6 92q64 -32 120 -32q89 0 89 110v283z" />
    <glyph glyph-name="K" unicode="K" horiz-adv-x="648" 
d="M523 -8l-319 357v-205q0 -102 3 -144h-108q7 67 7 241v221q0 174 -7 241q68 0 108 5q-3 -43 -3 -148v-187l129 141q51 56 171 191h127l-321 -338l147 -162q68 -77 186 -205z" />
    <glyph glyph-name="L" unicode="L" horiz-adv-x="532" 
d="M515 86q-5 -38 -7 -90q-75 5 -205 5t-204 -5q7 67 7 245v221q0 174 -7 241q68 0 108 5q-3 -43 -3 -148v-414q0 -42 2 -62q14 0 44.5 -0.5t45.5 -0.5q117 0 219 3z" />
    <glyph glyph-name="M" unicode="M" horiz-adv-x="881" 
d="M56 0q18 79 40 241l31 222q20 145 28 250l26 7q22 -53 68 -149l191 -412l191 412q52 113 67 149h24q2 -23 32 -256l31 -223q19 -137 41 -241l-103 -8q-6 91 -17 152l-40 307q-204 -431 -216 -461l-25 -7q-8 18 -51 112.5t-96 210.5t-66 144l-41 -306q-14 -107 -15 -144
h-100z" />
    <glyph glyph-name="N" unicode="N" horiz-adv-x="785" 
d="M90 0q9 76 12 241l4 240q2 155 -4 232l26 7l462 -535v277q0 177 -8 241q68 0 111 5q-5 -37 -8 -148l-7 -422q-1 -27 -0.5 -78t2.5 -70l-26 -7l-458 527v-366q0 -107 4 -144h-110z" />
    <glyph glyph-name="O" unicode="O" horiz-adv-x="811" 
d="M404 65q110 0 181 84t71 202q0 130 -70 208t-179 78q-110 0 -181 -84t-71 -202q0 -130 70 -208t179 -78zM396 -18q-150 0 -246 103t-96 248q0 164 101.5 275.5t259.5 111.5q150 0 246 -103t96 -248q0 -164 -101.5 -275.5t-259.5 -111.5z" />
    <glyph glyph-name="P" unicode="P" horiz-adv-x="573" 
d="M203 264v-120q0 -102 3 -144h-108q7 67 7 241v221q0 174 -7 241q14 0 85.5 2.5t110.5 2.5q122 0 189 -59.5t67 -147.5q0 -106 -72.5 -172.5t-219.5 -66.5q-19 0 -55 2zM449 486q0 137 -171 137q-32 0 -75 -3v-275q27 -3 56 -3q89 0 139.5 38t50.5 106z" />
    <glyph glyph-name="Q" unicode="Q" horiz-adv-x="815" 
d="M843 -58l-64 -80l-395 121q-145 4 -237.5 106t-92.5 244q0 164 101.5 275.5t259.5 111.5q150 0 246 -103t96 -248q0 -119 -55.5 -213.5t-150.5 -139.5l124 -35q88 -25 168 -39zM404 65q110 0 181 84t71 202q0 130 -70 208t-179 78q-110 0 -181 -84t-71 -202
q0 -130 70 -208t179 -78z" />
    <glyph glyph-name="R" unicode="R" horiz-adv-x="633" 
d="M611 6l-116 -13l-181 284h-111v-133q0 -102 3 -144h-108q7 67 7 241v221q0 174 -7 241q21 0 95.5 2.5t88.5 2.5q126 2 198.5 -57.5t70.5 -146.5q-4 -140 -148 -204l103 -151q80 -112 105 -143zM203 359h105q65 0 103.5 38t38.5 94q0 132 -158 132q-48 0 -89 -3v-261z" />
    <glyph glyph-name="S" unicode="S" horiz-adv-x="528" 
d="M478 197q0 -93 -63.5 -154t-169.5 -61q-48 0 -102.5 16.5t-94.5 42.5l6 104q33 -30 88.5 -52.5t108.5 -22.5q59 0 94 29.5t35 84.5q0 38 -31.5 69t-76 55.5t-89 50.5t-76 66.5t-31.5 91.5q0 86 62.5 144.5t158.5 58.5q93 0 163 -52l-32 -86q-26 21 -64 35.5t-71 14.5
q-53 0 -86 -28.5t-33 -74.5q0 -35 31.5 -63.5t76 -51.5t89 -49.5t76 -69.5t31.5 -98z" />
    <glyph glyph-name="T" unicode="T" horiz-adv-x="642" 
d="M611 709q-6 -37 -8 -89q-154 2 -234 2q-1 -22 -1 -65v-413q0 -102 3 -144h-108q7 67 7 241v217q0 108 -2 164q-85 0 -237 -2q4 33 4 89q150 -5 284 -5q139 0 292 5z" />
    <glyph glyph-name="U" unicode="U" horiz-adv-x="756" 
d="M666 708q-5 -36 -5 -148v-268q0 -85 -18.5 -137t-58.5 -92q-81 -81 -221 -81q-119 0 -193.5 70t-74.5 188v222q0 174 -7 241q68 0 109 5q-4 -39 -4 -148v-288q0 -203 189 -203q85 0 133 49t48 133v211q0 177 -8 241q69 0 111 5z" />
    <glyph glyph-name="V" unicode="V" horiz-adv-x="659" 
d="M6 701l108 8l221 -529l135 331q42 105 73 191h110l-223 -512q-57 -127 -81 -201l-26 -7l-224 515q-44 104 -93 204z" />
    <glyph glyph-name="W" unicode="W" horiz-adv-x="990" 
d="M984 702l-194 -512q-60 -161 -73 -201l-24 -7l-195 519l-123 -316q-8 -21 -35.5 -89.5t-44.5 -113.5h-24l-187 515q-47 131 -78 204l106 8l178 -516l125 327l71 192l25 7l193 -524l110 316q38 115 62 191h108z" />
    <glyph glyph-name="X" unicode="X" horiz-adv-x="709" 
d="M156 0h-119l259 351l-105 148q-14 20 -68 95.5t-79 109.5l114 8l195 -287l59 89q19 29 65 94.5t67 96.5h118l-253 -342l112 -158q145 -202 147 -205l-114 -8l-201 296l-65 -96q-23 -35 -71.5 -105t-60.5 -87z" />
    <glyph glyph-name="Y" unicode="Y" horiz-adv-x="624" 
d="M6 704l110 8l199 -321l60 93q9 14 136 221h114l-262 -396v-165q0 -102 3 -144h-108q7 67 7 241v63l-106 164q-69 113 -153 236z" />
    <glyph glyph-name="Z" unicode="Z" horiz-adv-x="634" 
d="M591 709l19 -18l-430 -609q19 0 66.5 -0.5t67.5 -0.5q174 0 274 3q-6 -36 -8 -88q-71 5 -258 5q-192 0 -278 -5l-20 19l430 608q-43 1 -128 1q-107 0 -257 -2q4 33 4 87q148 -5 254 -5q159 0 264 5z" />
    <glyph glyph-name="bracketleft" unicode="[" horiz-adv-x="390" 
d="M384 -150q-7 -38 -8 -78q-43 4 -119 4q-91 0 -142 -4l-12 7q6 59 6 200v537q0 136 -6 195l13 14q63 -5 137 -5q67 0 126 4q-3 -28 -5 -78q-88 2 -121 2q-41 0 -62 -1v-670q0 -96 4 -128q10 0 30 -0.5t32 -0.5q39 0 127 2z" />
    <glyph glyph-name="backslash" unicode="\" horiz-adv-x="319" 
d="M254 -246q-20 82 -39 148l-191 677q-28 99 -45 154q51 0 86 4q12 -60 58 -224l149 -530q46 -166 63 -221z" />
    <glyph glyph-name="bracketright" unicode="]" horiz-adv-x="390" 
d="M6 646q7 38 8 78q43 -4 119 -4q91 0 142 4l12 -7q-6 -59 -6 -200v-537q0 -136 6 -195l-13 -14q-63 5 -137 5q-67 0 -126 -4q3 28 5 78q88 -2 121 -2q41 0 62 1v667q0 99 -4 131q-10 0 -30 0.5t-32 0.5q-39 0 -127 -2z" />
    <glyph glyph-name="asciicircum" unicode="^" horiz-adv-x="578" 
d="M342 543l-57 71l-58 -75q-77 -104 -88 -120l-65 50q110 139 190 247l40 4q64 -84 200 -251l-68 -48q-42 57 -94 122z" />
    <glyph glyph-name="underscore" unicode="_" horiz-adv-x="677" 
d="M647 74q-5 -33 -5 -76q-116 2 -199 2h-210q-87 0 -201 -2q3 29 3 76q102 -3 303 -3q207 0 309 3z" />
    <glyph glyph-name="grave" unicode="`" horiz-adv-x="310" 
d="M40 681l113 9l91 -149l-59 -5z" />
    <glyph glyph-name="a" unicode="a" horiz-adv-x="485" 
d="M180 -14q-66 0 -105.5 37t-39.5 99q0 71 63 113t180 42q13 0 39 -2l1 15q2 52 -21.5 77.5t-75.5 25.5q-68 0 -127 -44l-21 80q78 45 163 45q87 0 130.5 -48t41.5 -130l-6 -198q-1 -40 29 -40q16 0 40 8l-9 -64q-34 -14 -60 -14q-30 0 -52 20.5t-26 57.5q-21 -36 -59 -58
t-85 -22zM200 60q48 0 80 31.5t34 79.5l2 45q-28 2 -41 2q-79 0 -115 -25t-36 -66q0 -67 76 -67z" />
    <glyph glyph-name="b" unicode="b" horiz-adv-x="550" 
d="M511 247q0 -109 -72.5 -187t-178.5 -78q-64 0 -111 34l-66 -31l-17 6q7 80 7 174v381q0 105 -7 165q50 4 103 13q-4 -35 -4 -109v-197q64 56 145 56q88 0 144.5 -63t56.5 -164zM419 236q0 73 -34.5 115t-98.5 42q-33 0 -65.5 -15.5t-55.5 -41.5v-246q41 -27 103 -27
q65 0 108 51.5t43 121.5z" />
    <glyph glyph-name="c" unicode="c" horiz-adv-x="478" 
d="M436 429l-26 -81q-56 44 -129 44q-65 0 -107.5 -46t-42.5 -114q0 -79 46 -124t111 -45q43 0 76 13t70 46l-4 -95q-40 -25 -73 -35t-80 -10q-101 0 -169 67.5t-68 166.5q0 109 69.5 183.5t175.5 74.5q87 0 151 -45z" />
    <glyph glyph-name="d" unicode="d" horiz-adv-x="550" 
d="M278 474q64 0 107 -33l-1 104q0 113 -6 165q65 5 103 13q-4 -35 -4 -109v-448q0 -102 7 -166h-85l-7 50q-23 -30 -62 -49t-79 -19q-96 0 -154 65.5t-58 163.5q0 111 68.5 187t170.5 76zM280 394q-68 0 -108.5 -49.5t-40.5 -122.5q0 -77 39.5 -118.5t97.5 -41.5
q37 0 69 19t48 51v220q-40 42 -105 42z" />
    <glyph glyph-name="e" unicode="e" horiz-adv-x="500" 
d="M465 247l-60 -36l-273 -8q11 -140 144 -140q84 0 167 68l-4 -94q-82 -55 -172 -55q-110 0 -168.5 67t-58.5 167q0 110 64.5 184t168.5 74q97 0 144.5 -63t47.5 -164zM134 272l245 7q-8 59 -34 88.5t-77 29.5q-54 0 -89 -34.5t-45 -90.5z" />
    <glyph glyph-name="f" unicode="f" horiz-adv-x="333" 
d="M326 715l7 -86q-21 8 -44 8q-87 0 -87 -122v-51h125q-4 -29 -4 -80h-121v-287q0 -64 4 -97h-102q7 60 7 163v221h-91l25 80h66v41q0 100 43 159t122 59q26 0 50 -8z" />
    <glyph glyph-name="g" unicode="g" horiz-adv-x="476" 
d="M430 312q0 -79 -56 -129.5t-141 -50.5q-29 0 -58 8q-33 -20 -33 -39t21.5 -26.5t80.5 -7.5h20q203 0 203 -119q0 -71 -72 -121.5t-180 -50.5q-93 0 -145.5 33.5t-52.5 85.5q0 73 99 119q-55 25 -55 67q0 46 63 84q-68 47 -68 130q0 75 55.5 127t138.5 52q39 0 73 -13
q28 98 138 84l-5 -81q-63 7 -82 -34q56 -52 56 -118zM247 -9q-35 0 -60 3q-84 -36 -84 -85q0 -26 30.5 -44t86.5 -18q72 0 116.5 25.5t44.5 62.5q0 56 -120 56h-14zM344 302q0 46 -26.5 73.5t-71.5 27.5t-74 -29.5t-29 -69.5q0 -48 26.5 -74.5t71.5 -26.5q46 0 74.5 28.5
t28.5 70.5z" />
    <glyph glyph-name="h" unicode="h" horiz-adv-x="545" 
d="M478 0h-103q7 60 7 170v120q0 103 -80 103q-49 0 -93 -40t-44 -85v-171q0 -62 4 -97h-102q6 64 6 164v381q0 101 -6 165q65 6 102 13q-4 -35 -4 -109v-237q28 45 73 71t88 26q74 0 111 -43t37 -123v-205q0 -51 4 -103z" />
    <glyph glyph-name="i" unicode="i" horiz-adv-x="238" 
d="M169 0h-103q7 60 7 164v126q0 110 -7 170q53 0 103 5q-4 -35 -4 -107v-261q0 -62 4 -97zM184 632q0 -27 -17.5 -46t-44.5 -19q-26 0 -42.5 17.5t-16.5 41.5q0 27 17.5 46t44.5 19q25 0 42 -18t17 -41z" />
    <glyph glyph-name="j" unicode="j" horiz-adv-x="238" 
d="M169 465q-4 -35 -4 -107v-397q0 -90 -39 -132.5t-98 -42.5q-24 0 -45 7l-11 81q19 -3 34 -3q35 0 51 20t16 66l1 333q0 110 -7 170q52 0 102 5zM184 632q0 -27 -17.5 -46t-44.5 -19q-26 0 -42.5 17.5t-16.5 41.5q0 27 17.5 46t44.5 19q25 0 42 -18t17 -41z" />
    <glyph glyph-name="k" unicode="k" horiz-adv-x="470" 
d="M374 -12l-209 240v-131q0 -64 4 -97h-103q7 60 7 163v382q0 105 -7 165q65 5 103 13q-4 -35 -4 -110v-355q14 17 85 101t89 108q73 0 117 4l-199 -219l43 -48q12 -13 78 -90t94 -106z" />
    <glyph glyph-name="l" unicode="l" horiz-adv-x="238" 
d="M169 0h-103q7 60 7 164v381q0 105 -7 165q65 5 103 13q-4 -35 -4 -109v-517q0 -62 4 -97z" />
    <glyph glyph-name="m" unicode="m" horiz-adv-x="817" 
d="M750 0h-103q7 60 7 170v120q0 103 -77 103q-50 0 -86.5 -33t-36.5 -79v-178q0 -68 4 -103h-102q6 64 6 170v120q0 49 -16 76t-58 27q-49 0 -86 -33.5t-37 -78.5v-178q0 -68 4 -103h-103q7 60 7 170v120q0 110 -7 170q40 0 90 5l7 -76q63 85 149 85q105 0 133 -89
q24 40 65 64.5t90 24.5q146 0 146 -166v-205q0 -68 4 -103z" />
    <glyph glyph-name="n" unicode="n" horiz-adv-x="545" 
d="M478 0h-103q7 60 7 170v120q0 103 -80 103q-49 0 -93 -40t-44 -85v-165q0 -68 4 -103h-102q6 64 6 170v120q0 106 -6 170q40 0 90 5l7 -89q28 45 73 71.5t89 26.5q74 0 111 -43t37 -123v-205q0 -51 4 -103z" />
    <glyph glyph-name="o" unicode="o" horiz-adv-x="538" 
d="M498 240q0 -110 -65.5 -184t-170.5 -74q-99 0 -160.5 68.5t-61.5 165.5q0 110 65 184t170 74q100 0 161.5 -68.5t61.5 -165.5zM407 227q0 78 -38.5 122t-97.5 44q-63 0 -101.5 -46.5t-38.5 -115.5q0 -82 36.5 -125t99.5 -43q64 0 102 47t38 117z" />
    <glyph glyph-name="p" unicode="p" horiz-adv-x="550" 
d="M511 246q0 -116 -71 -190t-157 -74q-73 0 -118 38v-132q0 -60 4 -93l-103 -9q7 60 7 169v335q0 110 -7 170q50 0 90 4l4 -62q60 72 148 72q93 0 148 -65t55 -163zM419 237q0 79 -38 118t-97 39q-34 0 -66 -19t-53 -50v-217q40 -47 116 -47q61 0 99.5 52t38.5 124z" />
    <glyph glyph-name="q" unicode="q" horiz-adv-x="550" 
d="M385 122v239q-43 33 -102 33q-69 0 -110.5 -50t-41.5 -124q0 -72 37.5 -114.5t98.5 -42.5q34 0 67.5 16.5t50.5 42.5zM468 472l16 -6q-7 -78 -7 -174v-403q0 -59 4 -94l-102 -9q6 53 6 170v82q-51 -56 -132 -56q-94 0 -154 65t-60 165q0 110 70.5 186t174.5 76
q64 0 118 -35z" />
    <glyph glyph-name="r" unicode="r" horiz-adv-x="340" 
d="M326 474l-12 -106q-53 10 -101 -16.5t-48 -76.5v-172q0 -68 4 -103h-102q6 52 6 170v140q0 85 -10 144q43 1 91 13l10 -91q28 46 66.5 68.5t95.5 29.5z" />
    <glyph glyph-name="s" unicode="s" horiz-adv-x="415" 
d="M220 474q83 0 144 -38l-31 -80q-50 37 -113 37q-78 0 -78 -56q0 -20 24.5 -35t59 -27t69.5 -27.5t59.5 -44t24.5 -68.5q0 -69 -52.5 -111t-128.5 -42q-39 0 -85 11.5t-73 29.5l5 95q30 -24 73 -39.5t82 -15.5q40 0 64.5 15t24.5 42q0 25 -24.5 42.5t-59 29.5t-69 27
t-59 44t-24.5 70q0 59 47 100t120 41z" />
    <glyph glyph-name="t" unicode="t" horiz-adv-x="349" 
d="M318 92l-4 -80q-32 -26 -91 -26q-123 0 -123 136v262h-83l24 80h60l9 98l82 22v-120h123q-3 -33 -3 -80h-120v-256q0 -34 12 -47t39 -13q38 0 75 24z" />
    <glyph glyph-name="u" unicode="u" horiz-adv-x="545" 
d="M479 0h-85l-11 72q-26 -43 -70 -66.5t-80 -23.5q-162 0 -162 179v129q0 106 -6 170q52 0 102 5q-4 -35 -4 -107v-179q0 -59 21.5 -87.5t72.5 -28.5q39 0 81 34.5t42 76.5v116q0 110 -7 170q54 0 104 5q-5 -43 -5 -107v-192q0 -102 7 -166z" />
    <glyph glyph-name="v" unicode="v" horiz-adv-x="482" 
d="M210 -11q-11 35 -68 169l-56 128q-63 142 -77 169l100 13l135 -337l58 155q59 161 64 176q63 0 102 4l-195 -470z" />
    <glyph glyph-name="w" unicode="w" horiz-adv-x="706" 
d="M182 -11q-13 51 -55 169l-48 128q-47 126 -67 169l101 13l103 -317l45 130q38 108 60 181l67 6l113 -315l41 129q31 96 53 180q58 0 98 4l-164 -470l-59 -7q-24 83 -63 191l-53 142l-112 -326z" />
    <glyph glyph-name="x" unicode="x" horiz-adv-x="462" 
d="M130 468l108 -172q13 21 38 58.5t43 65.5l27 42q70 0 106 4l-163 -230l26 -39q52 -83 131 -194l-98 -14l-115 183q-19 -26 -44.5 -62t-48 -68.5t-28.5 -41.5h-104l173 230l-18 26q-57 91 -132 199z" />
    <glyph glyph-name="y" unicode="y" horiz-adv-x="468" 
d="M77 -212l115 262q-3 7 -18.5 47t-24.5 61l-58 128q-53 121 -79 169l103 13l124 -313l54 132q32 79 65 175q63 0 102 4l-224 -529q-4 -11 -16 -40t-23 -56t-18 -49q-62 0 -102 -4z" />
    <glyph glyph-name="z" unicode="z" horiz-adv-x="459" 
d="M422 466l13 -23l-267 -366q190 0 258 2q-7 -38 -8 -84q-98 5 -191 5q-86 0 -186 -5l-13 23l266 368q-89 0 -241 -2q4 52 4 82q96 -3 164 -3q103 0 201 3z" />
    <glyph glyph-name="braceleft" unicode="{" horiz-adv-x="407" 
d="M72 223v50q80 18 109.5 33.5t29.5 32.5q0 15 -18.5 45.5t-36.5 68.5t-18 72q0 149 202 197l18 -58q-137 -41 -137 -118q0 -29 33.5 -91t33.5 -92q0 -74 -105 -115q61 -21 83 -49.5t22 -65.5q0 -30 -33.5 -91.5t-33.5 -90.5q0 -77 137 -118l-18 -58q-202 48 -202 197
q0 34 18 72t36.5 68t18.5 45q0 17 -29.5 32.5t-109.5 33.5z" />
    <glyph glyph-name="bar" unicode="|" horiz-adv-x="316" 
d="M199 -240h-85q6 58 6 241v491q0 183 -6 241q42 0 85 5q-3 -29 -3 -148v-686q0 -116 3 -144z" />
    <glyph glyph-name="braceright" unicode="}" horiz-adv-x="407" 
d="M335 274v-50q-80 -18 -109.5 -33.5t-29.5 -32.5q0 -15 18 -45.5t36.5 -68.5t18.5 -72q0 -149 -202 -197l-18 58q137 41 137 118q0 29 -33.5 91t-33.5 92q0 74 105 115q-61 21 -83 49.5t-22 65.5q0 30 33.5 91.5t33.5 90.5q0 77 -137 118l18 58q202 -48 202 -197
q0 -34 -18.5 -72t-36.5 -68t-18 -45q0 -17 29.5 -32.5t109.5 -33.5z" />
    <glyph glyph-name="asciitilde" unicode="~" horiz-adv-x="510" 
d="M60 228q23 125 111 125q32 0 91 -26.5t74 -26.5q13 0 25 15t17 46l72 -10q-12 -65 -42 -97.5t-71 -32.5q-32 0 -91 27t-74 27q-32 0 -40 -57z" />
    <glyph glyph-name="uni00A0" unicode="&#xa0;" horiz-adv-x="215" 
 />
    <glyph glyph-name="exclamdown" unicode="&#xa1;" horiz-adv-x="252" 
d="M67 -15q6 62 8 103l15 308q4 84 4 94l66 5q0 -15 1 -35.5t2.5 -57.5t2.5 -67l7 -201q1 -61 10 -140q-82 -5 -116 -9zM67 653q0 28 18 47.5t45 19.5q26 0 42.5 -18.5t16.5 -42.5q0 -28 -17.5 -47.5t-44.5 -19.5q-26 0 -43 18t-17 43z" />
    <glyph glyph-name="cent" unicode="&#xa2;" horiz-adv-x="485" 
d="M309 360l-15 -222l-5 -80q82 2 152 63l-4 -92q-72 -44 -153 -47q-3 -65 -2 -91h-73l8 97q-80 17 -128.5 80t-48.5 148q0 98 57.5 169.5t148.5 85.5q3 62 3 91q30 0 75 5q-5 -44 -8 -95q68 -9 126 -48l-26 -75q-48 37 -105 46q-2 -24 -2 -35zM129 232q0 -130 93 -164
q1 18 5 75l14 219q0 10 2 32q-53 -13 -83.5 -57t-30.5 -105z" />
    <glyph glyph-name="sterling" unicode="&#xa3;" horiz-adv-x="507" 
d="M43 292q3 30 3 82h82q-23 50 -23 97q0 84 60 142.5t153 58.5q76 0 137 -32l-21 -81q-58 31 -119 31q-51 0 -85 -29t-34 -81q0 -41 32 -105q100 1 183 7q-2 -17 -5 -83q-63 1 -143 0q10 -30 10 -57q0 -89 -77 -160q116 0 286 7q-6 -47 -7 -93q-65 4 -191 4q-161 0 -238 -6
l-13 66q77 38 115 77t38 93q0 28 -17 64z" />
    <glyph glyph-name="yen" unicode="&#xa5;" horiz-adv-x="631" 
d="M263 0q3 24 6 140q-153 0 -214 -2q3 30 3 79q87 -3 211 -3l1 62l-18 28q-139 0 -195 -1q3 30 3 76q60 -3 145 -3l-36 57q-89 144 -142 223l101 7l187 -303l56 90q26 42 125 207h110l-185 -281q90 0 153 3q-2 -11 -7 -76q-56 1 -193 1l-16 -24v-66q125 0 214 3
q-2 -9 -7 -79q-61 2 -207 2v-5q0 -99 4 -135h-99z" />
    <glyph glyph-name="section" unicode="&#xa7;" horiz-adv-x="467" 
d="M49 257q0 90 91 132q-72 47 -72 122q0 63 51.5 112t135.5 49q88 0 151 -43l-25 -80q-65 43 -131 43q-40 0 -65.5 -20.5t-25.5 -53.5q0 -29 27.5 -52t66.5 -40.5t78 -38t66.5 -54t27.5 -77.5q0 -84 -82 -131q72 -46 72 -118q0 -71 -54 -119.5t-152 -48.5q-86 0 -159 44
l5 93q77 -56 162 -56q48 0 77.5 22t29.5 58q0 28 -28.5 50t-69 39t-80.5 37t-68.5 53t-28.5 78zM141 270q0 -30 29.5 -52t101.5 -53q29 11 47 33t18 48q0 17 -9 31.5t-31.5 28.5t-36 21t-47.5 22q-72 -26 -72 -79z" />
    <glyph glyph-name="dieresis" unicode="&#xa8;" horiz-adv-x="369" 
d="M153 622q0 -27 -17 -46t-43 -19q-25 0 -41 17.5t-16 41.5q0 27 17 46t43 19q25 0 41 -18t16 -41zM333 622q0 -27 -17 -46t-43 -19q-25 0 -41 17.5t-16 41.5q0 27 17 46t43 19q25 0 41 -18t16 -41z" />
    <glyph glyph-name="copyright" unicode="&#xa9;" horiz-adv-x="868" 
d="M803 351q0 -153 -108 -261t-261 -108t-261 108t-108 261t108 261t261 108t261 -108t108 -261zM747 351q0 131 -91 224t-222 93t-222 -93t-91 -224t91 -224t222 -93t222 93t91 224zM562 198q-52 -37 -119 -37q-82 0 -135.5 53.5t-53.5 130.5q0 87 56.5 145.5t143.5 58.5
q63 0 110 -32l-15 -64q-42 32 -94 32q-55 0 -90 -36.5t-35 -92.5q0 -62 34.5 -97t87.5 -35q59 0 114 48z" />
    <glyph glyph-name="ordfeminine" unicode="&#xaa;" horiz-adv-x="359" 
d="M163 655q-47 0 -90 -30l-14 63q59 32 119 32q62 0 93 -31t29 -89l-4 -129q-1 -25 20 -25q10 0 22 5l-4 -48q-24 -13 -49 -13q-49 0 -58 50q-13 -23 -39.5 -36.5t-54.5 -13.5q-45 0 -71.5 24.5t-26.5 65.5q0 48 40 77t116 29q9 0 33 -2l1 14q3 57 -62 57zM157 447
q26 0 45 18t20 46l1 27q-20 2 -28 2q-41 0 -62 -13.5t-21 -36.5q0 -19 11.5 -31t33.5 -12z" />
    <glyph glyph-name="guillemotleft" unicode="&#xab;" horiz-adv-x="591" 
d="M242 455q38 1 83 9q-82 -127 -161 -233q50 -80 150 -224l-53 -24q-133 138 -211 234l3 15q97 110 189 223zM463 455q38 1 83 9q-82 -127 -161 -233q11 -17 39 -62.5t54.5 -87t56.5 -84.5l-53 -24q-83 86 -211 244l3 15q97 110 189 223z" />
    <glyph glyph-name="registered" unicode="&#xae;" horiz-adv-x="466" 
d="M425 527q0 -79 -55.5 -135t-137.5 -56q-80 0 -135.5 56t-55.5 135q0 81 55 137t136 56q82 0 137.5 -56t55.5 -137zM391 527q0 70 -45 116.5t-114 46.5q-68 0 -112.5 -47t-44.5 -116q0 -68 44.5 -114.5t112.5 -46.5q69 0 114 46.5t45 114.5zM169 625q3 0 26.5 1t30.5 1
q40 0 61 -17t21 -42q-1 -21 -10 -34t-31 -22l37 -48l18 -22l-43 -3l-49 65h-22v-34q0 -22 1 -29h-40q1 11 1 63v59q0 51 -1 62zM208 535h20q42 0 42 31q0 30 -40 30q-4 0 -11.5 -0.5t-10.5 -0.5v-60z" />
    <glyph glyph-name="macron" unicode="&#xaf;" horiz-adv-x="389" 
d="M346 655q-5 -33 -5 -76q-80 2 -113 2h-76q-41 0 -109 -2q4 36 4 76q74 -3 149 -3q76 0 150 3z" />
    <glyph glyph-name="degree" unicode="&#xb0;" horiz-adv-x="381" 
d="M342 574q0 -70 -43.5 -116.5t-112.5 -46.5q-66 0 -106.5 43.5t-40.5 104.5q0 69 43 115t112 46q66 0 107 -42.5t41 -103.5zM270 564q0 44 -21 68.5t-58 24.5t-58.5 -25.5t-21.5 -62.5q0 -44 21 -69t58 -25t58.5 25.5t21.5 63.5z" />
    <glyph glyph-name="plusminus" unicode="&#xb1;" horiz-adv-x="570" 
d="M485 395q-4 -25 -6 -76l-148 2h-9v-10q0 -117 4 -154h-85q5 51 7 164h-17l-146 -2q3 27 3 76q57 -2 160 -4q-2 111 -7 161q20 0 85 5q-4 -39 -4 -157v-9q119 2 163 4zM485 73q-5 -33 -5 -75q-116 2 -166 2h-61q-54 0 -168 -2q3 29 3 75q102 -3 198 -3q97 0 199 3z" />
    <glyph glyph-name="two.sup" unicode="&#xb2;" 
d="M79 730l-27 61q61 52 136 52q60 0 97.5 -30t37.5 -82q0 -40 -22 -74.5t-65 -76.5q-37 -37 -90 -79q29 0 188 3l-4 -70q-90 2 -138 2q-55 0 -145 -2l-8 54q122 103 148 129q61 61 61 102q0 26 -17.5 40.5t-48.5 14.5q-52 0 -103 -44z" />
    <glyph glyph-name="three.sup" unicode="&#xb3;" 
d="M55 442l-10 68q63 -17 109 -17t73.5 14t27.5 37q0 60 -140 63l-8 48q142 26 142 79q0 18 -20 30t-56 12q-60 0 -107 -29l-20 60q67 35 137 35q63 0 102 -27t39 -68q0 -70 -109 -104q117 -22 117 -98q0 -53 -47 -85.5t-122 -32.5q-59 0 -108 15z" />
    <glyph glyph-name="acute" unicode="&#xb4;" horiz-adv-x="310" 
d="M161 681l131 9l-161 -149l-63 -5z" />
    <glyph glyph-name="paragraph" unicode="&#xb6;" horiz-adv-x="635" 
d="M540 0h-85q8 60 8 224v206q0 166 -8 226q44 0 85 4q-5 -45 -5 -137v-389q0 -91 5 -134zM283 660q23 0 57.5 -1t50.5 -1q-4 -36 -4 -135v-389q0 -99 4 -134h-85q8 72 8 224v19q-139 0 -206 59t-67 158q0 82 64.5 141t177.5 59z" />
    <glyph glyph-name="periodcentered" unicode="&#xb7;" horiz-adv-x="233" 
d="M182 351q0 -28 -18 -47.5t-45 -19.5q-26 0 -42.5 18.5t-16.5 42.5q0 28 17.5 47.5t44.5 19.5q26 0 43 -18t17 -43z" />
    <glyph glyph-name="cedilla" unicode="&#xb8;" horiz-adv-x="300" 
d="M163 2l-20 -71q103 -29 103 -93q0 -34 -30 -59t-81 -25q-38 0 -85 14l13 58q42 -15 79 -15q38 0 38 25q0 28 -91 50l-5 4q10 29 33 125z" />
    <glyph glyph-name="one.sup" unicode="&#xb9;" horiz-adv-x="280" 
d="M126 757l-88 -25l-14 63q19 5 40.5 11.5t42.5 13t30 9.5l46 14l18 -6q-2 -16 -2 -69v-266q0 -53 2 -66h-79q4 29 4 111v210z" />
    <glyph glyph-name="ordmasculine" unicode="&#xba;" horiz-adv-x="389" 
d="M355 562q0 -74 -46 -123.5t-119 -49.5q-69 0 -112.5 46t-43.5 112q0 74 46 123.5t119 49.5q69 0 112.5 -46t43.5 -112zM275 553q0 50 -22.5 76.5t-56.5 26.5q-36 0 -59 -28t-23 -71q0 -50 21.5 -77t57.5 -27t59 28.5t23 71.5z" />
    <glyph glyph-name="guillemotright" unicode="&#xbb;" horiz-adv-x="591" 
d="M349 -8q-40 -1 -82 -9q77 123 160 233q-60 97 -150 224l54 24q136 -143 210 -234l-3 -15q-81 -93 -189 -223zM128 -8q-38 -1 -83 -9q82 127 161 233q-50 80 -150 224l53 24q133 -138 211 -234l-3 -15q-97 -110 -189 -223z" />
    <glyph glyph-name="onequarter" unicode="&#xbc;" horiz-adv-x="840" 
d="M662 0q3 18 3 86v13h-34q-123 0 -163 -2l-11 54l166 208q6 7 16 19t17.5 21.5t12.5 14.5l65 -5q-2 -17 -2 -68v-183q48 0 62 1q-5 -38 -5 -62q-14 1 -57 1v-32q0 -52 2 -66h-72zM206 -15l-59 25q51 71 112 162l242 373q92 140 103 160q10 -5 30.5 -15t28.5 -14
q-16 -22 -79 -116l-312 -476q-10 -17 -66 -99zM154 613l-88 -25l-14 63q19 5 40.5 11.5t42.5 13t30 9.5l46 14l18 -6q-2 -16 -2 -69v-266q0 -53 2 -66h-79q4 29 4 111v210zM668 325l-135 -170h134z" />
    <glyph glyph-name="onehalf" unicode="&#xbd;" horiz-adv-x="840" 
d="M524 294l-27 61q61 52 136 52q60 0 97.5 -30t37.5 -82q0 -40 -22 -74.5t-65 -76.5q-37 -37 -90 -79q29 0 188 3l-4 -70q-90 2 -138 2q-55 0 -145 -2l-8 54q122 103 148 129q61 61 61 102q0 26 -17.5 40.5t-48.5 14.5q-52 0 -103 -44zM175 -15l-59 25q51 71 112 162
l242 373q92 140 103 160q10 -5 30.5 -15t28.5 -14q-16 -22 -79 -116l-312 -476q-10 -17 -66 -99zM154 613l-88 -25l-14 63q19 5 40.5 11.5t42.5 13t30 9.5l46 14l18 -6q-2 -16 -2 -69v-266q0 -53 2 -66h-79q4 29 4 111v210z" />
    <glyph glyph-name="threequarters" unicode="&#xbe;" horiz-adv-x="934" 
d="M756 0q3 18 3 86v13h-34q-123 0 -163 -2l-11 54l166 208q6 7 16 19t17.5 21.5t12.5 14.5l65 -5q-2 -17 -2 -68v-183q48 0 62 1q-5 -38 -5 -62q-14 1 -57 1v-32q0 -52 2 -66h-72zM87 298l-10 68q63 -17 109 -17t73.5 14t27.5 37q0 60 -140 63l-8 48q142 26 142 79
q0 18 -20 30t-56 12q-60 0 -107 -29l-20 60q67 35 137 35q63 0 102 -27t39 -68q0 -70 -109 -104q117 -22 117 -98q0 -53 -47 -85.5t-122 -32.5q-59 0 -108 15zM294 -15l-59 25q51 71 112 162l242 373q92 140 103 160q10 -5 30.5 -15t28.5 -14q-16 -22 -79 -116l-312 -476
q-10 -17 -66 -99zM762 325l-135 -170h134z" />
    <glyph glyph-name="questiondown" unicode="&#xbf;" horiz-adv-x="453" 
d="M32 140q0 42 25.5 74t62 50.5t73 34t62 34t25.5 42.5q0 53 -70 53q-39 0 -73 -14l-18 87q43 13 90 13q76 0 121 -36.5t45 -98.5q0 -42 -25.5 -73t-62.5 -48.5t-73.5 -33t-62 -36t-25.5 -46.5q0 -35 27 -54t76 -19q97 0 169 56l5 -96q-29 -20 -79.5 -33.5t-93.5 -13.5
q-90 0 -144 43t-54 115zM192 651q0 28 18.5 48.5t47.5 20.5q27 0 44.5 -19t17.5 -44q0 -29 -18 -49t-47 -20q-27 0 -45 19t-18 44z" />
    <glyph glyph-name="Agrave" unicode="&#xc0;" horiz-adv-x="701" 
d="M6 0l237 512q59 127 87 201l26 7l240 -516q60 -131 98 -204l-108 -8l-94 209h-296l-4 -10q-26 -61 -78 -191h-108zM344 533l-112 -252h224zM188 921l113 9l91 -149l-59 -5z" />
    <glyph glyph-name="Aacute" unicode="&#xc1;" horiz-adv-x="701" 
d="M6 0l237 512q59 127 87 201l26 7l240 -516q60 -131 98 -204l-108 -8l-94 209h-296l-4 -10q-26 -61 -78 -191h-108zM344 533l-112 -252h224zM389 921l131 9l-161 -149l-63 -5z" />
    <glyph glyph-name="Acircumflex" unicode="&#xc2;" horiz-adv-x="701" 
d="M6 0l237 512q59 127 87 201l26 7l240 -516q60 -131 98 -204l-108 -8l-94 209h-296l-4 -10q-26 -61 -78 -191h-108zM344 533l-112 -252h224zM296 931h115l96 -152l-68 -6l-87 97l-82 -89h-80z" />
    <glyph glyph-name="Atilde" unicode="&#xc3;" horiz-adv-x="701" 
d="M6 0l237 512q59 127 87 201l26 7l240 -516q60 -131 98 -204l-108 -8l-94 209h-296l-4 -10q-26 -61 -78 -191h-108zM175 790q12 77 39 109t68 32q32 0 80.5 -36.5t63.5 -36.5q26 0 38 77l69 -10q-22 -146 -108 -146q-32 0 -81 36.5t-64 36.5q-14 0 -21.5 -15t-13.5 -57z
M344 533l-112 -252h224z" />
    <glyph glyph-name="Adieresis" unicode="&#xc4;" horiz-adv-x="701" 
d="M6 0l237 512q59 127 87 201l26 7l240 -516q60 -131 98 -204l-108 -8l-94 209h-296l-4 -10q-26 -61 -78 -191h-108zM344 533l-112 -252h224zM317 862q0 -27 -17 -46t-43 -19q-25 0 -41 17.5t-16 41.5q0 27 17 46t43 19q25 0 41 -18t16 -41zM497 862q0 -27 -17 -46t-43 -19
q-25 0 -41 17.5t-16 41.5q0 27 17 46t43 19q25 0 41 -18t16 -41z" />
    <glyph glyph-name="Aring" unicode="&#xc5;" horiz-adv-x="701" 
d="M6 0l237 512q43 93 71 161q-39 9 -62 37.5t-23 65.5q0 50 33.5 82.5t87.5 32.5q52 0 84 -30t32 -74q0 -41 -24 -72t-65 -41l219 -470q60 -131 98 -204l-108 -8l-94 209h-296l-4 -10q-26 -61 -78 -191h-108zM344 533l-112 -252h224zM402 780q0 27 -14 43t-40 16t-40.5 -16
t-14.5 -40q0 -26 15 -43t39 -17q26 0 40.5 16.5t14.5 40.5z" />
    <glyph glyph-name="AE" unicode="&#xc6;" horiz-adv-x="888" 
d="M-15 0l313 512q89 144 117 197q98 -5 224 -5q99 0 199 5q-6 -37 -8 -89q-118 2 -191 2q-60 0 -89 -1q-2 -18 -2 -59v-151l243 2q-3 -38 -3 -86l-240 2v-185q0 -42 2 -60q14 0 44 -0.5t45 -0.5q117 0 219 3q-5 -40 -7 -90q-75 5 -205 5q-131 0 -205 -5q5 47 7 203h-240
l-4 -7q-36 -60 -108 -192h-111zM448 468q0 78 -1 124l-190 -311h191v187z" />
    <glyph glyph-name="Ccedilla" unicode="&#xc7;" horiz-adv-x="679" 
d="M640 171l-7 -109q-103 -80 -229 -80h-6l-14 -51q103 -29 103 -93q0 -34 -30 -59t-81 -25q-38 0 -85 14l13 58q42 -15 79 -15q38 0 38 25q0 28 -91 50l-5 4q7 22 26 96q-131 19 -214 117.5t-83 229.5q0 163 105 275t264 112q120 0 208 -63l-28 -90q-82 64 -186 64
q-114 0 -188 -79t-74 -198q0 -133 72 -208.5t183 -75.5q123 0 230 101z" />
    <glyph glyph-name="Egrave" unicode="&#xc8;" horiz-adv-x="545" 
d="M515 84q-5 -38 -7 -88q-75 5 -205 5q-131 0 -204 -5q7 67 7 245v221q0 180 -7 247q97 -5 197 -5q99 0 199 5q-6 -37 -8 -87q-118 2 -191 2q-62 0 -91 -1q-1 -19 -1 -61v-151l244 2q-3 -36 -3 -86l-241 2v-185q0 -43 1 -62q15 0 45.5 -0.5t45.5 -0.5q117 0 219 3zM147 911
l113 9l91 -149l-59 -5z" />
    <glyph glyph-name="Eacute" unicode="&#xc9;" horiz-adv-x="545" 
d="M515 84q-5 -38 -7 -88q-75 5 -205 5q-131 0 -204 -5q7 67 7 245v221q0 180 -7 247q97 -5 197 -5q99 0 199 5q-6 -37 -8 -87q-118 2 -191 2q-62 0 -91 -1q-1 -19 -1 -61v-151l244 2q-3 -36 -3 -86l-241 2v-185q0 -43 1 -62q15 0 45.5 -0.5t45.5 -0.5q117 0 219 3zM348 911
l131 9l-161 -149l-63 -5z" />
    <glyph glyph-name="Ecircumflex" unicode="&#xca;" horiz-adv-x="545" 
d="M515 84q-5 -38 -7 -88q-75 5 -205 5q-131 0 -204 -5q7 67 7 245v221q0 180 -7 247q97 -5 197 -5q99 0 199 5q-6 -37 -8 -87q-118 2 -191 2q-62 0 -91 -1q-1 -19 -1 -61v-151l244 2q-3 -36 -3 -86l-241 2v-185q0 -43 1 -62q15 0 45.5 -0.5t45.5 -0.5q117 0 219 3zM255 921
h115l96 -152l-68 -6l-87 97l-82 -89h-80z" />
    <glyph glyph-name="Edieresis" unicode="&#xcb;" horiz-adv-x="545" 
d="M515 84q-5 -38 -7 -88q-75 5 -205 5q-131 0 -204 -5q7 67 7 245v221q0 180 -7 247q97 -5 197 -5q99 0 199 5q-6 -37 -8 -87q-118 2 -191 2q-62 0 -91 -1q-1 -19 -1 -61v-151l244 2q-3 -36 -3 -86l-241 2v-185q0 -43 1 -62q15 0 45.5 -0.5t45.5 -0.5q117 0 219 3zM276 852
q0 -27 -17 -46t-43 -19q-25 0 -41 17.5t-16 41.5q0 27 17 46t43 19q25 0 41 -18t16 -41zM456 852q0 -27 -17 -46t-43 -19q-25 0 -41 17.5t-16 41.5q0 27 17 46t43 19q25 0 41 -18t16 -41z" />
    <glyph glyph-name="Igrave" unicode="&#xcc;" horiz-adv-x="318" 
d="M211 0h-108q7 67 7 241v221q0 174 -7 241q68 0 108 5q-3 -43 -3 -148v-416q0 -102 3 -144zM-3 911l113 9l91 -149l-59 -5z" />
    <glyph glyph-name="Iacute" unicode="&#xcd;" horiz-adv-x="318" 
d="M211 0h-108q7 67 7 241v221q0 174 -7 241q68 0 108 5q-3 -43 -3 -148v-416q0 -102 3 -144zM198 911l131 9l-161 -149l-63 -5z" />
    <glyph glyph-name="Icircumflex" unicode="&#xce;" horiz-adv-x="318" 
d="M211 0h-108q7 67 7 241v221q0 174 -7 241q68 0 108 5q-3 -43 -3 -148v-416q0 -102 3 -144zM105 921h115l96 -152l-68 -6l-87 97l-82 -89h-80z" />
    <glyph glyph-name="Idieresis" unicode="&#xcf;" horiz-adv-x="318" 
d="M211 0h-108q7 67 7 241v221q0 174 -7 241q68 0 108 5q-3 -43 -3 -148v-416q0 -102 3 -144zM126 852q0 -27 -17 -46t-43 -19q-25 0 -41 17.5t-16 41.5q0 27 17 46t43 19q25 0 41 -18t16 -41zM306 852q0 -27 -17 -46t-43 -19q-25 0 -41 17.5t-16 41.5q0 27 17 46t43 19
q25 0 41 -18t16 -41z" />
    <glyph glyph-name="Eth" unicode="&#xd0;" horiz-adv-x="728" 
d="M674 373q0 -164 -100.5 -268.5t-262.5 -104.5h-212q7 67 7 241v74l-81 -2q3 31 3 85l78 -3v67q0 174 -7 241q11 0 75.5 2.5t119.5 2.5q179 0 279.5 -96t100.5 -239zM573 360q0 121 -73.5 192t-207.5 71q-47 0 -87 -3q-1 -18 -1 -62v-163q81 0 150 3q-5 -38 -5 -85
q-84 2 -123 2h-22v-169q0 -36 1 -56q50 -5 90 -5q142 0 210 77t68 198z" />
    <glyph glyph-name="Ntilde" unicode="&#xd1;" horiz-adv-x="785" 
d="M90 0q9 76 12 241l4 240q2 155 -4 232l26 7l462 -535v277q0 177 -8 241q68 0 111 5q-5 -37 -8 -148l-7 -422q-1 -27 -0.5 -78t2.5 -70l-26 -7l-458 527v-366q0 -107 4 -144h-110zM221 780q12 77 39 109t68 32q32 0 80.5 -36.5t63.5 -36.5q26 0 38 77l69 -10
q-22 -146 -108 -146q-32 0 -81 36.5t-64 36.5q-14 0 -21.5 -15t-13.5 -57z" />
    <glyph glyph-name="Ograve" unicode="&#xd2;" horiz-adv-x="811" 
d="M404 65q110 0 181 84t71 202q0 130 -70 208t-179 78q-110 0 -181 -84t-71 -202q0 -130 70 -208t179 -78zM396 -18q-150 0 -246 103t-96 248q0 164 101.5 275.5t259.5 111.5q150 0 246 -103t96 -248q0 -164 -101.5 -275.5t-259.5 -111.5zM245 921l113 9l91 -149l-59 -5z
" />
    <glyph glyph-name="Oacute" unicode="&#xd3;" horiz-adv-x="811" 
d="M404 65q110 0 181 84t71 202q0 130 -70 208t-179 78q-110 0 -181 -84t-71 -202q0 -130 70 -208t179 -78zM396 -18q-150 0 -246 103t-96 248q0 164 101.5 275.5t259.5 111.5q150 0 246 -103t96 -248q0 -164 -101.5 -275.5t-259.5 -111.5zM446 921l131 9l-161 -149l-63 -5z
" />
    <glyph glyph-name="Ocircumflex" unicode="&#xd4;" horiz-adv-x="811" 
d="M404 65q110 0 181 84t71 202q0 130 -70 208t-179 78q-110 0 -181 -84t-71 -202q0 -130 70 -208t179 -78zM396 -18q-150 0 -246 103t-96 248q0 164 101.5 275.5t259.5 111.5q150 0 246 -103t96 -248q0 -164 -101.5 -275.5t-259.5 -111.5zM353 931h115l96 -152l-68 -6
l-87 97l-82 -89h-80z" />
    <glyph glyph-name="Otilde" unicode="&#xd5;" horiz-adv-x="811" 
d="M404 65q110 0 181 84t71 202q0 130 -70 208t-179 78q-110 0 -181 -84t-71 -202q0 -130 70 -208t179 -78zM396 -18q-150 0 -246 103t-96 248q0 164 101.5 275.5t259.5 111.5q150 0 246 -103t96 -248q0 -164 -101.5 -275.5t-259.5 -111.5zM232 790q12 77 39 109t68 32
q32 0 80.5 -36.5t63.5 -36.5q26 0 38 77l69 -10q-22 -146 -108 -146q-32 0 -81 36.5t-64 36.5q-14 0 -21.5 -15t-13.5 -57z" />
    <glyph glyph-name="Odieresis" unicode="&#xd6;" horiz-adv-x="811" 
d="M404 65q110 0 181 84t71 202q0 130 -70 208t-179 78q-110 0 -181 -84t-71 -202q0 -130 70 -208t179 -78zM396 -18q-150 0 -246 103t-96 248q0 164 101.5 275.5t259.5 111.5q150 0 246 -103t96 -248q0 -164 -101.5 -275.5t-259.5 -111.5zM374 862q0 -27 -17 -46t-43 -19
q-25 0 -41 17.5t-16 41.5q0 27 17 46t43 19q25 0 41 -18t16 -41zM554 862q0 -27 -17 -46t-43 -19q-25 0 -41 17.5t-16 41.5q0 27 17 46t43 19q25 0 41 -18t16 -41z" />
    <glyph glyph-name="multiply" unicode="&#xd7;" horiz-adv-x="570" 
d="M492 119q-24 -19 -60 -53q-50 57 -146 159q-73 -74 -153 -158q-11 14 -54 57q126 123 155 152q-92 92 -155 152q34 24 61 51q20 -21 65 -68t81 -85q74 76 147 159q8 -10 29 -33t24 -26q-45 -44 -148 -151q30 -31 63.5 -65t53 -53.5z" />
    <glyph glyph-name="Oslash" unicode="&#xd8;" horiz-adv-x="810" 
d="M751 701q-32 -35 -82 -94q87 -100 87 -238q0 -164 -101.5 -275.5t-259.5 -111.5q-118 0 -204 66l-67 -79l-64 33q50 52 83 90q-89 98 -89 241q0 164 101.5 275.5t259.5 111.5q115 0 204 -66q50 57 69 84q37 -24 63 -37zM157 351q0 -110 50 -183l351 413q-65 54 -152 54
q-109 0 -179 -83t-70 -201zM404 67q109 0 179 82.5t70 201.5q0 103 -50 179l-351 -412q63 -51 152 -51z" />
    <glyph glyph-name="Ugrave" unicode="&#xd9;" horiz-adv-x="756" 
d="M666 708q-5 -36 -5 -148v-268q0 -85 -18.5 -137t-58.5 -92q-81 -81 -221 -81q-119 0 -193.5 70t-74.5 188v222q0 174 -7 241q68 0 109 5q-4 -39 -4 -148v-288q0 -203 189 -203q85 0 133 49t48 133v211q0 177 -8 241q69 0 111 5zM217 911l113 9l91 -149l-59 -5z" />
    <glyph glyph-name="Uacute" unicode="&#xda;" horiz-adv-x="756" 
d="M666 708q-5 -36 -5 -148v-268q0 -85 -18.5 -137t-58.5 -92q-81 -81 -221 -81q-119 0 -193.5 70t-74.5 188v222q0 174 -7 241q68 0 109 5q-4 -39 -4 -148v-288q0 -203 189 -203q85 0 133 49t48 133v211q0 177 -8 241q69 0 111 5zM418 911l131 9l-161 -149l-63 -5z" />
    <glyph glyph-name="Ucircumflex" unicode="&#xdb;" horiz-adv-x="756" 
d="M666 708q-5 -36 -5 -148v-268q0 -85 -18.5 -137t-58.5 -92q-81 -81 -221 -81q-119 0 -193.5 70t-74.5 188v222q0 174 -7 241q68 0 109 5q-4 -39 -4 -148v-288q0 -203 189 -203q85 0 133 49t48 133v211q0 177 -8 241q69 0 111 5zM325 921h115l96 -152l-68 -6l-87 97
l-82 -89h-80z" />
    <glyph glyph-name="Udieresis" unicode="&#xdc;" horiz-adv-x="756" 
d="M666 708q-5 -36 -5 -148v-268q0 -85 -18.5 -137t-58.5 -92q-81 -81 -221 -81q-119 0 -193.5 70t-74.5 188v222q0 174 -7 241q68 0 109 5q-4 -39 -4 -148v-288q0 -203 189 -203q85 0 133 49t48 133v211q0 177 -8 241q69 0 111 5zM346 852q0 -27 -17 -46t-43 -19
q-25 0 -41 17.5t-16 41.5q0 27 17 46t43 19q25 0 41 -18t16 -41zM526 852q0 -27 -17 -46t-43 -19q-25 0 -41 17.5t-16 41.5q0 27 17 46t43 19q25 0 41 -18t16 -41z" />
    <glyph glyph-name="Yacute" unicode="&#xdd;" horiz-adv-x="624" 
d="M6 704l110 8l199 -321l60 93q9 14 136 221h114l-262 -396v-165q0 -102 3 -144h-108q7 67 7 241v63l-106 164q-69 113 -153 236zM356 911l131 9l-161 -149l-63 -5z" />
    <glyph glyph-name="Thorn" unicode="&#xde;" horiz-adv-x="594" 
d="M105 462q0 174 -7 241q70 0 111 5l-4 -137q45 3 80 3q124 0 195.5 -58.5t71.5 -144.5q0 -108 -74 -176t-222 -68q-13 0 -51 2q1 -101 4 -129h-111q7 67 7 241v221zM205 212q29 -3 52 -3q88 0 140 36.5t52 104.5q0 62 -42.5 98t-122.5 36q-27 0 -79 -2v-270z" />
    <glyph glyph-name="germandbls" unicode="&#xdf;" horiz-adv-x="501" 
d="M66 0q7 60 7 163v322q0 117 51 177.5t140 60.5q72 0 119 -42.5t47 -103.5q0 -41 -16.5 -75t-36.5 -51.5t-36.5 -35.5t-16.5 -31q0 -12 8 -22t40 -36q49 -40 76.5 -78t27.5 -88q0 -63 -49 -113.5t-131 -50.5q-29 0 -58 7l-9 83q31 -9 59 -9q45 0 71.5 22t26.5 55
q0 31 -24.5 61t-54.5 51t-54.5 50.5t-24.5 58.5q0 19 17.5 41t38.5 40.5t38.5 46.5t17.5 57q0 37 -23 59.5t-57 22.5q-40 0 -66.5 -33t-28.5 -95v-417q0 -64 4 -97h-103z" />
    <glyph glyph-name="agrave" unicode="&#xe0;" horiz-adv-x="485" 
d="M180 -14q-66 0 -105.5 37t-39.5 99q0 71 63 113t180 42q13 0 39 -2l1 15q2 52 -21.5 77.5t-75.5 25.5q-68 0 -127 -44l-21 80q78 45 163 45q87 0 130.5 -48t41.5 -130l-6 -198q-1 -40 29 -40q16 0 40 8l-9 -64q-34 -14 -60 -14q-30 0 -52 20.5t-26 57.5q-21 -36 -59 -58
t-85 -22zM200 60q48 0 80 31.5t34 79.5l2 45q-28 2 -41 2q-79 0 -115 -25t-36 -66q0 -67 76 -67zM84 681l113 9l91 -149l-59 -5z" />
    <glyph glyph-name="aacute" unicode="&#xe1;" horiz-adv-x="485" 
d="M180 -14q-66 0 -105.5 37t-39.5 99q0 71 63 113t180 42q13 0 39 -2l1 15q2 52 -21.5 77.5t-75.5 25.5q-68 0 -127 -44l-21 80q78 45 163 45q87 0 130.5 -48t41.5 -130l-6 -198q-1 -40 29 -40q16 0 40 8l-9 -64q-34 -14 -60 -14q-30 0 -52 20.5t-26 57.5q-21 -36 -59 -58
t-85 -22zM200 60q48 0 80 31.5t34 79.5l2 45q-28 2 -41 2q-79 0 -115 -25t-36 -66q0 -67 76 -67zM285 681l131 9l-161 -149l-63 -5z" />
    <glyph glyph-name="acircumflex" unicode="&#xe2;" horiz-adv-x="485" 
d="M180 -14q-66 0 -105.5 37t-39.5 99q0 71 63 113t180 42q13 0 39 -2l1 15q2 52 -21.5 77.5t-75.5 25.5q-68 0 -127 -44l-21 80q78 45 163 45q87 0 130.5 -48t41.5 -130l-6 -198q-1 -40 29 -40q16 0 40 8l-9 -64q-34 -14 -60 -14q-30 0 -52 20.5t-26 57.5q-21 -36 -59 -58
t-85 -22zM192 691h115l96 -152l-68 -6l-87 97l-82 -89h-80zM200 60q48 0 80 31.5t34 79.5l2 45q-28 2 -41 2q-79 0 -115 -25t-36 -66q0 -67 76 -67z" />
    <glyph glyph-name="atilde" unicode="&#xe3;" horiz-adv-x="485" 
d="M180 -14q-66 0 -105.5 37t-39.5 99q0 71 63 113t180 42q13 0 39 -2l1 15q2 52 -21.5 77.5t-75.5 25.5q-68 0 -127 -44l-21 80q78 45 163 45q87 0 130.5 -48t41.5 -130l-6 -198q-1 -40 29 -40q16 0 40 8l-9 -64q-34 -14 -60 -14q-30 0 -52 20.5t-26 57.5q-21 -36 -59 -58
t-85 -22zM71 550q12 77 39 109t68 32q32 0 80.5 -36.5t63.5 -36.5q26 0 38 77l69 -10q-22 -146 -108 -146q-32 0 -81 36.5t-64 36.5q-14 0 -21.5 -15t-13.5 -57zM200 60q48 0 80 31.5t34 79.5l2 45q-28 2 -41 2q-79 0 -115 -25t-36 -66q0 -67 76 -67z" />
    <glyph glyph-name="adieresis" unicode="&#xe4;" horiz-adv-x="485" 
d="M180 -14q-66 0 -105.5 37t-39.5 99q0 71 63 113t180 42q13 0 39 -2l1 15q2 52 -21.5 77.5t-75.5 25.5q-68 0 -127 -44l-21 80q78 45 163 45q87 0 130.5 -48t41.5 -130l-6 -198q-1 -40 29 -40q16 0 40 8l-9 -64q-34 -14 -60 -14q-30 0 -52 20.5t-26 57.5q-21 -36 -59 -58
t-85 -22zM200 60q48 0 80 31.5t34 79.5l2 45q-28 2 -41 2q-79 0 -115 -25t-36 -66q0 -67 76 -67zM213 622q0 -27 -17 -46t-43 -19q-25 0 -41 17.5t-16 41.5q0 27 17 46t43 19q25 0 41 -18t16 -41zM393 622q0 -27 -17 -46t-43 -19q-25 0 -41 17.5t-16 41.5q0 27 17 46t43 19
q25 0 41 -18t16 -41z" />
    <glyph glyph-name="aring" unicode="&#xe5;" horiz-adv-x="485" 
d="M180 -14q-66 0 -105.5 37t-39.5 99q0 71 63 113t180 42q13 0 39 -2l1 15q2 52 -21.5 77.5t-75.5 25.5q-68 0 -127 -44l-21 80q78 45 163 45q87 0 130.5 -48t41.5 -130l-6 -198q-1 -40 29 -40q16 0 40 8l-9 -64q-34 -14 -60 -14q-30 0 -52 20.5t-26 57.5q-21 -36 -59 -58
t-85 -22zM363 653q0 -49 -33.5 -83t-87.5 -34q-52 0 -84 31t-32 75q0 50 33.5 82.5t87.5 32.5q52 0 84 -30t32 -74zM200 60q48 0 80 31.5t34 79.5l2 45q-28 2 -41 2q-79 0 -115 -25t-36 -66q0 -67 76 -67zM299 646q0 27 -14 43t-40 16t-40.5 -16t-14.5 -40q0 -26 15 -43
t39 -17q26 0 40.5 16.5t14.5 40.5z" />
    <glyph glyph-name="ae" unicode="&#xe6;" horiz-adv-x="770" 
d="M735 247l-60 -36l-268 -8q11 -140 141 -140q82 0 165 68l-4 -94q-83 -55 -170 -55q-134 0 -182 105q-58 -101 -171 -101q-67 0 -109 38t-42 100q0 69 60 110t173 41q8 0 26 -0.5t27 -0.5l1 15q5 104 -99 104q-70 0 -129 -44l-21 80q78 45 161 45q111 0 146 -84
q57 84 160 84q97 0 146 -63.5t49 -163.5zM198 60q51 0 84 39t36 95l1 21q-10 0 -28 0.5t-26 0.5q-141 0 -141 -87q0 -30 19 -49.5t55 -19.5zM409 272l240 7q-15 118 -112 118q-47 0 -82.5 -36t-45.5 -89z" />
    <glyph glyph-name="ccedilla" unicode="&#xe7;" horiz-adv-x="478" 
d="M436 429l-26 -81q-56 44 -129 44q-65 0 -107.5 -46t-42.5 -114q0 -79 46 -124t111 -45q43 0 76 13t70 46l-4 -95q-69 -42 -143 -45l-14 -51q103 -29 103 -93q0 -34 -30 -59t-81 -25q-38 0 -85 14l13 58q42 -15 79 -15q38 0 38 25q0 28 -91 50l-5 4q10 31 25 95
q-87 12 -143 77t-56 154q0 109 69.5 183.5t175.5 74.5q87 0 151 -45z" />
    <glyph glyph-name="egrave" unicode="&#xe8;" horiz-adv-x="500" 
d="M465 247l-60 -36l-273 -8q11 -140 144 -140q84 0 167 68l-4 -94q-82 -55 -172 -55q-110 0 -168.5 67t-58.5 167q0 110 64.5 184t168.5 74q97 0 144.5 -63t47.5 -164zM134 272l245 7q-8 59 -34 88.5t-77 29.5q-54 0 -89 -34.5t-45 -90.5zM106 681l113 9l91 -149l-59 -5z
" />
    <glyph glyph-name="eacute" unicode="&#xe9;" horiz-adv-x="500" 
d="M465 247l-60 -36l-273 -8q11 -140 144 -140q84 0 167 68l-4 -94q-82 -55 -172 -55q-110 0 -168.5 67t-58.5 167q0 110 64.5 184t168.5 74q97 0 144.5 -63t47.5 -164zM134 272l245 7q-8 59 -34 88.5t-77 29.5q-54 0 -89 -34.5t-45 -90.5zM307 681l131 9l-161 -149l-63 -5z
" />
    <glyph glyph-name="ecircumflex" unicode="&#xea;" horiz-adv-x="500" 
d="M465 247l-60 -36l-273 -8q11 -140 144 -140q84 0 167 68l-4 -94q-82 -55 -172 -55q-110 0 -168.5 67t-58.5 167q0 110 64.5 184t168.5 74q97 0 144.5 -63t47.5 -164zM134 272l245 7q-8 59 -34 88.5t-77 29.5q-54 0 -89 -34.5t-45 -90.5zM214 691h115l96 -152l-68 -6
l-87 97l-82 -89h-80z" />
    <glyph glyph-name="edieresis" unicode="&#xeb;" horiz-adv-x="500" 
d="M465 247l-60 -36l-273 -8q11 -140 144 -140q84 0 167 68l-4 -94q-82 -55 -172 -55q-110 0 -168.5 67t-58.5 167q0 110 64.5 184t168.5 74q97 0 144.5 -63t47.5 -164zM134 272l245 7q-8 59 -34 88.5t-77 29.5q-54 0 -89 -34.5t-45 -90.5zM235 622q0 -27 -17 -46t-43 -19
q-25 0 -41 17.5t-16 41.5q0 27 17 46t43 19q25 0 41 -18t16 -41zM415 622q0 -27 -17 -46t-43 -19q-25 0 -41 17.5t-16 41.5q0 27 17 46t43 19q25 0 41 -18t16 -41z" />
    <glyph glyph-name="igrave" unicode="&#xec;" horiz-adv-x="238" 
d="M169 0h-103q7 60 7 164v126q0 110 -7 170q53 0 103 5q-4 -35 -4 -107v-261q0 -62 4 -97zM-43 681l113 9l91 -149l-59 -5z" />
    <glyph glyph-name="iacute" unicode="&#xed;" horiz-adv-x="238" 
d="M169 0h-103q7 60 7 164v126q0 110 -7 170q53 0 103 5q-4 -35 -4 -107v-261q0 -62 4 -97zM158 681l131 9l-161 -149l-63 -5z" />
    <glyph glyph-name="icircumflex" unicode="&#xee;" horiz-adv-x="238" 
d="M169 0h-103q7 60 7 164v126q0 110 -7 170q53 0 103 5q-4 -35 -4 -107v-261q0 -62 4 -97zM65 691h115l96 -152l-68 -6l-87 97l-82 -89h-80z" />
    <glyph glyph-name="idieresis" unicode="&#xef;" horiz-adv-x="238" 
d="M169 0h-103q7 60 7 164v126q0 110 -7 170q53 0 103 5q-4 -35 -4 -107v-261q0 -62 4 -97zM86 622q0 -27 -17 -46t-43 -19q-25 0 -41 17.5t-16 41.5q0 27 17 46t43 19q25 0 41 -18t16 -41zM266 622q0 -27 -17 -46t-43 -19q-25 0 -41 17.5t-16 41.5q0 27 17 46t43 19
q25 0 41 -18t16 -41z" />
    <glyph glyph-name="eth" unicode="&#xf0;" horiz-adv-x="539" 
d="M262 -18q-99 0 -160.5 68t-61.5 166q0 111 64.5 184.5t160.5 73.5q88 0 138 -65q-33 91 -104 164l-5 -2q-21 -12 -69 -40.5t-56 -33.5q-23 28 -57 54l131 71q-56 43 -122 68l85 42q62 -29 110 -68q65 39 111 68q15 -17 55 -57q-46 -23 -112 -60q131 -141 132 -340
q1 -134 -65.5 -213.5t-174.5 -79.5zM412 234q0 71 -40.5 115t-98.5 44q-63 0 -103 -48t-40 -116q0 -72 39.5 -119t99.5 -47q62 0 102.5 49.5t40.5 121.5z" />
    <glyph glyph-name="ntilde" unicode="&#xf1;" horiz-adv-x="545" 
d="M478 0h-103q7 60 7 170v120q0 103 -80 103q-49 0 -93 -40t-44 -85v-165q0 -68 4 -103h-102q6 64 6 170v120q0 106 -6 170q40 0 90 5l7 -89q28 45 73 71.5t89 26.5q74 0 111 -43t37 -123v-205q0 -51 4 -103zM105 550q12 77 39 109t68 32q32 0 80.5 -36.5t63.5 -36.5
q26 0 38 77l69 -10q-22 -146 -108 -146q-32 0 -81 36.5t-64 36.5q-14 0 -21.5 -15t-13.5 -57z" />
    <glyph glyph-name="ograve" unicode="&#xf2;" horiz-adv-x="538" 
d="M498 240q0 -110 -65.5 -184t-170.5 -74q-99 0 -160.5 68.5t-61.5 165.5q0 110 65 184t170 74q100 0 161.5 -68.5t61.5 -165.5zM407 227q0 78 -38.5 122t-97.5 44q-63 0 -101.5 -46.5t-38.5 -115.5q0 -82 36.5 -125t99.5 -43q64 0 102 47t38 117zM109 681l113 9l91 -149
l-59 -5z" />
    <glyph glyph-name="oacute" unicode="&#xf3;" horiz-adv-x="538" 
d="M498 240q0 -110 -65.5 -184t-170.5 -74q-99 0 -160.5 68.5t-61.5 165.5q0 110 65 184t170 74q100 0 161.5 -68.5t61.5 -165.5zM407 227q0 78 -38.5 122t-97.5 44q-63 0 -101.5 -46.5t-38.5 -115.5q0 -82 36.5 -125t99.5 -43q64 0 102 47t38 117zM310 681l131 9l-161 -149
l-63 -5z" />
    <glyph glyph-name="ocircumflex" unicode="&#xf4;" horiz-adv-x="538" 
d="M498 240q0 -110 -65.5 -184t-170.5 -74q-99 0 -160.5 68.5t-61.5 165.5q0 110 65 184t170 74q100 0 161.5 -68.5t61.5 -165.5zM407 227q0 78 -38.5 122t-97.5 44q-63 0 -101.5 -46.5t-38.5 -115.5q0 -82 36.5 -125t99.5 -43q64 0 102 47t38 117zM217 691h115l96 -152
l-68 -6l-87 97l-82 -89h-80z" />
    <glyph glyph-name="otilde" unicode="&#xf5;" horiz-adv-x="538" 
d="M498 240q0 -110 -65.5 -184t-170.5 -74q-99 0 -160.5 68.5t-61.5 165.5q0 110 65 184t170 74q100 0 161.5 -68.5t61.5 -165.5zM407 227q0 78 -38.5 122t-97.5 44q-63 0 -101.5 -46.5t-38.5 -115.5q0 -82 36.5 -125t99.5 -43q64 0 102 47t38 117zM96 550q12 77 39 109
t68 32q32 0 80.5 -36.5t63.5 -36.5q26 0 38 77l69 -10q-22 -146 -108 -146q-32 0 -81 36.5t-64 36.5q-14 0 -21.5 -15t-13.5 -57z" />
    <glyph glyph-name="odieresis" unicode="&#xf6;" horiz-adv-x="538" 
d="M498 240q0 -110 -65.5 -184t-170.5 -74q-99 0 -160.5 68.5t-61.5 165.5q0 110 65 184t170 74q100 0 161.5 -68.5t61.5 -165.5zM407 227q0 78 -38.5 122t-97.5 44q-63 0 -101.5 -46.5t-38.5 -115.5q0 -82 36.5 -125t99.5 -43q64 0 102 47t38 117zM238 622q0 -27 -17 -46
t-43 -19q-25 0 -41 17.5t-16 41.5q0 27 17 46t43 19q25 0 41 -18t16 -41zM418 622q0 -27 -17 -46t-43 -19q-25 0 -41 17.5t-16 41.5q0 27 17 46t43 19q25 0 41 -18t16 -41z" />
    <glyph glyph-name="divide" unicode="&#xf7;" horiz-adv-x="570" 
d="M500 315q-5 -33 -5 -76q-116 2 -176 2h-71q-64 0 -178 -2q3 29 3 76q102 -3 213 -3q112 0 214 3zM341 454q0 -27 -17 -46t-43 -19q-25 0 -41 17.5t-16 41.5q0 27 17 46t43 19q25 0 41 -18t16 -41zM341 105q0 -27 -17 -46t-43 -19q-25 0 -41 17.5t-16 41.5q0 27 17 46
t43 19q25 0 41 -18t16 -41z" />
    <glyph glyph-name="oslash" unicode="&#xf8;" horiz-adv-x="538" 
d="M510 452l-59 -64q47 -64 47 -148q0 -110 -65.5 -184t-170.5 -74q-76 0 -133 43q-6 -7 -25 -27t-29 -32l-48 35l61 65q-48 63 -48 150q0 110 65 184t170 74q77 0 135 -45l53 61q20 -20 47 -38zM130 231q0 -59 19 -97l203 231q-36 28 -81 28q-63 0 -102 -46.5t-39 -115.5z
M408 227q0 54 -20 92l-203 -231q32 -25 82 -25q64 0 102.5 47t38.5 117z" />
    <glyph glyph-name="ugrave" unicode="&#xf9;" horiz-adv-x="545" 
d="M479 0h-85l-11 72q-26 -43 -70 -66.5t-80 -23.5q-162 0 -162 179v129q0 106 -6 170q52 0 102 5q-4 -35 -4 -107v-179q0 -59 21.5 -87.5t72.5 -28.5q39 0 81 34.5t42 76.5v116q0 110 -7 170q54 0 104 5q-5 -43 -5 -107v-192q0 -102 7 -166zM112 681l113 9l91 -149l-59 -5z
" />
    <glyph glyph-name="uacute" unicode="&#xfa;" horiz-adv-x="545" 
d="M479 0h-85l-11 72q-26 -43 -70 -66.5t-80 -23.5q-162 0 -162 179v129q0 106 -6 170q52 0 102 5q-4 -35 -4 -107v-179q0 -59 21.5 -87.5t72.5 -28.5q39 0 81 34.5t42 76.5v116q0 110 -7 170q54 0 104 5q-5 -43 -5 -107v-192q0 -102 7 -166zM313 681l131 9l-161 -149
l-63 -5z" />
    <glyph glyph-name="ucircumflex" unicode="&#xfb;" horiz-adv-x="545" 
d="M479 0h-85l-11 72q-26 -43 -70 -66.5t-80 -23.5q-162 0 -162 179v129q0 106 -6 170q52 0 102 5q-4 -35 -4 -107v-179q0 -59 21.5 -87.5t72.5 -28.5q39 0 81 34.5t42 76.5v116q0 110 -7 170q54 0 104 5q-5 -43 -5 -107v-192q0 -102 7 -166zM220 691h115l96 -152l-68 -6
l-87 97l-82 -89h-80z" />
    <glyph glyph-name="udieresis" unicode="&#xfc;" horiz-adv-x="545" 
d="M479 0h-85l-11 72q-26 -43 -70 -66.5t-80 -23.5q-162 0 -162 179v129q0 106 -6 170q52 0 102 5q-4 -35 -4 -107v-179q0 -59 21.5 -87.5t72.5 -28.5q39 0 81 34.5t42 76.5v116q0 110 -7 170q54 0 104 5q-5 -43 -5 -107v-192q0 -102 7 -166zM241 622q0 -27 -17 -46t-43 -19
q-25 0 -41 17.5t-16 41.5q0 27 17 46t43 19q25 0 41 -18t16 -41zM421 622q0 -27 -17 -46t-43 -19q-25 0 -41 17.5t-16 41.5q0 27 17 46t43 19q25 0 41 -18t16 -41z" />
    <glyph glyph-name="yacute" unicode="&#xfd;" horiz-adv-x="468" 
d="M77 -212l115 262q-3 7 -18.5 47t-24.5 61l-58 128q-53 121 -79 169l103 13l124 -313l54 132q32 79 65 175q63 0 102 4l-224 -529q-4 -11 -16 -40t-23 -56t-18 -49q-62 0 -102 -4zM282 681l131 9l-161 -149l-63 -5z" />
    <glyph glyph-name="thorn" unicode="&#xfe;" horiz-adv-x="550" 
d="M165 336v-228q40 -47 116 -47q61 0 99.5 51.5t38.5 123.5q0 73 -34.5 115t-98.5 42q-33 0 -65.5 -15.5t-55.5 -41.5zM73 -45v591q0 105 -7 165q50 4 103 13q-4 -35 -4 -109v-197q64 56 145 56q88 0 144.5 -63t56.5 -164q0 -116 -71 -190.5t-157 -74.5q-73 0 -118 38v-132
q0 -60 4 -93l-103 -9q7 60 7 169z" />
    <glyph glyph-name="ydieresis" unicode="&#xff;" horiz-adv-x="468" 
d="M77 -212l115 262q-3 7 -18.5 47t-24.5 61l-58 128q-53 121 -79 169l103 13l124 -313l54 132q32 79 65 175q63 0 102 4l-224 -529q-4 -11 -16 -40t-23 -56t-18 -49q-62 0 -102 -4zM390 622q0 -27 -17 -46t-43 -19q-25 0 -41 17.5t-16 41.5q0 27 17 46t43 19q25 0 41 -18
t16 -41zM210 622q0 -27 -17 -46t-43 -19q-25 0 -41 17.5t-16 41.5q0 27 17 46t43 19q25 0 41 -18t16 -41z" />
    <glyph glyph-name="Amacron" unicode="&#x100;" horiz-adv-x="701" 
d="M6 0l237 512q59 127 87 201l26 7l240 -516q60 -131 98 -204l-108 -8l-94 209h-296l-4 -10q-26 -61 -78 -191h-108zM344 533l-112 -252h224zM500 895q-5 -33 -5 -76q-80 2 -113 2h-76q-41 0 -109 -2q4 36 4 76q74 -3 149 -3q76 0 150 3z" />
    <glyph glyph-name="amacron" unicode="&#x101;" horiz-adv-x="485" 
d="M180 -14q-66 0 -105.5 37t-39.5 99q0 71 63 113t180 42q13 0 39 -2l1 15q2 52 -21.5 77.5t-75.5 25.5q-68 0 -127 -44l-21 80q78 45 163 45q87 0 130.5 -48t41.5 -130l-6 -198q-1 -40 29 -40q16 0 40 8l-9 -64q-34 -14 -60 -14q-30 0 -52 20.5t-26 57.5q-21 -36 -59 -58
t-85 -22zM200 60q48 0 80 31.5t34 79.5l2 45q-28 2 -41 2q-79 0 -115 -25t-36 -66q0 -67 76 -67zM396 655q-5 -33 -5 -76q-80 2 -113 2h-76q-41 0 -109 -2q4 36 4 76q73 -3 149 -3t150 3z" />
    <glyph glyph-name="Abreve" unicode="&#x102;" horiz-adv-x="701" 
d="M6 0l237 512q59 127 87 201l26 7l240 -516q60 -131 98 -204l-108 -8l-94 209h-296l-4 -10q-26 -61 -78 -191h-108zM425 932l77 5q2 -75 -40 -118.5t-117 -43.5q-66 0 -109 43.5t-43 108.5l79 14q0 -47 20.5 -72.5t57.5 -25.5q38 0 56.5 25t18.5 64zM344 533l-112 -252
h224z" />
    <glyph glyph-name="abreve" unicode="&#x103;" horiz-adv-x="485" 
d="M180 -14q-66 0 -105.5 37t-39.5 99q0 71 63 113t180 42q13 0 39 -2l1 15q2 52 -21.5 77.5t-75.5 25.5q-68 0 -127 -44l-21 80q78 45 163 45q87 0 130.5 -48t41.5 -130l-6 -198q-1 -40 29 -40q16 0 40 8l-9 -64q-34 -14 -60 -14q-30 0 -52 20.5t-26 57.5q-21 -36 -59 -58
t-85 -22zM321 692l77 5q2 -75 -40 -118.5t-117 -43.5q-66 0 -109 43.5t-43 108.5l79 14q0 -47 20.5 -72.5t57.5 -25.5q38 0 56.5 25t18.5 64zM200 60q48 0 80 31.5t34 79.5l2 45q-28 2 -41 2q-79 0 -115 -25t-36 -66q0 -67 76 -67z" />
    <glyph glyph-name="Aogonek" unicode="&#x104;" horiz-adv-x="701" 
d="M6 0l237 512q59 127 87 201l26 7l240 -516q64 -140 97 -203l2 -1q-113 -63 -113 -118q0 -19 12 -30.5t35 -11.5q29 0 62 21l-5 -62q-30 -20 -73 -20q-48 0 -76.5 24.5t-28.5 65.5q0 64 77 124l-93 208h-296l-4 -10q-26 -61 -78 -191h-108zM344 533l-112 -252h224z" />
    <glyph glyph-name="aogonek" unicode="&#x105;" horiz-adv-x="485" 
d="M180 -14q-66 0 -105.5 37t-39.5 99q0 71 63 113t180 42q13 0 39 -2l1 15q2 52 -21.5 77.5t-75.5 25.5q-68 0 -127 -44l-21 80q78 45 163 45q87 0 130.5 -48t41.5 -130l-6 -198q-1 -40 29 -40q16 0 40 8l-9 -61q-108 -70 -108 -123q0 -19 12 -30.5t35 -11.5q29 0 62 21
l-5 -62q-30 -20 -73 -20q-48 0 -76.5 24.5t-28.5 65.5q0 67 90 126q-42 17 -46 71q-21 -36 -59 -58t-85 -22zM200 60q48 0 80 31.5t34 79.5l2 45q-28 2 -41 2q-79 0 -115 -25t-36 -66q0 -67 76 -67z" />
    <glyph glyph-name="Cacute" unicode="&#x106;" horiz-adv-x="679" 
d="M640 171l-7 -109q-103 -80 -229 -80q-151 0 -250.5 103.5t-99.5 247.5q0 163 105 275t264 112q120 0 208 -63l-28 -90q-82 64 -186 64q-114 0 -188 -79t-74 -198q0 -133 72 -208.5t183 -75.5q123 0 230 101zM437 921l131 9l-161 -149l-63 -5z" />
    <glyph glyph-name="cacute" unicode="&#x107;" horiz-adv-x="478" 
d="M436 429l-26 -81q-56 44 -129 44q-65 0 -107.5 -46t-42.5 -114q0 -79 46 -124t111 -45q43 0 76 13t70 46l-4 -95q-40 -25 -73 -35t-80 -10q-101 0 -169 67.5t-68 166.5q0 109 69.5 183.5t175.5 74.5q87 0 151 -45zM316 681l131 9l-161 -149l-63 -5z" />
    <glyph glyph-name="Cdotaccent" unicode="&#x10a;" horiz-adv-x="679" 
d="M640 171l-7 -109q-103 -80 -229 -80q-151 0 -250.5 103.5t-99.5 247.5q0 163 105 275t264 112q120 0 208 -63l-28 -90q-82 64 -186 64q-114 0 -188 -79t-74 -198q0 -133 72 -208.5t183 -75.5q123 0 230 101zM455 862q0 -27 -17 -46t-43 -19q-25 0 -41 17.5t-16 41.5
q0 27 17 46t43 19q25 0 41 -18t16 -41z" />
    <glyph glyph-name="cdotaccent" unicode="&#x10b;" horiz-adv-x="478" 
d="M436 429l-26 -81q-56 44 -129 44q-65 0 -107.5 -46t-42.5 -114q0 -79 46 -124t111 -45q43 0 76 13t70 46l-4 -95q-40 -25 -73 -35t-80 -10q-101 0 -169 67.5t-68 166.5q0 109 69.5 183.5t175.5 74.5q87 0 151 -45zM334 622q0 -27 -17 -46t-43 -19q-25 0 -41 17.5
t-16 41.5q0 27 17 46t43 19q25 0 41 -18t16 -41z" />
    <glyph glyph-name="Ccaron" unicode="&#x10c;" horiz-adv-x="679" 
d="M640 171l-7 -109q-103 -80 -229 -80q-151 0 -250.5 103.5t-99.5 247.5q0 163 105 275t264 112q120 0 208 -63l-28 -90q-82 64 -186 64q-114 0 -188 -79t-74 -198q0 -133 72 -208.5t183 -75.5q123 0 230 101zM451 782h-115l-98 149l71 6l86 -94l83 89h77z" />
    <glyph glyph-name="ccaron" unicode="&#x10d;" horiz-adv-x="478" 
d="M436 429l-26 -81q-56 44 -129 44q-65 0 -107.5 -46t-42.5 -114q0 -79 46 -124t111 -45q43 0 76 13t70 46l-4 -95q-40 -25 -73 -35t-80 -10q-101 0 -169 67.5t-68 166.5q0 109 69.5 183.5t175.5 74.5q87 0 151 -45zM330 542h-115l-98 149l71 6l86 -94l83 89h77z" />
    <glyph glyph-name="Dcaron" unicode="&#x10e;" horiz-adv-x="729" 
d="M674 373q0 -164 -100.5 -268.5t-262.5 -104.5h-212q7 67 7 241v221q0 174 -7 241q11 0 75.5 2.5t119.5 2.5q179 0 279.5 -96t100.5 -239zM573 360q0 121 -73.5 192t-207.5 71q-47 0 -87 -3q-1 -18 -1 -62v-412q0 -36 1 -56q50 -5 90 -5q142 0 210 77t68 198zM416 772
h-115l-98 149l71 6l86 -94l83 89h77z" />
    <glyph glyph-name="dcaron" unicode="&#x10f;" horiz-adv-x="550" 
d="M278 474q64 0 107 -33l-1 104q0 113 -6 165q65 5 103 13q-4 -35 -4 -109v-448q0 -102 7 -166h-85l-7 50q-23 -30 -62 -49t-79 -19q-96 0 -154 65.5t-58 163.5q0 111 68.5 187t170.5 76zM280 394q-68 0 -108.5 -49.5t-40.5 -122.5q0 -77 39.5 -118.5t97.5 -41.5
q37 0 69 19t48 51v220q-40 42 -105 42zM569 553l-40 -9q8 98 8 166q17 3 76 11q-27 -116 -44 -168z" />
    <glyph glyph-name="Dcroat" unicode="&#x110;" horiz-adv-x="728" 
d="M674 373q0 -164 -100.5 -268.5t-262.5 -104.5h-212q7 67 7 241v74l-81 -2q3 31 3 85l78 -3v67q0 174 -7 241q11 0 75.5 2.5t119.5 2.5q179 0 279.5 -96t100.5 -239zM573 360q0 121 -73.5 192t-207.5 71q-47 0 -87 -3q-1 -18 -1 -62v-163q81 0 150 3q-5 -38 -5 -85
q-84 2 -123 2h-22v-169q0 -36 1 -56q50 -5 90 -5q142 0 210 77t68 198z" />
    <glyph glyph-name="dcroat" unicode="&#x111;" horiz-adv-x="550" 
d="M278 474q64 0 107 -33l-1 96h-44q-42 0 -108 -2q3 29 3 76q71 -3 148 -3q0 55 -5 102q65 5 103 13q-4 -35 -4 -109v-5q27 0 71 2q-5 -33 -5 -76q-24 0 -66 2v-371q0 -102 7 -166h-85l-7 50q-23 -30 -62 -49t-79 -19q-96 0 -154 65.5t-58 163.5q0 111 68.5 187t170.5 76z
M280 394q-68 0 -108.5 -49.5t-40.5 -122.5q0 -77 39.5 -118.5t97.5 -41.5q37 0 69 19t48 51v220q-40 42 -105 42z" />
    <glyph glyph-name="Emacron" unicode="&#x112;" horiz-adv-x="545" 
d="M515 84q-5 -38 -7 -88q-75 5 -205 5q-131 0 -204 -5q7 67 7 245v221q0 180 -7 247q97 -5 197 -5q99 0 199 5q-6 -37 -8 -87q-118 2 -191 2q-62 0 -91 -1q-1 -19 -1 -61v-151l244 2q-3 -36 -3 -86l-241 2v-185q0 -43 1 -62q15 0 45.5 -0.5t45.5 -0.5q117 0 219 3zM459 885
q-5 -33 -5 -76q-80 2 -113 2h-76q-41 0 -109 -2q4 36 4 76q74 -3 149 -3q77 0 150 3z" />
    <glyph glyph-name="emacron" unicode="&#x113;" horiz-adv-x="500" 
d="M465 247l-60 -36l-273 -8q11 -140 144 -140q84 0 167 68l-4 -94q-82 -55 -172 -55q-110 0 -168.5 67t-58.5 167q0 110 64.5 184t168.5 74q97 0 144.5 -63t47.5 -164zM134 272l245 7q-8 59 -34 88.5t-77 29.5q-54 0 -89 -34.5t-45 -90.5zM418 655q-5 -33 -5 -76
q-80 2 -113 2h-76q-41 0 -109 -2q4 36 4 76q73 -3 149 -3t150 3z" />
    <glyph glyph-name="Ebreve" unicode="&#x114;" horiz-adv-x="545" 
d="M515 84q-5 -38 -7 -88q-75 5 -205 5q-131 0 -204 -5q7 67 7 245v221q0 180 -7 247q97 -5 197 -5q99 0 199 5q-6 -37 -8 -87q-118 2 -191 2q-62 0 -91 -1q-1 -19 -1 -61v-151l244 2q-3 -36 -3 -86l-241 2v-185q0 -43 1 -62q15 0 45.5 -0.5t45.5 -0.5q117 0 219 3zM384 922
l77 5q2 -75 -40 -118.5t-117 -43.5q-66 0 -109 43.5t-43 108.5l79 14q0 -47 20.5 -72.5t57.5 -25.5q38 0 56.5 25t18.5 64z" />
    <glyph glyph-name="ebreve" unicode="&#x115;" horiz-adv-x="500" 
d="M465 247l-60 -36l-273 -8q11 -140 144 -140q84 0 167 68l-4 -94q-82 -55 -172 -55q-110 0 -168.5 67t-58.5 167q0 110 64.5 184t168.5 74q97 0 144.5 -63t47.5 -164zM134 272l245 7q-8 59 -34 88.5t-77 29.5q-54 0 -89 -34.5t-45 -90.5zM343 692l77 5q2 -75 -40 -118.5
t-117 -43.5q-66 0 -109 43.5t-43 108.5l79 14q0 -47 20.5 -72.5t57.5 -25.5q38 0 56.5 25t18.5 64z" />
    <glyph glyph-name="Edotaccent" unicode="&#x116;" horiz-adv-x="545" 
d="M515 84q-5 -38 -7 -88q-75 5 -205 5q-131 0 -204 -5q7 67 7 245v221q0 180 -7 247q97 -5 197 -5q99 0 199 5q-6 -37 -8 -87q-118 2 -191 2q-62 0 -91 -1q-1 -19 -1 -61v-151l244 2q-3 -36 -3 -86l-241 2v-185q0 -43 1 -62q15 0 45.5 -0.5t45.5 -0.5q117 0 219 3zM366 852
q0 -27 -17 -46t-43 -19q-25 0 -41 17.5t-16 41.5q0 27 17 46t43 19q25 0 41 -18t16 -41z" />
    <glyph glyph-name="edotaccent" unicode="&#x117;" horiz-adv-x="500" 
d="M465 247l-60 -36l-273 -8q11 -140 144 -140q84 0 167 68l-4 -94q-82 -55 -172 -55q-110 0 -168.5 67t-58.5 167q0 110 64.5 184t168.5 74q97 0 144.5 -63t47.5 -164zM134 272l245 7q-8 59 -34 88.5t-77 29.5q-54 0 -89 -34.5t-45 -90.5zM325 622q0 -27 -17 -46t-43 -19
q-25 0 -41 17.5t-16 41.5q0 27 17 46t43 19q25 0 41 -18t16 -41z" />
    <glyph glyph-name="Eogonek" unicode="&#x118;" horiz-adv-x="545" 
d="M515 84q-5 -38 -7 -88q-113 -61 -113 -114q0 -19 12 -30.5t35 -11.5q29 0 62 21l-5 -62q-30 -20 -73 -20q-48 0 -76.5 24.5t-28.5 65.5q0 69 105 131q-40 1 -123 1q-131 0 -204 -5q7 67 7 245v221q0 180 -7 247q97 -5 197 -5q99 0 199 5q-6 -37 -8 -87q-118 2 -191 2
q-62 0 -91 -1q-1 -19 -1 -61v-151l244 2q-3 -36 -3 -86l-241 2v-185q0 -43 1 -62q15 0 45.5 -0.5t45.5 -0.5q117 0 219 3z" />
    <glyph glyph-name="eogonek" unicode="&#x119;" horiz-adv-x="500" 
d="M443 131l-4 -94q-151 -90 -151 -155q0 -19 12 -30.5t35 -11.5q29 0 62 21l-5 -62q-30 -20 -73 -20q-48 0 -76.5 24.5t-28.5 65.5q0 59 69 114q-5 -1 -16 -1q-110 0 -168.5 67t-58.5 167q0 110 64.5 184t168.5 74q97 0 144.5 -63t47.5 -164l-60 -36l-273 -8
q11 -140 144 -140q84 0 167 68zM134 272l245 7q-8 59 -34 88.5t-77 29.5q-54 0 -89 -34.5t-45 -90.5z" />
    <glyph glyph-name="Ecaron" unicode="&#x11a;" horiz-adv-x="545" 
d="M515 84q-5 -38 -7 -88q-75 5 -205 5q-131 0 -204 -5q7 67 7 245v221q0 180 -7 247q97 -5 197 -5q99 0 199 5q-6 -37 -8 -87q-118 2 -191 2q-62 0 -91 -1q-1 -19 -1 -61v-151l244 2q-3 -36 -3 -86l-241 2v-185q0 -43 1 -62q15 0 45.5 -0.5t45.5 -0.5q117 0 219 3zM362 772
h-115l-98 149l71 6l86 -94l83 89h77z" />
    <glyph glyph-name="ecaron" unicode="&#x11b;" horiz-adv-x="500" 
d="M465 247l-60 -36l-273 -8q11 -140 144 -140q84 0 167 68l-4 -94q-82 -55 -172 -55q-110 0 -168.5 67t-58.5 167q0 110 64.5 184t168.5 74q97 0 144.5 -63t47.5 -164zM134 272l245 7q-8 59 -34 88.5t-77 29.5q-54 0 -89 -34.5t-45 -90.5zM321 542h-115l-98 149l71 6
l86 -94l83 89h77z" />
    <glyph glyph-name="Gbreve" unicode="&#x11e;" horiz-adv-x="737" 
d="M665 56q-112 -74 -249 -74q-153 0 -257.5 104.5t-104.5 255.5q0 159 109.5 268.5t271.5 109.5q56 0 118 -18t104 -45l-28 -90q-36 29 -93.5 46.5t-110.5 17.5q-120 0 -195 -79t-75 -202q0 -129 78 -204.5t194 -75.5q81 0 142 32v125q0 42 -2 60q-30 1 -53 1
q-51 0 -136 -3q3 53 0 90q91 -3 136 -3q79 0 158 4q-7 -55 -7 -242v-78zM486 932l77 5q2 -75 -40 -118.5t-117 -43.5q-66 0 -109 43.5t-43 108.5l79 14q0 -47 20.5 -72.5t57.5 -25.5q38 0 56.5 25t18.5 64z" />
    <glyph glyph-name="gbreve" unicode="&#x11f;" horiz-adv-x="476" 
d="M430 312q0 -79 -56 -129.5t-141 -50.5q-29 0 -58 8q-33 -20 -33 -39t21.5 -26.5t80.5 -7.5h20q203 0 203 -119q0 -71 -72 -121.5t-180 -50.5q-93 0 -145.5 33.5t-52.5 85.5q0 73 99 119q-55 25 -55 67q0 46 63 84q-68 47 -68 130q0 75 55.5 127t138.5 52q40 0 77 -15
q31 87 134 73l-5 -81q-57 7 -78 -25q52 -49 52 -114zM247 -9q-35 0 -60 3q-84 -36 -84 -85q0 -26 30.5 -44t86.5 -18q72 0 116.5 25.5t44.5 62.5q0 56 -120 56h-14zM344 302q0 46 -26.5 73.5t-71.5 27.5t-74 -29.5t-29 -69.5q0 -48 26.5 -74.5t71.5 -26.5q46 0 74.5 28.5
t28.5 70.5zM318 692l77 5q2 -75 -40 -118.5t-117 -43.5q-66 0 -109 43.5t-43 108.5l79 14q0 -47 20.5 -72.5t57.5 -25.5q38 0 56.5 25t18.5 64z" />
    <glyph glyph-name="Gdotaccent" unicode="&#x120;" horiz-adv-x="737" 
d="M665 56q-112 -74 -249 -74q-153 0 -257.5 104.5t-104.5 255.5q0 159 109.5 268.5t271.5 109.5q56 0 118 -18t104 -45l-28 -90q-36 29 -93.5 46.5t-110.5 17.5q-120 0 -195 -79t-75 -202q0 -129 78 -204.5t194 -75.5q81 0 142 32v125q0 42 -2 60q-30 1 -53 1
q-51 0 -136 -3q3 53 0 90q91 -3 136 -3q79 0 158 4q-7 -55 -7 -242v-78zM468 862q0 -27 -17 -46t-43 -19q-25 0 -41 17.5t-16 41.5q0 27 17 46t43 19q25 0 41 -18t16 -41z" />
    <glyph glyph-name="gdotaccent" unicode="&#x121;" horiz-adv-x="476" 
d="M430 312q0 -79 -56 -129.5t-141 -50.5q-29 0 -58 8q-33 -20 -33 -39t21.5 -26.5t80.5 -7.5h20q203 0 203 -119q0 -71 -72 -121.5t-180 -50.5q-93 0 -145.5 33.5t-52.5 85.5q0 73 99 119q-55 25 -55 67q0 46 63 84q-68 47 -68 130q0 75 55.5 127t138.5 52q39 0 73 -13
q28 98 138 84l-5 -81q-63 7 -82 -34q56 -52 56 -118zM247 -9q-35 0 -60 3q-84 -36 -84 -85q0 -26 30.5 -44t86.5 -18q72 0 116.5 25.5t44.5 62.5q0 56 -120 56h-14zM344 302q0 46 -26.5 73.5t-71.5 27.5t-74 -29.5t-29 -69.5q0 -48 26.5 -74.5t71.5 -26.5q46 0 74.5 28.5
t28.5 70.5zM308 622q0 -27 -17 -46t-43 -19q-25 0 -41 17.5t-16 41.5q0 27 17 46t43 19q25 0 41 -18t16 -41z" />
    <glyph glyph-name="Gcommaaccent" unicode="&#x122;" horiz-adv-x="737" 
d="M665 56q-112 -74 -249 -74q-153 0 -257.5 104.5t-104.5 255.5q0 159 109.5 268.5t271.5 109.5q56 0 118 -18t104 -45l-28 -90q-36 29 -93.5 46.5t-110.5 17.5q-120 0 -195 -79t-75 -202q0 -129 78 -204.5t194 -75.5q81 0 142 32v125q0 42 -2 60q-30 1 -53 1
q-51 0 -136 -3q3 53 0 90q91 -3 136 -3q79 0 158 4q-7 -55 -7 -242v-78zM328 -231l30 20q37 25 37 57q0 25 -32 42l-13 7q15 49 62 49q24 0 41 -18t17 -46q0 -75 -118 -140z" />
    <glyph glyph-name="gcommaaccent" unicode="&#x123;" horiz-adv-x="476" 
d="M430 312q0 -79 -56 -129.5t-141 -50.5q-29 0 -58 8q-33 -20 -33 -39t21.5 -26.5t80.5 -7.5h20q203 0 203 -119q0 -71 -72 -121.5t-180 -50.5q-93 0 -145.5 33.5t-52.5 85.5q0 73 99 119q-55 25 -55 67q0 46 63 84q-68 47 -68 130q0 75 55.5 127t138.5 52q39 0 73 -13
q28 98 138 84l-5 -81q-63 7 -82 -34q56 -52 56 -118zM247 -9q-35 0 -60 3q-84 -36 -84 -85q0 -26 30.5 -44t86.5 -18q72 0 116.5 25.5t44.5 62.5q0 56 -120 56h-14zM344 302q0 46 -26.5 73.5t-71.5 27.5t-74 -29.5t-29 -69.5q0 -48 26.5 -74.5t71.5 -26.5q46 0 74.5 28.5
t28.5 70.5zM328 734l-30 -20q-37 -25 -37 -57q0 -25 32 -42l13 -7q-15 -49 -62 -49q-24 0 -41 18t-17 46q0 75 118 140z" />
    <glyph glyph-name="Hbar" unicode="&#x126;" horiz-adv-x="777" 
d="M677 0h-113q8 64 8 241v74h-367v-171q0 -107 4 -144h-111q7 67 7 241v221v44q-54 -2 -80 -2q3 32 3 72l76 -2q-2 91 -6 129q70 0 111 5q-4 -36 -4 -135q54 -1 182 -1q119 0 184 1q-2 81 -7 130q70 0 113 5q-5 -32 -5 -134l82 2q-5 -38 -5 -72q-12 0 -38 0.5t-39 0.5v-361
q0 -109 5 -144zM466 507h-261v-110h367v65v44q-19 0 -54.5 0.5t-51.5 0.5z" />
    <glyph glyph-name="hbar" unicode="&#x127;" horiz-adv-x="545" 
d="M478 0h-103q7 60 7 170v120q0 103 -80 103q-49 0 -93 -40t-44 -85v-171q0 -62 4 -97h-102q6 64 6 164v373q-52 -2 -71 -2q3 29 3 76l67 -3q-1 51 -5 102q65 6 102 13q-4 -35 -4 -109v-6q81 0 153 3q-5 -33 -5 -76q-78 2 -113 2h-35v-160q28 45 73 71t88 26q74 0 111 -43
t37 -123v-205q0 -51 4 -103z" />
    <glyph glyph-name="Imacron" unicode="&#x12a;" horiz-adv-x="318" 
d="M211 0h-108q7 67 7 241v221q0 174 -7 241q68 0 108 5q-3 -43 -3 -148v-416q0 -102 3 -144zM309 885q-5 -33 -5 -76q-80 2 -113 2h-76q-41 0 -109 -2q4 36 4 76q73 -3 149 -3q77 0 150 3z" />
    <glyph glyph-name="imacron" unicode="&#x12b;" horiz-adv-x="238" 
d="M169 0h-103q7 60 7 164v126q0 110 -7 170q53 0 103 5q-4 -35 -4 -107v-261q0 -62 4 -97zM269 655q-5 -33 -5 -76q-80 2 -113 2h-76q-41 0 -109 -2q4 36 4 76q74 -3 149 -3q77 0 150 3z" />
    <glyph glyph-name="Ibreve" unicode="&#x12c;" horiz-adv-x="318" 
d="M211 0h-108q7 67 7 241v221q0 174 -7 241q68 0 108 5q-3 -43 -3 -148v-416q0 -102 3 -144zM234 922l77 5q2 -75 -40 -118.5t-117 -43.5q-66 0 -109 43.5t-43 108.5l79 14q0 -47 20.5 -72.5t57.5 -25.5q38 0 56.5 25t18.5 64z" />
    <glyph glyph-name="ibreve" unicode="&#x12d;" horiz-adv-x="238" 
d="M169 0h-103q7 60 7 164v126q0 110 -7 170q53 0 103 5q-4 -35 -4 -107v-261q0 -62 4 -97zM194 692l77 5q2 -75 -40 -118.5t-117 -43.5q-66 0 -109 43.5t-43 108.5l79 14q0 -47 20.5 -72.5t57.5 -25.5q38 0 56.5 25t18.5 64z" />
    <glyph glyph-name="Iogonek" unicode="&#x12e;" horiz-adv-x="319" 
d="M49 -131q0 70 85 131h-31q7 67 7 241v221q0 174 -7 241q68 0 108 5q-3 -43 -3 -148v-416q0 -111 2 -141l4 -3q-91 -62 -91 -118q0 -19 12 -30.5t35 -11.5q29 0 62 21l-5 -62q-30 -20 -73 -20q-48 0 -76.5 24.5t-28.5 65.5z" />
    <glyph glyph-name="iogonek" unicode="&#x12f;" horiz-adv-x="238" 
d="M169 0q-89 -63 -89 -118q0 -19 12 -30.5t35 -11.5q29 0 62 21l-5 -62q-30 -20 -73 -20q-48 0 -76.5 24.5t-28.5 65.5q0 69 82 131h-22q7 60 7 164v126q0 110 -7 170q53 0 103 5q-4 -35 -4 -107v-261q0 -62 4 -97zM184 632q0 -27 -17.5 -46t-44.5 -19q-26 0 -42.5 17.5
t-16.5 41.5q0 27 17.5 46t44.5 19q25 0 42 -18t17 -41z" />
    <glyph glyph-name="Idotaccent" unicode="&#x130;" horiz-adv-x="318" 
d="M211 0h-108q7 67 7 241v221q0 174 -7 241q68 0 108 5q-3 -43 -3 -148v-416q0 -102 3 -144zM216 852q0 -27 -17 -46t-43 -19q-25 0 -41 17.5t-16 41.5q0 27 17 46t43 19q25 0 41 -18t16 -41z" />
    <glyph glyph-name="dotlessi" unicode="&#x131;" horiz-adv-x="238" 
d="M169 0h-103q7 60 7 164v126q0 110 -7 170q53 0 103 5q-4 -35 -4 -107v-261q0 -62 4 -97z" />
    <glyph glyph-name="Kcommaaccent" unicode="&#x136;" horiz-adv-x="648" 
d="M523 -8l-319 357v-205q0 -102 3 -144h-108q7 67 7 241v221q0 174 -7 241q68 0 108 5q-3 -43 -3 -148v-187l129 141q51 56 171 191h127l-321 -338l147 -162q68 -77 186 -205zM285 -231l30 20q37 25 37 57q0 25 -32 42l-13 7q15 49 62 49q24 0 41 -18t17 -46
q0 -75 -118 -140z" />
    <glyph glyph-name="kcommaaccent" unicode="&#x137;" horiz-adv-x="470" 
d="M374 -12l-209 240v-131q0 -64 4 -97h-103q7 60 7 163v382q0 105 -7 165q65 5 103 13q-4 -35 -4 -110v-355q14 17 85 101t89 108q73 0 117 4l-199 -219l43 -48q12 -13 78 -90t94 -106zM175 -231l30 20q37 25 37 57q0 25 -32 42l-13 7q15 49 62 49q24 0 41 -18t17 -46
q0 -75 -118 -140z" />
    <glyph glyph-name="Lacute" unicode="&#x139;" horiz-adv-x="532" 
d="M227 901l131 9l-161 -149l-63 -5zM515 86q-5 -38 -7 -90q-75 5 -205 5t-204 -5q7 67 7 245v221q0 174 -7 241q68 0 108 5q-3 -43 -3 -148v-414q0 -42 2 -62q14 0 44.5 -0.5t45.5 -0.5q117 0 219 3z" />
    <glyph glyph-name="lacute" unicode="&#x13a;" horiz-adv-x="238" 
d="M169 0h-103q7 60 7 164v381q0 105 -7 165q65 5 103 13q-4 -35 -4 -109v-517q0 -62 4 -97zM148 911l131 9l-161 -149l-63 -5z" />
    <glyph glyph-name="Lcommaaccent" unicode="&#x13b;" horiz-adv-x="532" 
d="M515 86q-5 -38 -7 -90q-75 5 -205 5t-204 -5q7 67 7 245v221q0 174 -7 241q68 0 108 5q-3 -43 -3 -148v-414q0 -42 2 -62q14 0 44.5 -0.5t45.5 -0.5q117 0 219 3zM221 -231l30 20q37 25 37 57q0 25 -32 42l-13 7q15 49 62 49q24 0 41 -18t17 -46q0 -75 -118 -140z" />
    <glyph glyph-name="lcommaaccent" unicode="&#x13c;" horiz-adv-x="238" 
d="M169 0h-103q7 60 7 164v381q0 105 -7 165q65 5 103 13q-4 -35 -4 -109v-517q0 -62 4 -97zM31 -231l30 20q37 25 37 57q0 25 -32 42l-13 7q15 49 62 49q24 0 41 -18t17 -46q0 -75 -118 -140z" />
    <glyph glyph-name="Lcaron" unicode="&#x13d;" horiz-adv-x="532" 
d="M328 538l-40 -9q8 98 8 166q17 3 76 11q-27 -116 -44 -168zM515 86q-5 -38 -7 -90q-75 5 -205 5t-204 -5q7 67 7 245v221q0 174 -7 241q68 0 108 5q-3 -43 -3 -148v-414q0 -42 2 -62q14 0 44.5 -0.5t45.5 -0.5q117 0 219 3z" />
    <glyph glyph-name="lcaron" unicode="&#x13e;" horiz-adv-x="238" 
d="M169 0h-103q7 60 7 164v381q0 105 -7 165q65 5 103 13q-4 -35 -4 -109v-517q0 -62 4 -97zM257 553l-40 -9q8 98 8 166q17 3 76 11q-27 -116 -44 -168z" />
    <glyph glyph-name="Ldot" unicode="&#x13f;" horiz-adv-x="532" 
d="M475 386q0 -27 -17 -46t-43 -19q-25 0 -41 17.5t-16 41.5q0 27 17 46t43 19q25 0 41 -18t16 -41zM515 86q-5 -38 -7 -90q-75 5 -205 5t-204 -5q7 67 7 245v221q0 174 -7 241q68 0 108 5q-3 -43 -3 -148v-414q0 -42 2 -62q14 0 44.5 -0.5t45.5 -0.5q117 0 219 3z" />
    <glyph glyph-name="ldot" unicode="&#x140;" horiz-adv-x="354" 
d="M169 0h-103q7 60 7 164v381q0 105 -7 165q65 5 103 13q-4 -35 -4 -109v-517q0 -62 4 -97zM349 351q0 -27 -17 -46t-43 -19q-25 0 -41 17.5t-16 41.5q0 27 17 46t43 19q25 0 41 -18t16 -41z" />
    <glyph glyph-name="Lslash" unicode="&#x141;" horiz-adv-x="532" 
d="M515 86q-5 -38 -7 -90q-75 5 -205 5t-204 -5q7 67 7 245v54q-12 -7 -33.5 -20t-31.5 -19q-5 13 -38 73q12 6 103 55v78q0 174 -7 241q68 0 108 5q-3 -43 -3 -148v-121l116 69q8 -23 36 -73q-10 -5 -66.5 -36.5t-85.5 -47.5v-205q0 -42 2 -62q14 0 44.5 -0.5t45.5 -0.5
q117 0 219 3z" />
    <glyph glyph-name="lslash" unicode="&#x142;" horiz-adv-x="238" 
d="M169 0h-103q7 60 7 164v133l-59 -34q-18 39 -36 67q13 7 95 51v164q0 105 -7 165q65 5 103 13q-4 -35 -4 -109v-180l61 38q18 -39 36 -67q-46 -25 -97 -54v-254q0 -62 4 -97z" />
    <glyph glyph-name="Nacute" unicode="&#x143;" horiz-adv-x="785" 
d="M90 0q9 76 12 241l4 240q2 155 -4 232l26 7l462 -535v277q0 177 -8 241q68 0 111 5q-5 -37 -8 -148l-7 -422q-1 -27 -0.5 -78t2.5 -70l-26 -7l-458 527v-366q0 -107 4 -144h-110zM435 911l131 9l-161 -149l-63 -5z" />
    <glyph glyph-name="nacute" unicode="&#x144;" horiz-adv-x="545" 
d="M478 0h-103q7 60 7 170v120q0 103 -80 103q-49 0 -93 -40t-44 -85v-165q0 -68 4 -103h-102q6 64 6 170v120q0 106 -6 170q40 0 90 5l7 -89q28 45 73 71.5t89 26.5q74 0 111 -43t37 -123v-205q0 -51 4 -103zM319 681l131 9l-161 -149l-63 -5z" />
    <glyph glyph-name="Ncommaaccent" unicode="&#x145;" horiz-adv-x="785" 
d="M90 0q9 76 12 241l4 240q2 155 -4 232l26 7l462 -535v277q0 177 -8 241q68 0 111 5q-5 -37 -8 -148l-7 -422q-1 -27 -0.5 -78t2.5 -70l-26 -7l-458 527v-366q0 -107 4 -144h-110zM308 -231l30 20q37 25 37 57q0 25 -32 42l-13 7q15 49 62 49q24 0 41 -18t17 -46
q0 -75 -118 -140z" />
    <glyph glyph-name="ncommaaccent" unicode="&#x146;" horiz-adv-x="545" 
d="M478 0h-103q7 60 7 170v120q0 103 -80 103q-49 0 -93 -40t-44 -85v-165q0 -68 4 -103h-102q6 64 6 170v120q0 106 -6 170q40 0 90 5l7 -89q28 45 73 71.5t89 26.5q74 0 111 -43t37 -123v-205q0 -51 4 -103zM192 -231l30 20q37 25 37 57q0 25 -32 42l-13 7q15 49 62 49
q24 0 41 -18t17 -46q0 -75 -118 -140z" />
    <glyph glyph-name="Ncaron" unicode="&#x147;" horiz-adv-x="785" 
d="M90 0q9 76 12 241l4 240q2 155 -4 232l26 7l462 -535v277q0 177 -8 241q68 0 111 5q-5 -37 -8 -148l-7 -422q-1 -27 -0.5 -78t2.5 -70l-26 -7l-458 527v-366q0 -107 4 -144h-110zM449 772h-115l-98 149l71 6l86 -94l83 89h77z" />
    <glyph glyph-name="ncaron" unicode="&#x148;" horiz-adv-x="545" 
d="M478 0h-103q7 60 7 170v120q0 103 -80 103q-49 0 -93 -40t-44 -85v-165q0 -68 4 -103h-102q6 64 6 170v120q0 106 -6 170q40 0 90 5l7 -89q28 45 73 71.5t89 26.5q74 0 111 -43t37 -123v-205q0 -51 4 -103zM333 542h-115l-98 149l71 6l86 -94l83 89h77z" />
    <glyph glyph-name="Omacron" unicode="&#x14c;" horiz-adv-x="811" 
d="M404 65q110 0 181 84t71 202q0 130 -70 208t-179 78q-110 0 -181 -84t-71 -202q0 -130 70 -208t179 -78zM396 -18q-150 0 -246 103t-96 248q0 164 101.5 275.5t259.5 111.5q150 0 246 -103t96 -248q0 -164 -101.5 -275.5t-259.5 -111.5zM557 895q-5 -33 -5 -76
q-80 2 -113 2h-76q-41 0 -109 -2q4 36 4 76q74 -3 149 -3q77 0 150 3z" />
    <glyph glyph-name="omacron" unicode="&#x14d;" horiz-adv-x="538" 
d="M498 240q0 -110 -65.5 -184t-170.5 -74q-99 0 -160.5 68.5t-61.5 165.5q0 110 65 184t170 74q100 0 161.5 -68.5t61.5 -165.5zM407 227q0 78 -38.5 122t-97.5 44q-63 0 -101.5 -46.5t-38.5 -115.5q0 -82 36.5 -125t99.5 -43q64 0 102 47t38 117zM421 655q-5 -33 -5 -76
q-80 2 -113 2h-76q-41 0 -109 -2q4 36 4 76q74 -3 149 -3q77 0 150 3z" />
    <glyph glyph-name="Obreve" unicode="&#x14e;" horiz-adv-x="811" 
d="M404 65q110 0 181 84t71 202q0 130 -70 208t-179 78q-110 0 -181 -84t-71 -202q0 -130 70 -208t179 -78zM396 -18q-150 0 -246 103t-96 248q0 164 101.5 275.5t259.5 111.5q150 0 246 -103t96 -248q0 -164 -101.5 -275.5t-259.5 -111.5zM482 932l77 5q2 -75 -40 -118.5
t-117 -43.5q-66 0 -109 43.5t-43 108.5l79 14q0 -47 20.5 -72.5t57.5 -25.5q38 0 56.5 25t18.5 64z" />
    <glyph glyph-name="obreve" unicode="&#x14f;" horiz-adv-x="538" 
d="M498 240q0 -110 -65.5 -184t-170.5 -74q-99 0 -160.5 68.5t-61.5 165.5q0 110 65 184t170 74q100 0 161.5 -68.5t61.5 -165.5zM407 227q0 78 -38.5 122t-97.5 44q-63 0 -101.5 -46.5t-38.5 -115.5q0 -82 36.5 -125t99.5 -43q64 0 102 47t38 117zM346 692l77 5
q2 -75 -40 -118.5t-117 -43.5q-66 0 -109 43.5t-43 108.5l79 14q0 -47 20.5 -72.5t57.5 -25.5q38 0 56.5 25t18.5 64z" />
    <glyph glyph-name="Ohungarumlaut" unicode="&#x150;" horiz-adv-x="811" 
d="M404 65q110 0 181 84t71 202q0 130 -70 208t-179 78q-110 0 -181 -84t-71 -202q0 -130 70 -208t179 -78zM396 -18q-150 0 -246 103t-96 248q0 164 101.5 275.5t259.5 111.5q150 0 246 -103t96 -248q0 -164 -101.5 -275.5t-259.5 -111.5zM342 926l116 9l-99 -156l-66 -3z
M506 928l121 11l-111 -158l-66 -3z" />
    <glyph glyph-name="ohungarumlaut" unicode="&#x151;" horiz-adv-x="538" 
d="M498 240q0 -110 -65.5 -184t-170.5 -74q-99 0 -160.5 68.5t-61.5 165.5q0 110 65 184t170 74q100 0 161.5 -68.5t61.5 -165.5zM407 227q0 78 -38.5 122t-97.5 44q-63 0 -101.5 -46.5t-38.5 -115.5q0 -82 36.5 -125t99.5 -43q64 0 102 47t38 117zM206 686l116 9l-99 -156
l-66 -3zM370 688l121 11l-111 -158l-66 -3z" />
    <glyph glyph-name="OE" unicode="&#x152;" horiz-adv-x="937" 
d="M404 -2q-142 0 -245.5 101t-103.5 243q0 160 108 262t261 102q28 0 127.5 -1t136.5 -1q99 0 199 5q-6 -37 -8 -89q-118 2 -191 2q-60 0 -89 -1q-2 -18 -2 -59v-151l243 2q-3 -38 -3 -86l-240 2v-185q0 -42 2 -60q14 0 44 -0.5t45 -0.5q117 0 219 3q-5 -40 -7 -90
q-75 5 -205 5q-37 0 -150 -1.5t-141 -1.5zM414 87q58 0 80 2q3 78 3 148v231q0 93 -2 145q-26 3 -65 3q-122 0 -197.5 -70.5t-75.5 -179.5q0 -127 72.5 -203t184.5 -76z" />
    <glyph glyph-name="oe" unicode="&#x153;" horiz-adv-x="868" 
d="M833 247l-60 -36l-273 -8q11 -140 144 -140q84 0 167 68l-4 -94q-83 -55 -172 -55q-134 0 -191 102q-64 -102 -185 -102q-99 0 -159 68.5t-60 165.5q0 111 64 184.5t168 73.5q61 0 107.5 -28t73.5 -77q62 105 188 105q97 0 144.5 -63t47.5 -164zM402 227q0 78 -37.5 122
t-96.5 44q-62 0 -100 -46.5t-38 -115.5q0 -82 35.5 -125t98.5 -43q64 0 101 46.5t37 117.5zM502 272l245 7q-8 59 -34 88.5t-77 29.5q-54 0 -89 -34.5t-45 -90.5z" />
    <glyph glyph-name="Racute" unicode="&#x154;" horiz-adv-x="633" 
d="M611 6l-116 -13l-181 284h-111v-133q0 -102 3 -144h-108q7 67 7 241v221q0 174 -7 241q21 0 95.5 2.5t88.5 2.5q126 2 198.5 -57.5t70.5 -146.5q-4 -140 -148 -204l103 -151q80 -112 105 -143zM203 359h105q65 0 103.5 38t38.5 94q0 132 -158 132q-48 0 -89 -3v-261z
M344 911l131 9l-161 -149l-63 -5z" />
    <glyph glyph-name="racute" unicode="&#x155;" horiz-adv-x="340" 
d="M326 474l-12 -106q-53 10 -101 -16.5t-48 -76.5v-172q0 -68 4 -103h-102q6 52 6 170v140q0 85 -10 144q43 1 91 13l10 -91q28 46 66.5 68.5t95.5 29.5zM235 681l131 9l-161 -149l-63 -5z" />
    <glyph glyph-name="Rcommaaccent" unicode="&#x156;" horiz-adv-x="633" 
d="M611 6l-116 -13l-181 284h-111v-133q0 -102 3 -144h-108q7 67 7 241v221q0 174 -7 241q21 0 95.5 2.5t88.5 2.5q126 2 198.5 -57.5t70.5 -146.5q-4 -140 -148 -204l103 -151q80 -112 105 -143zM203 359h105q65 0 103.5 38t38.5 94q0 132 -158 132q-48 0 -89 -3v-261z
M243 -231l30 20q37 25 37 57q0 25 -32 42l-13 7q15 49 62 49q24 0 41 -18t17 -46q0 -75 -118 -140z" />
    <glyph glyph-name="rcommaaccent" unicode="&#x157;" horiz-adv-x="340" 
d="M326 474l-12 -106q-53 10 -101 -16.5t-48 -76.5v-172q0 -68 4 -103h-102q6 52 6 170v140q0 85 -10 144q43 1 91 13l10 -91q28 46 66.5 68.5t95.5 29.5zM38 -231l30 20q37 25 37 57q0 25 -32 42l-13 7q15 49 62 49q24 0 41 -18t17 -46q0 -75 -118 -140z" />
    <glyph glyph-name="Rcaron" unicode="&#x158;" horiz-adv-x="633" 
d="M611 6l-116 -13l-181 284h-111v-133q0 -102 3 -144h-108q7 67 7 241v221q0 174 -7 241q21 0 95.5 2.5t88.5 2.5q126 2 198.5 -57.5t70.5 -146.5q-4 -140 -148 -204l103 -151q80 -112 105 -143zM203 359h105q65 0 103.5 38t38.5 94q0 132 -158 132q-48 0 -89 -3v-261z
M358 772h-115l-98 149l71 6l86 -94l83 89h77z" />
    <glyph glyph-name="rcaron" unicode="&#x159;" horiz-adv-x="340" 
d="M326 474l-12 -106q-53 10 -101 -16.5t-48 -76.5v-172q0 -68 4 -103h-102q6 52 6 170v140q0 85 -10 144q43 1 91 13l10 -91q28 46 66.5 68.5t95.5 29.5zM249 542h-115l-98 149l71 6l86 -94l83 89h77z" />
    <glyph glyph-name="Sacute" unicode="&#x15a;" horiz-adv-x="528" 
d="M478 197q0 -93 -63.5 -154t-169.5 -61q-48 0 -102.5 16.5t-94.5 42.5l6 104q33 -30 88.5 -52.5t108.5 -22.5q59 0 94 29.5t35 84.5q0 38 -31.5 69t-76 55.5t-89 50.5t-76 66.5t-31.5 91.5q0 86 62.5 144.5t158.5 58.5q93 0 163 -52l-32 -86q-26 21 -64 35.5t-71 14.5
q-53 0 -86 -28.5t-33 -74.5q0 -35 31.5 -63.5t76 -51.5t89 -49.5t76 -69.5t31.5 -98zM332 921l131 9l-161 -149l-63 -5z" />
    <glyph glyph-name="sacute" unicode="&#x15b;" horiz-adv-x="415" 
d="M220 474q83 0 144 -38l-31 -80q-50 37 -113 37q-78 0 -78 -56q0 -20 24.5 -35t59 -27t69.5 -27.5t59.5 -44t24.5 -68.5q0 -69 -52.5 -111t-128.5 -42q-39 0 -85 11.5t-73 29.5l5 95q30 -24 73 -39.5t82 -15.5q40 0 64.5 15t24.5 42q0 25 -24.5 42.5t-59 29.5t-69 27
t-59 44t-24.5 70q0 59 47 100t120 41zM263 681l131 9l-161 -149l-63 -5z" />
    <glyph glyph-name="Scedilla" unicode="&#x15e;" horiz-adv-x="528" 
d="M478 197q0 -84 -52.5 -142.5t-143.5 -69.5l-15 -54q103 -29 103 -93q0 -34 -30 -59t-81 -25q-38 0 -85 14l13 58q42 -15 79 -15q38 0 38 25q0 28 -91 50l-5 4q3 9 25 92q-102 5 -185 59l6 104q33 -30 88.5 -52.5t108.5 -22.5q59 0 94 29.5t35 84.5q0 38 -31.5 69
t-76 55.5t-89 50.5t-76 66.5t-31.5 91.5q0 86 62.5 144.5t158.5 58.5q93 0 163 -52l-32 -86q-26 21 -64 35.5t-71 14.5q-53 0 -86 -28.5t-33 -74.5q0 -35 31.5 -63.5t76 -51.5t89 -49.5t76 -69.5t31.5 -98z" />
    <glyph glyph-name="scedilla" unicode="&#x15f;" horiz-adv-x="415" 
d="M220 474q83 0 144 -38l-31 -80q-50 37 -113 37q-78 0 -78 -56q0 -20 24.5 -35t59 -27t69.5 -27.5t59.5 -44t24.5 -68.5q0 -61 -41 -101t-105 -49l-15 -54q103 -29 103 -93q0 -34 -30 -59t-81 -25q-38 0 -85 14l13 58q42 -15 79 -15q38 0 38 25q0 28 -91 50l-5 4
q5 14 25 93q-92 4 -144 40l5 95q30 -24 73 -39.5t82 -15.5q40 0 64.5 15t24.5 42q0 25 -24.5 42.5t-59 29.5t-69 27t-59 44t-24.5 70q0 59 47 100t120 41z" />
    <glyph glyph-name="Scaron" unicode="&#x160;" horiz-adv-x="528" 
d="M478 197q0 -93 -63.5 -154t-169.5 -61q-48 0 -102.5 16.5t-94.5 42.5l6 104q33 -30 88.5 -52.5t108.5 -22.5q59 0 94 29.5t35 84.5q0 38 -31.5 69t-76 55.5t-89 50.5t-76 66.5t-31.5 91.5q0 86 62.5 144.5t158.5 58.5q93 0 163 -52l-32 -86q-26 21 -64 35.5t-71 14.5
q-53 0 -86 -28.5t-33 -74.5q0 -35 31.5 -63.5t76 -51.5t89 -49.5t76 -69.5t31.5 -98zM346 782h-115l-98 149l71 6l86 -94l83 89h77z" />
    <glyph glyph-name="scaron" unicode="&#x161;" horiz-adv-x="415" 
d="M220 474q83 0 144 -38l-31 -80q-50 37 -113 37q-78 0 -78 -56q0 -20 24.5 -35t59 -27t69.5 -27.5t59.5 -44t24.5 -68.5q0 -69 -52.5 -111t-128.5 -42q-39 0 -85 11.5t-73 29.5l5 95q30 -24 73 -39.5t82 -15.5q40 0 64.5 15t24.5 42q0 25 -24.5 42.5t-59 29.5t-69 27
t-59 44t-24.5 70q0 59 47 100t120 41zM277 542h-115l-98 149l71 6l86 -94l83 89h77z" />
    <glyph glyph-name="Tcommaaccent" unicode="&#x162;" horiz-adv-x="642" 
d="M611 709q-6 -37 -8 -89q-154 2 -234 2q-1 -22 -1 -65v-413q0 -102 3 -144h-108q7 67 7 241v217q0 108 -2 164q-85 0 -237 -2q4 33 4 89q150 -5 284 -5q139 0 292 5zM235 -231l30 20q37 25 37 57q0 25 -32 42l-13 7q15 49 62 49q24 0 41 -18t17 -46q0 -75 -118 -140z" />
    <glyph glyph-name="Tcommaaccent" unicode="&#x21a;" horiz-adv-x="642" 
d="M611 709q-6 -37 -8 -89q-154 2 -234 2q-1 -22 -1 -65v-413q0 -102 3 -144h-108q7 67 7 241v217q0 108 -2 164q-85 0 -237 -2q4 33 4 89q150 -5 284 -5q139 0 292 5zM235 -231l30 20q37 25 37 57q0 25 -32 42l-13 7q15 49 62 49q24 0 41 -18t17 -46q0 -75 -118 -140z" />
    <glyph glyph-name="tcommaaccent" unicode="&#x163;" horiz-adv-x="349" 
d="M318 92l-4 -80q-32 -26 -91 -26q-123 0 -123 136v262h-83l24 80h60l9 98l82 22v-120h123q-3 -33 -3 -80h-120v-256q0 -34 12 -47t39 -13q38 0 75 24zM129 -231l30 20q37 25 37 57q0 25 -32 42l-13 7q15 49 62 49q24 0 41 -18t17 -46q0 -75 -118 -140z" />
    <glyph glyph-name="tcommaaccent" unicode="&#x21b;" horiz-adv-x="349" 
d="M318 92l-4 -80q-32 -26 -91 -26q-123 0 -123 136v262h-83l24 80h60l9 98l82 22v-120h123q-3 -33 -3 -80h-120v-256q0 -34 12 -47t39 -13q38 0 75 24zM129 -231l30 20q37 25 37 57q0 25 -32 42l-13 7q15 49 62 49q24 0 41 -18t17 -46q0 -75 -118 -140z" />
    <glyph glyph-name="Tcaron" unicode="&#x164;" horiz-adv-x="642" 
d="M611 709q-6 -37 -8 -89q-154 2 -234 2q-1 -22 -1 -65v-413q0 -102 3 -144h-108q7 67 7 241v217q0 108 -2 164q-85 0 -237 -2q4 33 4 89q150 -5 284 -5q139 0 292 5zM376 772h-115l-98 149l71 6l86 -94l83 89h77z" />
    <glyph glyph-name="tcaron" unicode="&#x165;" horiz-adv-x="349" 
d="M323 92l-4 -80q-32 -26 -91 -26q-123 0 -123 136v262h-83l24 80h60l9 98l82 22v-120h123q-3 -33 -3 -80h-120v-256q0 -34 12 -47t39 -13q38 0 75 24zM294 553l-40 -9q8 98 8 166q17 3 76 11q-27 -116 -44 -168z" />
    <glyph glyph-name="Umacron" unicode="&#x16a;" horiz-adv-x="756" 
d="M666 708q-5 -36 -5 -148v-268q0 -85 -18.5 -137t-58.5 -92q-81 -81 -221 -81q-119 0 -193.5 70t-74.5 188v222q0 174 -7 241q68 0 109 5q-4 -39 -4 -148v-288q0 -203 189 -203q85 0 133 49t48 133v211q0 177 -8 241q69 0 111 5zM529 885q-5 -33 -5 -76q-80 2 -113 2h-76
q-41 0 -109 -2q4 36 4 76q74 -3 149 -3q77 0 150 3z" />
    <glyph glyph-name="umacron" unicode="&#x16b;" horiz-adv-x="545" 
d="M479 0h-85l-11 72q-26 -43 -70 -66.5t-80 -23.5q-162 0 -162 179v129q0 106 -6 170q52 0 102 5q-4 -35 -4 -107v-179q0 -59 21.5 -87.5t72.5 -28.5q39 0 81 34.5t42 76.5v116q0 110 -7 170q54 0 104 5q-5 -43 -5 -107v-192q0 -102 7 -166zM424 655q-5 -33 -5 -76
q-80 2 -113 2h-76q-41 0 -109 -2q4 36 4 76q74 -3 149 -3q76 0 150 3z" />
    <glyph glyph-name="Ubreve" unicode="&#x16c;" horiz-adv-x="756" 
d="M666 708q-5 -36 -5 -148v-268q0 -85 -18.5 -137t-58.5 -92q-81 -81 -221 -81q-119 0 -193.5 70t-74.5 188v222q0 174 -7 241q68 0 109 5q-4 -39 -4 -148v-288q0 -203 189 -203q85 0 133 49t48 133v211q0 177 -8 241q69 0 111 5zM454 922l77 5q2 -75 -40 -118.5
t-117 -43.5q-66 0 -109 43.5t-43 108.5l79 14q0 -47 20.5 -72.5t57.5 -25.5q38 0 56.5 25t18.5 64z" />
    <glyph glyph-name="ubreve" unicode="&#x16d;" horiz-adv-x="545" 
d="M479 0h-85l-11 72q-26 -43 -70 -66.5t-80 -23.5q-162 0 -162 179v129q0 106 -6 170q52 0 102 5q-4 -35 -4 -107v-179q0 -59 21.5 -87.5t72.5 -28.5q39 0 81 34.5t42 76.5v116q0 110 -7 170q54 0 104 5q-5 -43 -5 -107v-192q0 -102 7 -166zM349 692l77 5q2 -75 -40 -118.5
t-117 -43.5q-66 0 -109 43.5t-43 108.5l79 14q0 -47 20.5 -72.5t57.5 -25.5q38 0 56.5 25t18.5 64z" />
    <glyph glyph-name="Uring" unicode="&#x16e;" horiz-adv-x="756" 
d="M666 708q-5 -36 -5 -148v-268q0 -85 -18.5 -137t-58.5 -92q-81 -81 -221 -81q-119 0 -193.5 70t-74.5 188v222q0 174 -7 241q68 0 109 5q-4 -39 -4 -148v-288q0 -203 189 -203q85 0 133 49t48 133v211q0 177 -8 241q69 0 111 5zM496 883q0 -49 -33.5 -83t-87.5 -34
q-52 0 -84 31t-32 75q0 50 33.5 82.5t87.5 32.5q52 0 84 -30t32 -74zM432 876q0 27 -14 43t-40 16t-40.5 -16t-14.5 -40q0 -26 15 -43t39 -17q26 0 40.5 16.5t14.5 40.5z" />
    <glyph glyph-name="uring" unicode="&#x16f;" horiz-adv-x="545" 
d="M479 0h-85l-11 72q-26 -43 -70 -66.5t-80 -23.5q-162 0 -162 179v129q0 106 -6 170q52 0 102 5q-4 -35 -4 -107v-179q0 -59 21.5 -87.5t72.5 -28.5q39 0 81 34.5t42 76.5v116q0 110 -7 170q54 0 104 5q-5 -43 -5 -107v-192q0 -102 7 -166zM391 653q0 -49 -33.5 -83
t-87.5 -34q-52 0 -84 31t-32 75q0 50 33.5 82.5t87.5 32.5q52 0 84 -30t32 -74zM327 646q0 27 -14 43t-40 16t-40.5 -16t-14.5 -40q0 -26 15 -43t39 -17q26 0 40.5 16.5t14.5 40.5z" />
    <glyph glyph-name="Uhungarumlaut" unicode="&#x170;" horiz-adv-x="756" 
d="M666 708q-5 -36 -5 -148v-268q0 -85 -18.5 -137t-58.5 -92q-81 -81 -221 -81q-119 0 -193.5 70t-74.5 188v222q0 174 -7 241q68 0 109 5q-4 -39 -4 -148v-288q0 -203 189 -203q85 0 133 49t48 133v211q0 177 -8 241q69 0 111 5zM314 916l116 9l-99 -156l-66 -3zM478 918
l121 11l-111 -158l-66 -3z" />
    <glyph glyph-name="uhungarumlaut" unicode="&#x171;" horiz-adv-x="545" 
d="M479 0h-85l-11 72q-26 -43 -70 -66.5t-80 -23.5q-162 0 -162 179v129q0 106 -6 170q52 0 102 5q-4 -35 -4 -107v-179q0 -59 21.5 -87.5t72.5 -28.5q39 0 81 34.5t42 76.5v116q0 110 -7 170q54 0 104 5q-5 -43 -5 -107v-192q0 -102 7 -166zM209 686l116 9l-99 -156l-66 -3
zM373 688l121 11l-111 -158l-66 -3z" />
    <glyph glyph-name="Uogonek" unicode="&#x172;" horiz-adv-x="756" 
d="M399 -221q-48 0 -76.5 24.5t-28.5 65.5q0 59 78 113h-9q-119 0 -193.5 70t-74.5 188v222q0 174 -7 241q70 0 111 5q-4 -39 -4 -148v-287q0 -202 187 -202q85 0 132.5 48t47.5 132v211q0 177 -8 241q70 0 113 5q-5 -36 -5 -148v-267q0 -86 -18 -137.5t-59 -92.5
q-40 -40 -94 -62q-123 -51 -123 -119q0 -19 12 -30.5t35 -11.5q29 0 62 21l-5 -62q-30 -20 -73 -20z" />
    <glyph glyph-name="uogonek" unicode="&#x173;" horiz-adv-x="545" 
d="M479 0q-113 -63 -113 -118q0 -19 12 -30.5t35 -11.5q29 0 62 21l-5 -62q-30 -20 -73 -20q-48 0 -76.5 24.5t-28.5 65.5q0 70 102 132l-11 71q-26 -43 -70 -66.5t-80 -23.5q-162 0 -162 179v129q0 106 -6 170q52 0 102 5q-4 -35 -4 -107v-179q0 -59 21.5 -87.5t72.5 -28.5
q39 0 81 34.5t42 76.5v116q0 110 -7 170q54 0 104 5q-5 -43 -5 -107v-192q0 -102 7 -166z" />
    <glyph glyph-name="Wcircumflex" unicode="&#x174;" horiz-adv-x="990" 
d="M984 702l-194 -512q-60 -161 -73 -201l-24 -7l-195 519l-123 -316q-8 -21 -35.5 -89.5t-44.5 -113.5h-24l-187 515q-47 131 -78 204l106 8l178 -516l125 327l71 192l25 7l193 -524l110 316q38 115 62 191h108zM449 921h115l96 -152l-68 -6l-87 97l-82 -89h-80z" />
    <glyph glyph-name="wcircumflex" unicode="&#x175;" horiz-adv-x="706" 
d="M182 -11q-13 51 -55 169l-48 128q-47 126 -67 169l101 13l103 -317l45 130q38 108 60 181l67 6l113 -315l41 129q31 96 53 180q58 0 98 4l-164 -470l-59 -7q-24 83 -63 191l-53 142l-112 -326zM304 691h115l96 -152l-68 -6l-87 97l-82 -89h-80z" />
    <glyph glyph-name="Ycircumflex" unicode="&#x176;" horiz-adv-x="624" 
d="M6 704l110 8l199 -321l60 93q9 14 136 221h114l-262 -396v-165q0 -102 3 -144h-108q7 67 7 241v63l-106 164q-69 113 -153 236zM263 921h115l96 -152l-68 -6l-87 97l-82 -89h-80z" />
    <glyph glyph-name="ycircumflex" unicode="&#x177;" horiz-adv-x="468" 
d="M77 -212l115 262q-3 7 -18.5 47t-24.5 61l-58 128q-53 121 -79 169l103 13l124 -313l54 132q32 79 65 175q63 0 102 4l-224 -529q-4 -11 -16 -40t-23 -56t-18 -49q-62 0 -102 -4zM189 691h115l96 -152l-68 -6l-87 97l-82 -89h-80z" />
    <glyph glyph-name="Ydieresis" unicode="&#x178;" horiz-adv-x="624" 
d="M6 704l110 8l199 -321l60 93q9 14 136 221h114l-262 -396v-165q0 -102 3 -144h-108q7 67 7 241v63l-106 164q-69 113 -153 236zM464 852q0 -27 -17 -46t-43 -19q-25 0 -41 17.5t-16 41.5q0 27 17 46t43 19q25 0 41 -18t16 -41zM284 852q0 -27 -17 -46t-43 -19
q-25 0 -41 17.5t-16 41.5q0 27 17 46t43 19q25 0 41 -18t16 -41z" />
    <glyph glyph-name="Zacute" unicode="&#x179;" horiz-adv-x="634" 
d="M591 709l19 -18l-430 -609q19 0 66.5 -0.5t67.5 -0.5q174 0 274 3q-6 -36 -8 -88q-71 5 -258 5q-192 0 -278 -5l-20 19l430 608q-43 1 -128 1q-107 0 -257 -2q4 33 4 87q148 -5 254 -5q159 0 264 5zM381 911l131 9l-161 -149l-63 -5z" />
    <glyph glyph-name="zacute" unicode="&#x17a;" horiz-adv-x="459" 
d="M422 466l13 -23l-267 -366q190 0 258 2q-7 -38 -8 -84q-98 5 -191 5q-86 0 -186 -5l-13 23l266 368q-89 0 -241 -2q4 52 4 82q96 -3 164 -3q103 0 201 3zM285 681l131 9l-161 -149l-63 -5z" />
    <glyph glyph-name="Zdotaccent" unicode="&#x17b;" horiz-adv-x="634" 
d="M591 709l19 -18l-430 -609q19 0 66.5 -0.5t67.5 -0.5q174 0 274 3q-6 -36 -8 -88q-71 5 -258 5q-192 0 -278 -5l-20 19l430 608q-43 1 -128 1q-107 0 -257 -2q4 33 4 87q148 -5 254 -5q159 0 264 5zM399 852q0 -27 -17 -46t-43 -19q-25 0 -41 17.5t-16 41.5q0 27 17 46
t43 19q25 0 41 -18t16 -41z" />
    <glyph glyph-name="zdotaccent" unicode="&#x17c;" horiz-adv-x="459" 
d="M422 466l13 -23l-267 -366q190 0 258 2q-7 -38 -8 -84q-98 5 -191 5q-86 0 -186 -5l-13 23l266 368q-89 0 -241 -2q4 52 4 82q96 -3 164 -3q103 0 201 3zM303 622q0 -27 -17 -46t-43 -19q-25 0 -41 17.5t-16 41.5q0 27 17 46t43 19q25 0 41 -18t16 -41z" />
    <glyph glyph-name="Zcaron" unicode="&#x17d;" horiz-adv-x="634" 
d="M591 709l19 -18l-430 -609q19 0 66.5 -0.5t67.5 -0.5q174 0 274 3q-6 -36 -8 -88q-71 5 -258 5q-192 0 -278 -5l-20 19l430 608q-43 1 -128 1q-107 0 -257 -2q4 33 4 87q148 -5 254 -5q159 0 264 5zM395 772h-115l-98 149l71 6l86 -94l83 89h77z" />
    <glyph glyph-name="zcaron" unicode="&#x17e;" horiz-adv-x="459" 
d="M422 466l13 -23l-267 -366q190 0 258 2q-7 -38 -8 -84q-98 5 -191 5q-86 0 -186 -5l-13 23l266 368q-89 0 -241 -2q4 52 4 82q96 -3 164 -3q103 0 201 3zM299 542h-115l-98 149l71 6l86 -94l83 89h77z" />
    <glyph glyph-name="florin" unicode="&#x192;" horiz-adv-x="459" 
d="M373 387h-138l-35 -243q-8 -53 -17 -144h-101q23 125 42 241l22 146h-91l37 77h66l3 15q18 117 66 169t124 52q45 0 78 -16l-20 -78q-5 1 -17 4.5t-22 5.5t-20 2q-44 0 -65.5 -27.5t-34.5 -101.5l-4 -25h141q-9 -37 -14 -77z" />
    <glyph glyph-name="Aringacute" unicode="&#x1fa;" horiz-adv-x="701" 
d="M6 0l237 512q43 93 71 161q-39 9 -62 37.5t-23 65.5q0 50 33.5 82.5t87.5 32.5q52 0 84 -30t32 -74q0 -41 -24 -72t-65 -41l219 -470q60 -131 98 -204l-108 -8l-94 209h-296l-4 -10q-26 -61 -78 -191h-108zM344 533l-112 -252h224zM384 1098l131 9l-161 -149l-63 -5z
M402 780q0 27 -14 43t-40 16t-40.5 -16t-14.5 -40q0 -26 15 -43t39 -17q26 0 40.5 16.5t14.5 40.5z" />
    <glyph glyph-name="aringacute" unicode="&#x1fb;" horiz-adv-x="485" 
d="M180 -14q-66 0 -105.5 37t-39.5 99q0 71 63 113t180 42q13 0 39 -2l1 15q2 52 -21.5 77.5t-75.5 25.5q-68 0 -127 -44l-21 80q78 45 163 45q87 0 130.5 -48t41.5 -130l-6 -198q-1 -40 29 -40q16 0 40 8l-9 -64q-34 -14 -60 -14q-30 0 -52 20.5t-26 57.5q-21 -36 -59 -58
t-85 -22zM361 653q0 -49 -33.5 -83t-87.5 -34q-52 0 -84 31t-32 75q0 50 33.5 82.5t87.5 32.5q52 0 84 -30t32 -74zM200 60q48 0 80 31.5t34 79.5l2 45q-28 2 -41 2q-79 0 -115 -25t-36 -66q0 -67 76 -67zM279 964l131 9l-161 -149l-63 -5zM297 646q0 27 -14 43t-40 16
t-40.5 -16t-14.5 -40q0 -26 15 -43t39 -17q26 0 40.5 16.5t14.5 40.5z" />
    <glyph glyph-name="AEacute" unicode="&#x1fc;" horiz-adv-x="888" 
d="M-15 0l313 512q89 144 117 197q98 -5 224 -5q99 0 199 5q-6 -37 -8 -89q-118 2 -191 2q-60 0 -89 -1q-2 -18 -2 -59v-151l243 2q-3 -38 -3 -86l-240 2v-185q0 -42 2 -60q14 0 44 -0.5t45 -0.5q117 0 219 3q-5 -40 -7 -90q-75 5 -205 5q-131 0 -205 -5q5 47 7 203h-240
l-4 -7q-36 -60 -108 -192h-111zM448 468q0 78 -1 124l-190 -311h191v187zM598 911l131 9l-161 -149l-63 -5z" />
    <glyph glyph-name="aeacute" unicode="&#x1fd;" horiz-adv-x="770" 
d="M735 247l-60 -36l-268 -8q11 -140 141 -140q82 0 165 68l-4 -94q-83 -55 -170 -55q-134 0 -182 105q-58 -101 -171 -101q-67 0 -109 38t-42 100q0 69 60 110t173 41q8 0 26 -0.5t27 -0.5l1 15q5 104 -99 104q-70 0 -129 -44l-21 80q78 45 161 45q111 0 146 -84
q57 84 160 84q97 0 146 -63.5t49 -163.5zM198 60q51 0 84 39t36 95l1 21q-10 0 -28 0.5t-26 0.5q-141 0 -141 -87q0 -30 19 -49.5t55 -19.5zM409 272l240 7q-15 118 -112 118q-47 0 -82.5 -36t-45.5 -89zM426 681l131 9l-161 -149l-63 -5z" />
    <glyph glyph-name="Oslashacute" unicode="&#x1fe;" horiz-adv-x="810" 
d="M751 701q-32 -35 -82 -94q87 -100 87 -238q0 -164 -101.5 -275.5t-259.5 -111.5q-118 0 -204 66l-67 -79l-64 33q50 52 83 90q-89 98 -89 241q0 164 101.5 275.5t259.5 111.5q115 0 204 -66q50 57 69 84q37 -24 63 -37zM157 351q0 -110 50 -183l351 413q-65 54 -152 54
q-109 0 -179 -83t-70 -201zM404 67q109 0 179 82.5t70 201.5q0 103 -50 179l-351 -412q63 -51 152 -51zM446 921l131 9l-161 -149l-63 -5z" />
    <glyph glyph-name="oslashacute" unicode="&#x1ff;" horiz-adv-x="538" 
d="M510 452l-59 -64q47 -64 47 -148q0 -110 -65.5 -184t-170.5 -74q-76 0 -133 43q-6 -7 -25 -27t-29 -32l-48 35l61 65q-48 63 -48 150q0 110 65 184t170 74q77 0 135 -45l53 61q20 -20 47 -38zM130 231q0 -59 19 -97l203 231q-36 28 -81 28q-63 0 -102 -46.5t-39 -115.5z
M408 227q0 54 -20 92l-203 -231q32 -25 82 -25q64 0 102.5 47t38.5 117zM309 681l131 9l-161 -149l-63 -5z" />
    <glyph glyph-name="Scommaaccent" unicode="&#x218;" horiz-adv-x="528" 
d="M175 -231l30 20q37 25 37 57q0 25 -32 42l-13 7q15 49 62 49q24 0 41 -18t17 -46q0 -75 -118 -140zM478 197q0 -93 -63.5 -154t-169.5 -61q-48 0 -102.5 16.5t-94.5 42.5l6 104q33 -30 88.5 -52.5t108.5 -22.5q59 0 94 29.5t35 84.5q0 38 -31.5 69t-76 55.5t-89 50.5
t-76 66.5t-31.5 91.5q0 86 62.5 144.5t158.5 58.5q93 0 163 -52l-32 -86q-26 21 -64 35.5t-71 14.5q-53 0 -86 -28.5t-33 -74.5q0 -35 31.5 -63.5t76 -51.5t89 -49.5t76 -69.5t31.5 -98z" />
    <glyph glyph-name="scommaaccent" unicode="&#x219;" horiz-adv-x="415" 
d="M220 474q83 0 144 -38l-31 -80q-50 37 -113 37q-78 0 -78 -56q0 -20 24.5 -35t59 -27t69.5 -27.5t59.5 -44t24.5 -68.5q0 -69 -52.5 -111t-128.5 -42q-39 0 -85 11.5t-73 29.5l5 95q30 -24 73 -39.5t82 -15.5q40 0 64.5 15t24.5 42q0 25 -24.5 42.5t-59 29.5t-69 27
t-59 44t-24.5 70q0 59 47 100t120 41zM116 -231l30 20q37 25 37 57q0 25 -32 42l-13 7q15 49 62 49q24 0 41 -18t17 -46q0 -75 -118 -140z" />
    <glyph glyph-name="schwa" unicode="&#x259;" horiz-adv-x="500" 
d="M35 209l60 36l273 8q-11 140 -144 140q-84 0 -167 -68l4 94q82 55 172 55q110 0 168.5 -67t58.5 -167q0 -110 -64.5 -184t-168.5 -74q-97 0 -144.5 63t-47.5 164zM366 184l-245 -7q8 -59 34 -88.5t77 -29.5q54 0 89 34.5t45 90.5z" />
    <glyph glyph-name="circumflex" unicode="&#x2c6;" horiz-adv-x="411" 
d="M153 691h115l96 -152l-68 -6l-87 97l-82 -89h-80z" />
    <glyph glyph-name="caron" unicode="&#x2c7;" horiz-adv-x="411" 
d="M260 542h-115l-98 149l71 6l86 -94l83 89h77z" />
    <glyph glyph-name="breve" unicode="&#x2d8;" horiz-adv-x="385" 
d="M270 692l77 5q2 -75 -40 -118.5t-117 -43.5q-66 0 -109 43.5t-43 108.5l79 14q0 -47 20.5 -72.5t57.5 -25.5q38 0 56.5 25t18.5 64z" />
    <glyph glyph-name="dotaccent" unicode="&#x2d9;" horiz-adv-x="229" 
d="M173 622q0 -27 -17 -46t-43 -19q-25 0 -41 17.5t-16 41.5q0 27 17 46t43 19q25 0 41 -18t16 -41z" />
    <glyph glyph-name="ring" unicode="&#x2da;" horiz-adv-x="309" 
d="M273 653q0 -49 -33.5 -83t-87.5 -34q-52 0 -84 31t-32 75q0 50 33.5 82.5t87.5 32.5q52 0 84 -30t32 -74zM209 646q0 27 -14 43t-40 16t-40.5 -16t-14.5 -40q0 -26 15 -43t39 -17q26 0 40.5 16.5t14.5 40.5z" />
    <glyph glyph-name="ogonek" unicode="&#x2db;" horiz-adv-x="300" 
d="M220 48l9 -33q-113 -78 -113 -133q0 -19 12 -30.5t35 -11.5q29 0 62 21l-5 -62q-30 -20 -73 -20q-48 0 -76.5 24.5t-28.5 65.5q0 90 178 179z" />
    <glyph glyph-name="tilde" unicode="&#x2dc;" horiz-adv-x="410" 
d="M26 550q12 77 39 109t68 32q32 0 80.5 -36.5t63.5 -36.5q26 0 38 77l69 -10q-22 -146 -108 -146q-32 0 -81 36.5t-64 36.5q-14 0 -21.5 -15t-13.5 -57z" />
    <glyph glyph-name="hungarumlaut" unicode="&#x2dd;" horiz-adv-x="430" 
d="M116 686l116 9l-99 -156l-66 -3zM280 688l121 11l-111 -158l-66 -3z" />
    <glyph glyph-name="commaaccent" unicode="&#x326;" horiz-adv-x="233" 
d="M53 -231l30 20q37 25 37 57q0 25 -32 42l-13 7q15 49 62 49q24 0 41 -18t17 -46q0 -75 -118 -140z" />
    <glyph glyph-name="baht" unicode="&#xe3f;" horiz-adv-x="626" 
d="M310 -1h-134l-70 -135q-37 23 -72 34q44 85 66 123q5 95 5 215v215q0 171 -7 235q16 0 93 3t101 3q82 0 144 -30q4 8 32 61t43 84q56 -34 69 -39l-83 -153q38 -45 38 -101q0 -50 -29 -88t-78 -57q140 -46 140 -169q0 -85 -68 -143t-190 -58zM203 89q50 -5 100 -5
q77 0 121.5 30t44.5 89q0 53 -47 86t-138 33q-51 0 -82 -5v-177q0 -31 1 -51zM203 397q22 -1 73 -1q76 0 118.5 29.5t42.5 79.5t-39.5 75.5t-113.5 25.5q-21 0 -81 -3q-1 -14 -1 -54v-98q0 -41 1 -54z" />
    <glyph glyph-name="Wgrave" unicode="&#x1e80;" horiz-adv-x="990" 
d="M984 702l-194 -512q-60 -161 -73 -201l-24 -7l-195 519l-123 -316q-8 -21 -35.5 -89.5t-44.5 -113.5h-24l-187 515q-47 131 -78 204l106 8l178 -516l125 327l71 192l25 7l193 -524l110 316q38 115 62 191h108zM341 911l113 9l91 -149l-59 -5z" />
    <glyph glyph-name="wgrave" unicode="&#x1e81;" horiz-adv-x="706" 
d="M182 -11q-13 51 -55 169l-48 128q-47 126 -67 169l101 13l103 -317l45 130q38 108 60 181l67 6l113 -315l41 129q31 96 53 180q58 0 98 4l-164 -470l-59 -7q-24 83 -63 191l-53 142l-112 -326zM196 681l113 9l91 -149l-59 -5z" />
    <glyph glyph-name="Wacute" unicode="&#x1e82;" horiz-adv-x="990" 
d="M984 702l-194 -512q-60 -161 -73 -201l-24 -7l-195 519l-123 -316q-8 -21 -35.5 -89.5t-44.5 -113.5h-24l-187 515q-47 131 -78 204l106 8l178 -516l125 327l71 192l25 7l193 -524l110 316q38 115 62 191h108zM542 911l131 9l-161 -149l-63 -5z" />
    <glyph glyph-name="wacute" unicode="&#x1e83;" horiz-adv-x="706" 
d="M182 -11q-13 51 -55 169l-48 128q-47 126 -67 169l101 13l103 -317l45 130q38 108 60 181l67 6l113 -315l41 129q31 96 53 180q58 0 98 4l-164 -470l-59 -7q-24 83 -63 191l-53 142l-112 -326zM397 681l131 9l-161 -149l-63 -5z" />
    <glyph glyph-name="Wdieresis" unicode="&#x1e84;" horiz-adv-x="990" 
d="M984 702l-194 -512q-60 -161 -73 -201l-24 -7l-195 519l-123 -316q-8 -21 -35.5 -89.5t-44.5 -113.5h-24l-187 515q-47 131 -78 204l106 8l178 -516l125 327l71 192l25 7l193 -524l110 316q38 115 62 191h108zM470 852q0 -27 -17 -46t-43 -19q-25 0 -41 17.5t-16 41.5
q0 27 17 46t43 19q25 0 41 -18t16 -41zM650 852q0 -27 -17 -46t-43 -19q-25 0 -41 17.5t-16 41.5q0 27 17 46t43 19q25 0 41 -18t16 -41z" />
    <glyph glyph-name="wdieresis" unicode="&#x1e85;" horiz-adv-x="706" 
d="M182 -11q-13 51 -55 169l-48 128q-47 126 -67 169l101 13l103 -317l45 130q38 108 60 181l67 6l113 -315l41 129q31 96 53 180q58 0 98 4l-164 -470l-59 -7q-24 83 -63 191l-53 142l-112 -326zM325 622q0 -27 -17 -46t-43 -19q-25 0 -41 17.5t-16 41.5q0 27 17 46t43 19
q25 0 41 -18t16 -41zM505 622q0 -27 -17 -46t-43 -19q-25 0 -41 17.5t-16 41.5q0 27 17 46t43 19q25 0 41 -18t16 -41z" />
    <glyph glyph-name="Ygrave" unicode="&#x1ef2;" horiz-adv-x="624" 
d="M6 704l110 8l199 -321l60 93q9 14 136 221h114l-262 -396v-165q0 -102 3 -144h-108q7 67 7 241v63l-106 164q-69 113 -153 236zM155 911l113 9l91 -149l-59 -5z" />
    <glyph glyph-name="ygrave" unicode="&#x1ef3;" horiz-adv-x="468" 
d="M77 -212l115 262q-3 7 -18.5 47t-24.5 61l-58 128q-53 121 -79 169l103 13l124 -313l54 132q32 79 65 175q63 0 102 4l-224 -529q-4 -11 -16 -40t-23 -56t-18 -49q-62 0 -102 -4zM81 681l113 9l91 -149l-59 -5z" />
    <glyph glyph-name="enspace" unicode="&#x2002;" horiz-adv-x="500" 
 />
    <glyph glyph-name="emspace" unicode="&#x2003;" horiz-adv-x="1000" 
 />
    <glyph glyph-name="threeperemspace" unicode="&#x2004;" horiz-adv-x="333" 
 />
    <glyph glyph-name="fourperemspace" unicode="&#x2005;" horiz-adv-x="250" 
 />
    <glyph glyph-name="figurespace" unicode="&#x2007;" horiz-adv-x="560" 
 />
    <glyph glyph-name="thinspace" unicode="&#x2009;" horiz-adv-x="133" 
 />
    <glyph glyph-name="hairspace" unicode="&#x200a;" horiz-adv-x="75" 
 />
    <glyph glyph-name="endash" unicode="&#x2013;" horiz-adv-x="555" 
d="M490 315q-5 -33 -5 -76q-116 2 -166 2h-86q-54 0 -168 -2q3 29 3 76q102 -3 208 -3q112 0 214 3z" />
    <glyph glyph-name="emdash" unicode="&#x2014;" horiz-adv-x="1010" 
d="M945 315q-5 -33 -5 -76q-116 2 -199 2h-475q-87 0 -201 -2q3 29 3 76q102 -3 435 -3q340 0 442 3z" />
    <glyph glyph-name="quoteleft" unicode="&#x2018;" horiz-adv-x="225" 
d="M174 729l29 -47q-50 -30 -73 -57.5t-23 -60.5q0 -40 53 -67l16 -8q-22 -65 -75 -65q-32 0 -55 26t-23 69q0 109 151 210z" />
    <glyph glyph-name="quoteright" unicode="&#x2019;" horiz-adv-x="225" 
d="M51 415l-29 47q50 30 73 57.5t23 60.5q0 40 -53 67l-16 8q22 65 75 65q32 0 55 -26t23 -69q0 -109 -151 -210z" />
    <glyph glyph-name="quotesinglbase" unicode="&#x201a;" horiz-adv-x="225" 
d="M50 -192l-29 47q50 30 73 57.5t23 60.5q0 41 -53 67l-16 8q22 65 75 65q32 0 55 -26t23 -69q0 -109 -151 -210z" />
    <glyph glyph-name="quotedblleft" unicode="&#x201c;" horiz-adv-x="435" 
d="M384 729l29 -47q-50 -30 -73 -57.5t-23 -60.5q0 -40 53 -67l16 -8q-22 -65 -75 -65q-32 0 -55 26t-23 69q0 109 151 210zM174 729l29 -47q-50 -30 -73 -57.5t-23 -60.5q0 -40 53 -67l16 -8q-22 -65 -75 -65q-32 0 -55 26t-23 69q0 109 151 210z" />
    <glyph glyph-name="quotedblright" unicode="&#x201d;" horiz-adv-x="435" 
d="M51 415l-29 47q50 30 73 57.5t23 60.5q0 40 -53 67l-16 8q22 65 75 65q32 0 55 -26t23 -69q0 -109 -151 -210zM261 415l-29 47q50 30 73 57.5t23 60.5q0 40 -53 67l-16 8q22 65 75 65q32 0 55 -26t23 -69q0 -109 -151 -210z" />
    <glyph glyph-name="quotedblbase" unicode="&#x201e;" horiz-adv-x="435" 
d="M50 -192l-29 47q50 30 73 57.5t23 60.5q0 41 -53 67l-16 8q22 65 75 65q32 0 55 -26t23 -69q0 -109 -151 -210zM260 -192l-29 47q50 30 73 57.5t23 60.5q0 41 -53 67l-16 8q22 65 75 65q32 0 55 -26t23 -69q0 -109 -151 -210z" />
    <glyph glyph-name="dagger" unicode="&#x2020;" horiz-adv-x="518" 
d="M487 536l-3 -84q-23 3 -64 4l-63 3q-20 1 -63 1l2 -335q0 -104 4 -145h-86q4 54 6 241l3 239q-41 0 -76 -1l-48 -2q-22 -1 -68 -5l3 84q23 -4 44 -5l97 -6q18 -1 48 -1q0 124 -9 203q35 0 92 5q-4 -39 -8 -147l-2 -61q31 0 49 1l96 6q26 1 46 5z" />
    <glyph glyph-name="daggerdbl" unicode="&#x2021;" horiz-adv-x="518" 
d="M298 585l-3 -61l126 5q38 1 66 6l-3 -82q-34 5 -84 6l-106 3l1 -226l126 5q38 1 66 6l-3 -82q-34 5 -84 6l-104 3v-49q0 -104 4 -145h-86q4 63 6 194l-91 -2q-66 -2 -98 -6l3 81q29 -4 64 -5l122 -6l3 226l-94 -2q-66 -2 -98 -6l3 81q29 -4 64 -5l124 -6v52q-3 99 -8 151
q35 0 92 5q-4 -39 -8 -147z" />
    <glyph glyph-name="bullet" unicode="&#x2022;" horiz-adv-x="446" 
d="M366 350q0 -59 -40.5 -101t-100.5 -42q-61 0 -103 43.5t-42 106.5q0 59 40.5 101t100.5 42q62 0 103.5 -43.5t41.5 -106.5z" />
    <glyph glyph-name="ellipsis" unicode="&#x2026;" horiz-adv-x="728" 
d="M177 49q0 -28 -18 -47.5t-45 -19.5q-26 0 -42.5 18.5t-16.5 42.5q0 28 17.5 47.5t44.5 19.5q26 0 43 -18t17 -43zM425 49q0 -28 -18 -47.5t-45 -19.5q-26 0 -42.5 18.5t-16.5 42.5q0 28 17.5 47.5t44.5 19.5q26 0 43 -18t17 -43zM673 49q0 -28 -18 -47.5t-45 -19.5
q-26 0 -42.5 18.5t-16.5 42.5q0 28 17.5 47.5t44.5 19.5q26 0 43 -18t17 -43z" />
    <glyph glyph-name="guilsinglleft" unicode="&#x2039;" horiz-adv-x="370" 
d="M242 455q38 1 83 9q-82 -127 -161 -233q50 -80 150 -224l-53 -24q-133 138 -211 234l3 15q97 110 189 223z" />
    <glyph glyph-name="guilsinglright" unicode="&#x203a;" horiz-adv-x="370" 
d="M128 -8q-38 -1 -83 -9q82 127 161 233q-50 80 -150 224l53 24q133 -138 211 -234l-3 -15q-97 -110 -189 -223z" />
    <glyph glyph-name="fraction" unicode="&#x2044;" horiz-adv-x="186" 
d="M-106 -15l-59 25q51 71 112 162l242 373q92 140 103 160q10 -5 30.5 -15t28.5 -14q-16 -22 -79 -116l-312 -476q-10 -17 -66 -99z" />
    <glyph glyph-name="zero.sup" unicode="&#x2070;" 
d="M190 844q74 0 113.5 -56.5t39.5 -146.5q0 -98 -42 -156.5t-119 -58.5q-74 0 -113 56t-39 146q0 98 42 157t118 59zM186 489q39 0 62 40t23 103q0 73 -22.5 110.5t-61.5 37.5t-61.5 -40t-22.5 -103q0 -72 22 -110t61 -38z" />
    <glyph glyph-name="four.sup" unicode="&#x2074;" 
d="M222 436q3 18 3 86v13h-34q-123 0 -163 -2l-11 54l166 208q6 7 16 19t17.5 21.5t12.5 14.5l65 -5q-2 -17 -2 -68v-183q48 0 62 1q-5 -38 -5 -62q-14 1 -57 1v-32q0 -52 2 -66h-72zM228 761l-135 -170h134z" />
    <glyph glyph-name="five.sup" unicode="&#x2075;" 
d="M52 443l-8 68q64 -18 113 -18q47 0 72 17.5t25 43.5q0 63 -126 63q-28 0 -58 -3l-8 5q0 11 1.5 35t1.5 30l3 72v70l9 8q110 -2 120 -2q13 0 121 2q-8 -68 -8 -71q-37 1 -108 1h-65l-4 -87h23q83 0 128 -33t45 -90t-44 -92t-119 -35q-63 0 -114 16z" />
    <glyph glyph-name="six.sup" unicode="&#x2076;" 
d="M306 782q-159 -20 -196 -127q39 37 100 37q56 0 94.5 -36t38.5 -89q0 -60 -43.5 -100.5t-112.5 -40.5q-71 0 -111 43.5t-40 121.5q0 103 65.5 171.5t190.5 83.5zM270 563q0 35 -21.5 54.5t-57.5 19.5q-35 0 -58 -20.5t-23 -53.5q0 -34 22.5 -55.5t57.5 -21.5
q36 0 58 21.5t22 55.5z" />
    <glyph glyph-name="seven.sup" unicode="&#x2077;" 
d="M40 834q104 -2 139 -2q49 0 149 2l13 -39q-4 -7 -10.5 -19.5t-14.5 -28.5t-12 -23l-119 -216q-28 -49 -38 -78l-80 10q3 5 56 98l125 226h-88q-84 0 -125 -1q5 40 5 71z" />
    <glyph glyph-name="eight.sup" unicode="&#x2078;" 
d="M185 426q-68 0 -109.5 31t-41.5 79q0 74 92 104q-78 31 -78 93q0 48 41 79.5t103 31.5q61 0 100 -30.5t40 -75.5q1 -62 -80 -95q88 -36 88 -101q0 -52 -43 -84t-112 -32zM267 542q0 27 -21.5 42.5t-60.5 28.5q-79 -23 -79 -72q0 -26 23.5 -42t60.5 -16q36 0 56.5 16.5
t20.5 42.5zM118 735q0 -43 77 -66q67 18 67 64q0 24 -19.5 39t-52.5 15t-52.5 -15t-19.5 -37z" />
    <glyph glyph-name="nine.sup" unicode="&#x2079;" 
d="M82 426l-14 64q158 20 195 127q-39 -37 -99 -37q-56 0 -94.5 36t-38.5 89q0 60 43.5 100.5t112.5 40.5q71 0 111 -43.5t40 -121.5q0 -103 -65.5 -171.5t-190.5 -83.5zM104 709q0 -35 21.5 -54.5t57.5 -19.5q35 0 58 20.5t23 53.5q0 34 -22.5 55.5t-57.5 21.5
q-36 0 -58 -21.5t-22 -55.5z" />
    <glyph glyph-name="zero.inf" unicode="&#x2080;" 
d="M190 204q74 0 113.5 -56.5t39.5 -146.5q0 -98 -42 -156.5t-119 -58.5q-74 0 -113 56t-39 146q0 98 42 157t118 59zM186 -151q39 0 62 40t23 103q0 73 -22.5 110.5t-61.5 37.5t-61.5 -40t-22.5 -103q0 -72 22 -110t61 -38z" />
    <glyph glyph-name="one.inf" unicode="&#x2081;" horiz-adv-x="280" 
d="M126 117l-88 -25l-14 63q19 5 40.5 11.5t42.5 13t30 9.5l46 14l18 -6q-2 -16 -2 -69v-266q0 -53 2 -66h-79q4 29 4 111v210z" />
    <glyph glyph-name="two.inf" unicode="&#x2082;" 
d="M79 90l-27 61q61 52 136 52q60 0 97.5 -30t37.5 -82q0 -40 -22 -74.5t-65 -76.5q-37 -37 -90 -79q29 0 188 3l-4 -70q-90 2 -138 2q-55 0 -145 -2l-8 54q122 103 148 129q61 61 61 102q0 26 -17.5 40.5t-48.5 14.5q-52 0 -103 -44z" />
    <glyph glyph-name="three.inf" unicode="&#x2083;" 
d="M55 -198l-10 68q63 -17 109 -17t73.5 14t27.5 37q0 60 -140 63l-8 48q142 26 142 79q0 18 -20 30t-56 12q-60 0 -107 -29l-20 60q67 35 137 35q63 0 102 -27t39 -68q0 -70 -109 -104q117 -22 117 -98q0 -53 -47 -85.5t-122 -32.5q-59 0 -108 15z" />
    <glyph glyph-name="four.inf" unicode="&#x2084;" 
d="M222 -204q3 18 3 86v13h-34q-123 0 -163 -2l-11 54l166 208q6 7 16 19t17.5 21.5t12.5 14.5l65 -5q-2 -17 -2 -68v-183q14 0 35 0.5t27 0.5q-5 -38 -5 -62q-8 1 -27.5 1.5t-29.5 0.5v-33q0 -52 2 -66h-72zM228 121l-135 -170q97 0 134 1z" />
    <glyph glyph-name="five.inf" unicode="&#x2085;" 
d="M52 -197l-8 68q64 -18 113 -18q47 0 72 17.5t25 43.5q0 63 -126 63q-28 0 -58 -3l-8 5q0 11 1.5 35t1.5 30l3 72v70l9 8q110 -2 120 -2q13 0 121 2q-8 -68 -8 -71q-37 1 -108 1h-65l-4 -87h23q83 0 128 -33t45 -90t-44 -92t-119 -35q-63 0 -114 16z" />
    <glyph glyph-name="six.inf" unicode="&#x2086;" 
d="M306 142q-159 -20 -196 -127q39 37 100 37q56 0 94.5 -36t38.5 -89q0 -60 -43.5 -100.5t-112.5 -40.5q-71 0 -111 43.5t-40 121.5q0 103 65.5 171.5t190.5 83.5zM270 -77q0 35 -21.5 54.5t-57.5 19.5q-35 0 -58 -20.5t-23 -53.5q0 -34 22.5 -55.5t57.5 -21.5
q36 0 58 21.5t22 55.5z" />
    <glyph glyph-name="seven.inf" unicode="&#x2087;" 
d="M40 194q104 -2 139 -2q49 0 149 2l13 -39q-4 -7 -10.5 -19.5t-14.5 -28.5t-12 -23l-119 -216q-28 -49 -38 -78l-80 10q3 5 56 98l125 226h-88q-84 0 -125 -1q5 40 5 71z" />
    <glyph glyph-name="eight.inf" unicode="&#x2088;" 
d="M185 -214q-68 0 -109.5 31t-41.5 79q0 74 92 104q-78 31 -78 93q0 48 41 79.5t103 31.5q61 0 100 -30.5t40 -75.5q1 -62 -80 -95q88 -36 88 -101q0 -52 -43 -84t-112 -32zM267 -98q0 28 -22 43.5t-60 27.5q-79 -23 -79 -72q0 -26 23.5 -42t60.5 -16q36 0 56.5 16.5
t20.5 42.5zM118 95q0 -43 77 -66q67 18 67 64q0 24 -19.5 39t-52.5 15t-52.5 -15t-19.5 -37z" />
    <glyph glyph-name="nine.inf" unicode="&#x2089;" 
d="M82 -214l-14 64q158 20 195 127q-39 -37 -99 -37q-56 0 -94.5 36t-38.5 89q0 60 43.5 100.5t112.5 40.5q71 0 111 -43.5t40 -121.5q0 -103 -65.5 -171.5t-190.5 -83.5zM104 69q0 -35 21.5 -54.5t57.5 -19.5q35 0 58 20.5t23 53.5q0 34 -22.5 55.5t-57.5 21.5
q-36 0 -58 -21.5t-22 -55.5z" />
    <glyph glyph-name="colonmonetary" unicode="&#x20a1;" horiz-adv-x="747" 
d="M188 -106q-32 22 -72 40q28 65 57 128q-56 48 -87.5 117t-31.5 146q0 160 103 268.5t259 108.5q4 0 14 -0.5t14 -0.5q24 62 52 124q61 -32 74 -37q-21 -44 -46 -103q51 -16 93 -42q9 21 54 131l72 -36q-32 -77 -96.5 -224t-89.5 -205l-99 -236q83 17 172 99l-8 -108
q-92 -74 -202 -81q-15 -35 -57 -138q-36 25 -71 38l46 104q-55 9 -98 31zM275 101q44 -26 97 -32l41 92l150 356l9 21l9 21q-42 29 -93 46q-90 -212 -105 -248zM155 328q0 -105 59 -175q4 11 24 57l151 357q4 10 11 27t10 23q-112 0 -183.5 -80.5t-71.5 -208.5z" />
    <glyph glyph-name="naira" unicode="&#x20a6;" horiz-adv-x="876" 
d="M821 469q-7 -27 -7 -77q-33 0 -95 2l-2 -109q81 0 104 1q-7 -29 -7 -79q-13 0 -46 1.5t-52 1.5l-1 -76q-1 -26 -0.5 -76.5t2.5 -68.5l-26 -6l-198 228h-191h-56v-71q0 -105 4 -141h-109q6 54 11 210q-17 0 -49.5 -1t-48.5 -1q5 24 5 79q38 -2 95 -2l2 110q-70 -2 -102 -2
q5 22 5 77q18 -1 99 -1v3q2 156 -5 227l25 7l206 -239h123h121q-3 174 -9 220q69 0 111 5q-6 -50 -8 -144l-2 -79q24 0 58.5 0.5t42.5 0.5zM246 284h183l-183 211v-211zM628 394h-182l182 -212v212z" />
    <glyph glyph-name="rupee" unicode="&#x20a8;" horiz-adv-x="1023" 
d="M599 6l-114 -13l-177 276h-106v-129q0 -100 3 -141h-107q6 56 6 236v216q0 179 -6 235q1 0 181 4q123 3 193.5 -55t68.5 -143q-4 -138 -143 -200l99 -147q77 -108 102 -139zM806 474q83 0 144 -38l-31 -80q-50 37 -113 37q-78 0 -78 -56q0 -20 24.5 -35t59 -27
t69.5 -27.5t59.5 -44t24.5 -68.5q0 -69 -52.5 -111t-128.5 -42q-39 0 -85 11.5t-73 29.5l5 95q30 -24 73 -39.5t82 -15.5q40 0 64.5 15t24.5 42q0 25 -24.5 42.5t-59 29.5t-69 27t-59 44t-24.5 70q0 59 47 100t120 41zM202 351h101q63 0 100.5 37.5t37.5 91.5
q0 126 -153 126q-17 0 -45.5 -0.5t-40.5 -0.5v-254z" />
    <glyph glyph-name="won" unicode="&#x20a9;" horiz-adv-x="1129" 
d="M1069 472q-6 -40 -6 -78l-132 2l-42 -112q66 0 180 3q-6 -40 -6 -77q-37 0 -102.5 0.5t-98.5 0.5l-10 -26q-53 -140 -72 -196l-20 -7l-86 229h-218l-11 -30q-8 -21 -35.5 -88.5t-43.5 -110.5h-20l-84 229q-64 -1 -202 -1q3 27 3 77q20 -1 81.5 -1.5t90.5 -0.5l-39 110
q-25 0 -69.5 -0.5t-66.5 -0.5q3 27 3 78q48 -2 106 -2l-6 16q-58 156 -76 199l100 8l77 -224h209l15 39q7 22 69 188l21 7l86 -234h204l10 30q16 46 61 187h102l-82 -216q56 0 110 2zM567 494l-82 -210h161zM445 395h-155l74 -212zM691 396l78 -212l73 212h-151z" />
    <glyph glyph-name="sheqel" unicode="&#x20aa;" horiz-adv-x="693" 
d="M272 122q-55 197 -56 200l69 -6l49 -159q19 -66 81 -66h119l-1 263q0 121 -3 160h88q-7 -50 -7 -224v-290h-198q-64 0 -93.5 28.5t-47.5 93.5zM380 206v153q0 64 -65 64h-154v-310q0 -87 2 -113h-88q8 69 8 180v334h230q66 0 102.5 -29.5t39.5 -81.5q1 -14 1 -26t0.5 -31
t0.5 -36q2 -67 5 -99z" />
    <glyph glyph-name="Euro" unicode="&#x20ac;" horiz-adv-x="656" 
d="M318 279q125 0 205 4q-9 -69 -9 -79q-62 1 -196 1h-95q29 -68 86 -105t125 -37q110 0 190 77l-6 -101q-85 -57 -198 -57q-102 0 -182 61t-111 162q-80 0 -115 -1q3 30 3 79q30 -2 98 -4q-1 11 -1 33t4 62q-17 0 -51 -0.5t-48 -0.5q4 40 4 78q96 -3 112 -3
q34 103 113.5 164t188.5 61t182 -56l-25 -81q-31 25 -76 40.5t-87 15.5q-69 0 -124.5 -38.5t-83.5 -105.5h97q133 0 223 3q-8 -44 -9 -78q-63 1 -214 1h-116q-3 -21 -3 -44q0 -30 4 -51h115z" />
    <glyph glyph-name="peso" unicode="&#x20b1;" horiz-adv-x="722" 
d="M41 488q64 -2 100 -2q-2 152 -7 201q14 0 85 2.5t111 2.5q114 0 179.5 -58.5t73.5 -147.5q36 0 100 2q-6 -36 -6 -80q-23 0 -54 0.5t-44 0.5q-15 -93 -86 -149.5t-199 -56.5q-36 0 -53 2v-62q0 -101 3 -143h-110q8 74 8 234v176q-60 -2 -104 -2q3 28 3 80zM241 484h239
q-18 126 -166 126q-31 0 -73 -3v-123zM295 285q75 0 123 33t60 94h-237v-124q25 -3 54 -3z" />
    <glyph glyph-name="numero" unicode="&#x2116;" horiz-adv-x="1188" 
d="M89 1q8 62 11 224l4 223q3 154 -3 215l25 7l432 -483v242q0 165 -8 224q58 0 111 5q-4 -25 -7 -137l-7 -392q-1 -25 -0.5 -72t2.5 -66l-25 -6l-429 474v-324q0 -99 4 -134h-110zM1134 489q0 -86 -53 -143.5t-137 -57.5q-80 0 -130 53.5t-50 129.5q0 86 53.5 143.5
t137.5 57.5q80 0 129.5 -53t49.5 -130zM952 597q-43 0 -70.5 -33t-27.5 -81q0 -57 26 -89t68 -32q43 0 70 33.5t27 81.5q0 56 -26.5 88t-66.5 32zM1136 209q-4 -40 -4 -79q-61 1 -190 1q-122 0 -183 -1q3 17 3 79q109 -3 181 -3q85 0 193 3z" />
    <glyph glyph-name="published" unicode="&#x2117;" horiz-adv-x="868" 
d="M803 351q0 -153 -108 -261t-261 -108t-261 108t-108 261t108 261t261 108t261 -108t108 -261zM747 351q0 131 -91 224t-222 93t-222 -93t-91 -224t91 -224t222 -93t222 93t91 224zM407 480v-128q8 -1 22 -1q40 0 63 17t23 49q0 65 -76 65q-4 0 -32 -2zM407 245
q0 -61 2 -75h-80q3 25 3 126v116q0 102 -3 127q8 0 49.5 1.5t59.5 1.5q72 0 113 -33.5t41 -83.5q0 -57 -40.5 -95t-121.5 -39q-15 0 -23 1v-47z" />
    <glyph glyph-name="servicemark" unicode="&#x2120;" horiz-adv-x="804" 
d="M753 353l-77 -4q0 25 -5 67l-13 135q-97 -179 -108 -203l-21 -4l-104 202l-17 -132q-6 -48 -6 -61h-72q6 33 20 120l18 110q9 52 18 126l22 3q20 -40 35 -67l99 -183l97 183q6 10 20 37.5t15 29.5h21l19 -129l18 -110q3 -14 10 -57t11 -63zM280 454q0 -49 -33.5 -79.5
t-88.5 -30.5q-59 0 -106 28l3 67q44 -36 105 -36q24 0 38.5 12t14.5 34q0 19 -23.5 36t-51.5 29t-51.5 36.5t-23.5 57.5q0 47 32.5 76t83.5 29q53 0 91 -25l-17 -56q-32 22 -73 22q-22 0 -35.5 -11t-13.5 -30q0 -18 23.5 -34t51 -27.5t51 -37t23.5 -60.5z" />
    <glyph glyph-name="trademark" unicode="&#x2122;" horiz-adv-x="849" 
d="M798 353l-77 -4q0 25 -5 67l-13 135q-97 -179 -108 -203l-21 -4l-104 202l-17 -132q-6 -48 -6 -61h-72q6 33 20 120l18 110q9 52 18 126l22 3q20 -40 35 -67l99 -183l97 183q6 10 20 37.5t15 29.5h21l19 -129l18 -110q3 -14 10 -57t11 -63zM351 707q0 -1 -4 -66
q-41 1 -112 1q-1 -10 -1 -32v-185q0 -51 3 -72h-83q4 31 4 120v88q0 54 -1 81q-74 0 -114 -1q2 26 2 66q48 -2 151 -2q107 0 155 2z" />
    <glyph glyph-name="onethird" unicode="&#x2153;" horiz-adv-x="840" 
d="M154 613l-88 -25l-14 63q19 5 40.5 11.5t42.5 13t30 9.5l46 14l18 -6q-2 -16 -2 -69v-266q0 -53 2 -66h-79q4 29 4 111v210zM170 -15l-59 25q51 71 112 162l242 373q92 140 103 160q10 -5 30.5 -15t28.5 -14q-16 -22 -79 -116l-312 -476q-10 -17 -66 -99zM506 6l-10 68
q63 -17 109 -17t73.5 14t27.5 37q0 60 -140 63l-8 48q142 26 142 79q0 18 -20 30t-56 12q-60 0 -107 -29l-20 60q67 35 137 35q63 0 102 -27t39 -68q0 -70 -109 -104q117 -22 117 -98q0 -53 -47 -85.5t-122 -32.5q-59 0 -108 15z" />
    <glyph glyph-name="twothirds" unicode="&#x2154;" horiz-adv-x="934" 
d="M600 6l-10 68q63 -17 109 -17t73.5 14t27.5 37q0 60 -140 63l-8 48q142 26 142 79q0 18 -20 30t-56 12q-60 0 -107 -29l-20 60q67 35 137 35q63 0 102 -27t39 -68q0 -70 -109 -104q117 -22 117 -98q0 -53 -47 -85.5t-122 -32.5q-59 0 -108 15zM112 586l-27 61
q61 52 136 52q60 0 97.5 -30t37.5 -82q0 -40 -22 -74.5t-65 -76.5q-37 -37 -90 -79q29 0 188 3l-4 -70q-90 2 -138 2q-55 0 -145 -2l-8 54q122 103 148 129q61 61 61 102q0 26 -17.5 40.5t-48.5 14.5q-52 0 -103 -44zM289 -15l-59 25q51 71 112 162l242 373q92 140 103 160
q10 -5 30.5 -15t28.5 -14q-16 -22 -79 -116l-312 -476q-10 -17 -66 -99z" />
    <glyph glyph-name="onefifth" unicode="&#x2155;" horiz-adv-x="840" 
d="M503 7l-8 68q64 -18 113 -18q47 0 72 17.5t25 43.5q0 63 -126 63q-28 0 -58 -3l-8 5q0 11 1.5 35t1.5 30l3 72v22.5v27v20.5l9 8q110 -2 120 -2q13 0 121 2q-8 -68 -8 -71q-37 1 -108 1h-65l-4 -87h23q83 0 128 -33t45 -90t-44 -92t-119 -35q-63 0 -114 16zM181 -15
l-59 25q51 71 112 162l242 373q92 140 103 160q10 -5 30.5 -15t28.5 -14q-16 -22 -79 -116l-312 -476q-10 -17 -66 -99zM154 613l-88 -25l-14 63q19 5 40.5 11.5t42.5 13t30 9.5l46 14l18 -6q-2 -16 -2 -69v-266q0 -53 2 -66h-79q4 29 4 111v210z" />
    <glyph glyph-name="twofifths" unicode="&#x2156;" horiz-adv-x="934" 
d="M597 7l-8 68q64 -18 113 -18q47 0 72 17.5t25 43.5q0 63 -126 63q-28 0 -58 -3l-8 5q0 11 1.5 35t1.5 30l3 72v70l9 8q110 -2 120 -2q13 0 121 2q-8 -68 -8 -71q-37 1 -108 1h-65l-4 -87h23q83 0 128 -33t45 -90t-44 -92t-119 -35q-63 0 -114 16zM112 586l-27 61
q61 52 136 52q60 0 97.5 -30t37.5 -82q0 -40 -22 -74.5t-65 -76.5q-37 -37 -90 -79q29 0 188 3l-4 -70q-90 2 -138 2q-55 0 -145 -2l-8 54q122 103 148 129q61 61 61 102q0 26 -17.5 40.5t-48.5 14.5q-52 0 -103 -44zM292 -15l-59 25q51 71 112 162l242 373q92 140 103 160
q10 -5 30.5 -15t28.5 -14q-16 -22 -79 -116l-312 -476q-10 -17 -66 -99z" />
    <glyph glyph-name="threefifths" unicode="&#x2157;" horiz-adv-x="934" 
d="M597 7l-8 68q64 -18 113 -18q47 0 72 17.5t25 43.5q0 63 -126 63q-28 0 -58 -3l-8 5q0 11 1.5 35t1.5 30l3 72v70l9 8q110 -2 120 -2q13 0 121 2q-8 -68 -8 -71q-37 1 -108 1h-65l-4 -87h23q83 0 128 -33t45 -90t-44 -92t-119 -35q-63 0 -114 16zM87 298l-10 68
q63 -17 109 -17t73.5 14t27.5 37q0 60 -140 63l-8 48q142 26 142 79q0 18 -20 30t-56 12q-60 0 -107 -29l-20 60q67 35 137 35q63 0 102 -27t39 -68q0 -70 -109 -104q117 -22 117 -98q0 -53 -47 -85.5t-122 -32.5q-59 0 -108 15zM274 -15l-59 25q51 71 112 162l242 373
q92 140 103 160q10 -5 30.5 -15t28.5 -14q-16 -22 -79 -116l-312 -476q-10 -17 -66 -99z" />
    <glyph glyph-name="fourfifths" unicode="&#x2158;" horiz-adv-x="934" 
d="M247 292q3 18 3 86v13h-34q-123 0 -163 -2l-11 54l166 208q6 7 16 19t17.5 21.5t12.5 14.5l65 -5q-2 -17 -2 -68v-183q48 0 62 1q-5 -38 -5 -62q-14 1 -57 1v-32q0 -52 2 -66h-72zM597 7l-8 68q64 -18 113 -18q47 0 72 17.5t25 43.5q0 63 -126 63q-28 0 -58 -3l-8 5
q0 11 1.5 35t1.5 30l3 72v70l9 8q110 -2 120 -2q13 0 121 2q-8 -68 -8 -71q-37 1 -108 1h-65l-4 -87h23q83 0 128 -33t45 -90t-44 -92t-119 -35q-63 0 -114 16zM281 -15l-59 25q51 71 112 162l242 373q92 140 103 160q10 -5 30.5 -15t28.5 -14q-16 -22 -79 -116l-312 -476
q-10 -17 -66 -99zM253 617l-135 -170h134z" />
    <glyph glyph-name="onesixth" unicode="&#x2159;" horiz-adv-x="840" 
d="M753 346q-159 -20 -196 -127q39 37 100 37q56 0 94.5 -36t38.5 -89q0 -60 -43.5 -100.5t-112.5 -40.5q-71 0 -111 43.5t-40 121.5q0 103 65.5 171.5t190.5 83.5zM194 -15l-59 25q51 71 112 162l242 373q92 140 103 160q10 -5 30.5 -15t28.5 -14q-16 -22 -79 -116
l-312 -476q-10 -17 -66 -99zM154 613l-88 -25l-14 63q19 5 40.5 11.5t42.5 13t30 9.5l46 14l18 -6q-2 -16 -2 -69v-266q0 -53 2 -66h-79q4 29 4 111v210zM717 127q0 35 -21.5 54.5t-57.5 19.5q-35 0 -58 -20.5t-23 -53.5q0 -34 22.5 -55.5t57.5 -21.5q36 0 58 21.5t22 55.5z
" />
    <glyph glyph-name="fivesixths" unicode="&#x215a;" horiz-adv-x="934" 
d="M847 346q-159 -20 -196 -127q39 37 100 37q56 0 94.5 -36t38.5 -89q0 -60 -43.5 -100.5t-112.5 -40.5q-71 0 -111 43.5t-40 121.5q0 103 65.5 171.5t190.5 83.5zM72 299l-8 68q64 -18 113 -18q47 0 72 17.5t25 43.5q0 63 -126 63q-28 0 -58 -3l-8 5q0 11 1.5 35t1.5 30
l3 72v70l9 8q110 -2 120 -2q13 0 121 2q-8 -68 -8 -71q-37 1 -108 1h-65l-4 -87h23q83 0 128 -33t45 -90t-44 -92t-119 -35q-63 0 -114 16zM276 -15l-59 25q51 71 112 162l242 373q92 140 103 160q10 -5 30.5 -15t28.5 -14q-16 -22 -79 -116l-312 -476q-10 -17 -66 -99z
M811 127q0 35 -21.5 54.5t-57.5 19.5q-35 0 -58 -20.5t-23 -53.5q0 -34 22.5 -55.5t57.5 -21.5q36 0 58 21.5t22 55.5z" />
    <glyph glyph-name="oneeighth" unicode="&#x215b;" horiz-adv-x="840" 
d="M636 -10q-68 0 -109.5 31t-41.5 79q0 74 92 104q-78 31 -78 93q0 48 41 79.5t103 31.5q61 0 100 -30.5t40 -75.5q1 -62 -80 -95q88 -36 88 -101q0 -52 -43 -84t-112 -32zM186 -15l-59 25q51 71 112 162l242 373q92 140 103 160q10 -5 30.5 -15t28.5 -14q-16 -22 -79 -116
l-312 -476q-10 -17 -66 -99zM154 613l-88 -25l-14 63q19 5 40.5 11.5t42.5 13t30 9.5l46 14l18 -6q-2 -16 -2 -69v-266q0 -53 2 -66h-79q4 29 4 111v210zM718 106q0 46 -82 71q-79 -23 -79 -72q0 -26 23.5 -42t60.5 -16q36 0 56.5 16.5t20.5 42.5zM569 299q0 -43 77 -66
q67 18 67 64q0 24 -19.5 39t-52.5 15t-52.5 -15t-19.5 -37z" />
    <glyph glyph-name="threeeighths" unicode="&#x215c;" horiz-adv-x="934" 
d="M730 -10q-68 0 -109.5 31t-41.5 79q0 74 92 104q-78 31 -78 93q0 48 41 79.5t103 31.5q61 0 100 -30.5t40 -75.5q1 -62 -80 -95q88 -36 88 -101q0 -52 -43 -84t-112 -32zM87 298l-10 68q63 -17 109 -17t73.5 14t27.5 37q0 60 -140 63l-8 48q142 26 142 79q0 18 -20 30
t-56 12q-60 0 -107 -29l-20 60q67 35 137 35q63 0 102 -27t39 -68q0 -70 -109 -104q117 -22 117 -98q0 -53 -47 -85.5t-122 -32.5q-59 0 -108 15zM276 -15l-59 25q51 71 112 162l242 373q92 140 103 160q10 -5 30.5 -15t28.5 -14q-16 -22 -79 -116l-312 -476
q-10 -17 -66 -99zM812 106q0 46 -82 71q-79 -23 -79 -72q0 -26 23.5 -42t60.5 -16q36 0 56.5 16.5t20.5 42.5zM663 299q0 -43 77 -66q67 18 67 64q0 24 -19.5 39t-52.5 15t-52.5 -15t-19.5 -37z" />
    <glyph glyph-name="fiveeighths" unicode="&#x215d;" horiz-adv-x="934" 
d="M730 -10q-68 0 -109.5 31t-41.5 79q0 74 92 104q-78 31 -78 93q0 48 41 79.5t103 31.5q61 0 100 -30.5t40 -75.5q1 -62 -80 -95q88 -36 88 -101q0 -52 -43 -84t-112 -32zM72 299l-8 68q64 -18 113 -18q47 0 72 17.5t25 43.5q0 63 -126 63q-28 0 -58 -3l-8 5q0 11 1.5 35
t1.5 30l3 72v70l9 8q110 -2 120 -2q13 0 121 2q-8 -68 -8 -71q-37 1 -108 1h-65l-4 -87h23q83 0 128 -33t45 -90t-44 -92t-119 -35q-63 0 -114 16zM271 -15l-59 25q51 71 112 162l242 373q92 140 103 160q10 -5 30.5 -15t28.5 -14q-16 -22 -79 -116l-312 -476
q-10 -17 -66 -99zM812 106q0 46 -82 71q-79 -23 -79 -72q0 -26 23.5 -42t60.5 -16q36 0 56.5 16.5t20.5 42.5zM663 299q0 -43 77 -66q67 18 67 64q0 24 -19.5 39t-52.5 15t-52.5 -15t-19.5 -37z" />
    <glyph glyph-name="seveneighths" unicode="&#x215e;" horiz-adv-x="934" 
d="M730 -10q-68 0 -109.5 31t-41.5 79q0 74 92 104q-78 31 -78 93q0 48 41 79.5t103 31.5q61 0 100 -30.5t40 -75.5q1 -62 -80 -95q88 -36 88 -101q0 -52 -43 -84t-112 -32zM239 -15l-59 25q51 71 112 162l242 373q92 140 103 160q10 -5 30.5 -15t28.5 -14q-16 -22 -79 -116
l-312 -476q-10 -17 -66 -99zM91 688q104 -2 139 -2q49 0 149 2l13 -39q-4 -7 -10.5 -19.5t-14.5 -28.5t-12 -23l-119 -216q-28 -49 -38 -78l-80 10q3 5 56 98l125 226h-88q-84 0 -125 -1q5 40 5 71zM812 106q0 27 -21.5 42.5t-60.5 28.5q-79 -23 -79 -72q0 -26 23.5 -42
t60.5 -16q36 0 56.5 16.5t20.5 42.5zM663 299q0 -44 78 -66q66 20 66 64q0 24 -19.5 39t-52.5 15t-52.5 -15t-19.5 -37z" />
    <glyph glyph-name="minus" unicode="&#x2212;" horiz-adv-x="570" 
d="M475 315q-5 -33 -5 -76q-116 2 -166 2h-41q-54 0 -168 -2q3 29 3 76q102 -3 188 -3q87 0 189 3z" />
    <glyph glyph-name="box.1" unicode="&#xe000;" horiz-adv-x="789" 
d="M707 13l-13 -13h-602l-13 6q6 48 6 201v246q0 144 -6 191l14 13h602l12 -6q-3 -36 -3 -123v-404q0 -75 3 -111z" />
    <glyph glyph-name="box.2" unicode="&#xe001;" horiz-adv-x="789" 
d="M707 13l-13 -13h-602l-13 6q6 48 6 201v246q0 144 -6 191l14 13h602l12 -6q-3 -36 -3 -123v-404q0 -75 3 -111zM177 80h438v305q0 162 -5 192h-436v-368q0 -93 3 -129z" />
    <glyph glyph-name="arrow.1_W" unicode="&#xe01d;" horiz-adv-x="792" 
d="M31 237l-1 17l279 251q4 -5 14.5 -16t20.5 -22.5t18 -22.5q-21 -17 -76 -64.5t-69 -58.5l-45 -37h322q129 0 245 2q-3 -28 -3 -78q-104 3 -312 3q-170 0 -251 -1l44 -36q108 -90 148 -121l-54 -64z" />
    <glyph glyph-name="arrow.1_E" unicode="&#xe01f;" horiz-adv-x="792" 
d="M55 208q3 28 3 78q103 -3 312 -3q170 0 251 1l-44 36q-108 90 -148 121l54 64l280 -248l1 -17l-279 -251q-1 1 -22 23.5t-32 37.5q22 17 78.5 65.5t67.5 57.5l45 37h-322q-129 0 -245 -2z" />
    <glyph glyph-name="G.alt" horiz-adv-x="737" 
d="M665 133v-77q-112 -74 -249 -74q-153 0 -257.5 104.5t-104.5 255.5q0 159 109.5 268.5t271.5 109.5q56 0 118 -18t104 -45l-28 -90q-36 29 -93.5 46.5t-110.5 17.5q-120 0 -195 -79t-75 -202q0 -129 78 -204.5t194 -75.5q81 0 142 32v124l-3 130h105q-6 -158 -6 -223z
" />
    <glyph glyph-name="J.alt" horiz-adv-x="315" 
d="M120 15v447q0 174 -7 241q68 0 108 5q-3 -43 -3 -148v-551q0 -112 -43 -163.5t-143 -51.5q-25 0 -53 7l-13 91q32 -6 52 -6q60 0 81 26t21 103z" />
    <glyph glyph-name="a.sc" horiz-adv-x="544" 
d="M15 0l172 369q51 110 63 142l35 7l171 -370q29 -64 72 -148l-101 -6l-59 132h-201q-9 -20 -27.5 -66.5t-24.5 -59.5h-100zM267 363l-70 -166h141z" />
    <glyph glyph-name="b.sc" horiz-adv-x="491" 
d="M252 0h-176q5 44 5 174v159q0 129 -5 173q10 0 72.5 2t89.5 2q93 0 139.5 -38t46.5 -93q0 -76 -79 -108q102 -31 102 -123q0 -65 -51 -106.5t-144 -41.5zM172 82q30 -3 71 -3q111 0 111 75t-124 75q-35 0 -59 -3v-112q0 -20 1 -32zM171 297q14 -1 55 -1q107 0 107 69
q0 66 -103 66q-32 0 -58 -2q-1 -12 -1 -37v-95z" />
    <glyph glyph-name="c.sc" horiz-adv-x="513" 
d="M474 141l-7 -100q-74 -54 -164 -54q-110 0 -183.5 74.5t-73.5 178.5q0 117 77.5 197.5t193.5 80.5q87 0 151 -43l-21 -85q-61 45 -127 45q-77 0 -128 -52t-51 -128q0 -85 49.5 -134.5t124.5 -49.5q80 0 159 70z" />
    <glyph glyph-name="d.sc" horiz-adv-x="553" 
d="M506 267q0 -119 -73 -193t-192 -74h-165q5 44 5 174v159q0 129 -5 173q7 0 57.5 2t92.5 2q132 0 206 -68t74 -175zM413 259q0 77 -48.5 124t-134.5 47q-16 0 -54 -2q-1 -12 -1 -42v-265q0 -24 1 -37q40 -4 56 -4q92 0 136.5 50.5t44.5 128.5z" />
    <glyph glyph-name="e.sc" horiz-adv-x="436" 
d="M400 81q-3 -27 -5 -84q-60 4 -160 4q-98 0 -159 -4q5 44 5 174v165q0 132 -5 174q69 -3 152 -3q90 0 158 3q-6 -37 -6 -82q-41 1 -140 1h-65q-1 -13 -1 -36v-90l182 1q-2 -22 -2 -79l-180 1v-111q0 -24 1 -36q10 0 32 -0.5t33 -0.5q90 0 160 3z" />
    <glyph glyph-name="f.sc" horiz-adv-x="416" 
d="M381 510q-5 -42 -5 -83q-41 1 -133 1h-67q-1 -13 -1 -42v-90l167 1q-2 -44 -2 -79l-165 1v-115q0 -84 3 -104h-102q5 44 5 174v162q0 132 -5 174q69 -3 155 -3q84 0 150 3z" />
    <glyph glyph-name="g.sc" horiz-adv-x="556" 
d="M489 471l-27 -81q-65 45 -133 45q-81 0 -134.5 -52t-53.5 -128q0 -85 49.5 -134.5t124.5 -49.5q51 0 94 20v68q0 29 -1 42h-38q-51 0 -88 -2q3 46 0 81q66 -3 99 -3q51 0 119 3q-5 -35 -5 -177v-62q-86 -54 -192 -54q-110 0 -183.5 74.5t-73.5 178.5q0 117 80 197.5
t201 80.5q97 0 162 -47z" />
    <glyph glyph-name="g.sc_alt" horiz-adv-x="556" 
d="M489 471l-27 -81q-65 45 -133 45q-81 0 -134.5 -52t-53.5 -128q0 -85 49.5 -134.5t124.5 -49.5q52 0 91 19v75q0 79 -3 94h97q-5 -25 -5 -157v-61q-86 -54 -192 -54q-110 0 -183.5 74.5t-73.5 178.5q0 117 80 197.5t201 80.5q97 0 162 -47z" />
    <glyph glyph-name="h.sc" horiz-adv-x="588" 
d="M511 0h-103q6 42 6 171v52h-239v-119q0 -84 3 -104h-102q5 44 5 174v159q0 131 -5 173q70 0 102 4q-3 -21 -3 -107v-102h239v34q0 130 -6 171q70 0 103 4q-4 -28 -4 -107v-299q0 -77 4 -104z" />
    <glyph glyph-name="i.sc" horiz-adv-x="261" 
d="M181 0h-102q5 44 5 174v159q0 131 -5 173q70 0 102 4q-3 -21 -3 -107v-299q0 -84 3 -104z" />
    <glyph glyph-name="j.sc" horiz-adv-x="346" 
d="M177 333q0 131 -5 173q70 0 102 4q-3 -21 -3 -107v-249q0 -87 -33.5 -127t-111.5 -40q-52 0 -102 20l5 87q45 -21 87 -21q61 0 61 73v187z" />
    <glyph glyph-name="k.sc" horiz-adv-x="511" 
d="M498 1l-110 -7l-213 252v-142q0 -74 3 -104h-102q6 52 6 174v159q0 122 -6 173q70 0 102 4q-3 -32 -3 -107v-132l86 102q69 80 112 135h115l-218 -244l109 -127q92 -108 119 -136z" />
    <glyph glyph-name="l.sc" horiz-adv-x="415" 
d="M76 -3q5 44 5 175v161q0 131 -5 173q70 0 102 4q-3 -21 -3 -107v-282q0 -28 1 -41q10 0 30.5 -0.5t30.5 -0.5q58 0 154 2q-4 -38 -6 -84q-60 4 -153 4q-95 0 -156 -4z" />
    <glyph glyph-name="m.sc" horiz-adv-x="672" 
d="M625 0l-96 -6q-1 28 -13 110l-27 196q-93 -204 -137 -305l-35 -7q-5 12 -31 70t-59 132.5t-47 106.5l-27 -194q-2 -15 -8 -76l-3 -28v1h-95q12 50 31 174l23 161q17 129 21 182l36 7l50 -107l129 -276l128 274l47 107h35q4 -25 13.5 -101.5t10.5 -85.5l23 -160
q12 -79 31 -175z" />
    <glyph glyph-name="n.sc" horiz-adv-x="593" 
d="M71 0q8 70 8 174l2 170q3 119 -3 167l35 7l313 -351v166q0 132 -6 173q68 0 100 4q-2 -11 -5 -107l-4 -305q0 -84 2 -104l-35 -7l-310 348v-231q0 -74 3 -104h-100z" />
    <glyph glyph-name="o.sc" horiz-adv-x="602" 
d="M308 518q109 0 178.5 -73.5t69.5 -179.5q0 -119 -73.5 -198.5t-188.5 -79.5q-109 0 -178.5 73.5t-69.5 179.5q0 119 73.5 198.5t188.5 79.5zM300 67q71 0 116 54t45 131q0 85 -44.5 135.5t-114.5 50.5q-71 0 -116 -54t-45 -131q0 -85 44.5 -135.5t114.5 -50.5z" />
    <glyph glyph-name="p.sc" horiz-adv-x="461" 
d="M76 506q10 0 70 2t86 2q96 0 149 -44.5t53 -112.5q0 -82 -54.5 -130t-166.5 -48q-27 0 -38 1v-72q0 -74 3 -104h-102q5 44 5 174v159q0 131 -5 173zM342 341q0 88 -115 88q-33 0 -52 -1q-1 -15 -1 -39v-137q12 -2 40 -2q61 0 94.5 23t33.5 68z" />
    <glyph glyph-name="q.sc" horiz-adv-x="604" 
d="M308 518q109 0 178.5 -73.5t69.5 -179.5q0 -84 -37.5 -150t-103.5 -100l87 -23q41 -12 118 -29l-59 -72l-287 97q-102 7 -165 79t-63 173q0 119 73.5 198.5t188.5 79.5zM302 438q-71 0 -116 -54t-45 -131q0 -85 44.5 -135.5t114.5 -50.5q71 0 116 54t45 131
q0 85 -44.5 135.5t-114.5 50.5z" />
    <glyph glyph-name="r.sc" horiz-adv-x="496" 
d="M476 4l-107 -10l-122 192h-73v-82q0 -74 3 -104h-101q5 44 5 174v159q0 131 -5 173q15 0 147 4q99 1 155 -41t55 -110q-1 -99 -103 -148l77 -112q34 -49 69 -95zM174 260h70q44 0 70 24.5t26 60.5q0 85 -109 85q-22 0 -56 -2q-1 -15 -1 -38v-130z" />
    <glyph glyph-name="s.sc" horiz-adv-x="418" 
d="M373 145q0 -70 -48.5 -114t-127.5 -44q-84 0 -152 42l4 94q25 -21 68 -37.5t84 -16.5q37 0 59 17t22 48q0 29 -34.5 55t-75.5 44.5t-75.5 54t-34.5 80.5q0 66 47 108t121 42q76 0 129 -37l-25 -80q-49 36 -104 36q-35 0 -55.5 -16.5t-20.5 -43.5q0 -23 22.5 -42t55 -35
t64.5 -34.5t54.5 -49.5t22.5 -71z" />
    <glyph glyph-name="t.sc" horiz-adv-x="494" 
d="M461 510q-5 -43 -5 -86q-108 2 -162 2q-1 -15 -1 -45v-277q0 -84 3 -104h-102q6 52 6 174v142q0 51 -3 110q-58 0 -164 -2q2 24 2 86q100 -3 211 -3q114 0 215 3z" />
    <glyph glyph-name="u.sc" horiz-adv-x="575" 
d="M504 510q-4 -28 -4 -107v-188q0 -111 -58 -168q-60 -60 -164 -60q-91 0 -147 51t-56 139v156q0 131 -5 173q69 0 101 4q-3 -32 -3 -107v-198q0 -134 122 -134q56 0 86.5 31.5t30.5 88.5v142q0 122 -6 173q70 0 103 4z" />
    <glyph glyph-name="v.sc" horiz-adv-x="515" 
d="M15 505l101 5l146 -357l89 225q23 57 48 128h101l-161 -369q-33 -76 -59 -142l-37 -7l-161 368q-56 125 -67 149z" />
    <glyph glyph-name="w.sc" horiz-adv-x="751" 
d="M736 506l-140 -367q-34 -91 -52 -144l-34 -7l-133 350l-79 -202q-4 -11 -15 -38t-21.5 -54.5t-20.5 -53.5l-34 -2l-134 369q-26 72 -58 147l99 6l121 -341l76 204l50 137l34 6l132 -342l66 194q12 36 44 138h99z" />
    <glyph glyph-name="x.sc" horiz-adv-x="544" 
d="M140 0h-107l183 254l-74 105l-103 147l105 6l129 -194l40 62q13 21 48 72.5t37 54.5h107l-178 -248l75 -107q69 -100 107 -152l-106 -6l-133 201l-42 -65z" />
    <glyph glyph-name="y.sc" horiz-adv-x="490" 
d="M13 506l103 6l131 -218l39 62q14 22 49 81t42 70h104l-190 -289v-114q0 -77 4 -104h-102q6 52 6 174v41l-75 119q-75 120 -111 172z" />
    <glyph glyph-name="z.sc" horiz-adv-x="489" 
d="M446 510l19 -18l-294 -414q22 -1 92 -1q92 0 182 2q-4 -37 -6 -82q-56 4 -191 4t-204 -4l-20 19l295 414q-24 1 -86 1q-70 0 -174 -2q3 35 3 81q102 -3 191 -3q121 0 193 3z" />
    <glyph glyph-name="aacute.sc" horiz-adv-x="544" 
d="M15 0l172 369q51 110 63 142l35 7l171 -370q29 -64 72 -148l-101 -6l-59 132h-201q-9 -20 -27.5 -66.5t-24.5 -59.5h-100zM312 725l131 9l-161 -149l-63 -5zM267 363l-70 -166h141z" />
    <glyph glyph-name="abreve.sc" horiz-adv-x="544" 
d="M15 0l172 369q51 110 63 142l35 7l171 -370q29 -64 72 -148l-101 -6l-59 132h-201q-9 -20 -27.5 -66.5t-24.5 -59.5h-100zM348 736l77 5q2 -75 -40 -118.5t-117 -43.5q-66 0 -109 43.5t-43 108.5l79 14q0 -47 20.5 -72.5t57.5 -25.5q38 0 56.5 25t18.5 64zM267 363
l-70 -166h141z" />
    <glyph glyph-name="acircumflex.sc" horiz-adv-x="544" 
d="M15 0l172 369q51 110 63 142l35 7l171 -370q29 -64 72 -148l-101 -6l-59 132h-201q-9 -20 -27.5 -66.5t-24.5 -59.5h-100zM218 727h115l96 -152l-68 -6l-87 97l-82 -89h-80zM267 363l-70 -166h141z" />
    <glyph glyph-name="adieresis.sc" horiz-adv-x="544" 
d="M15 0l172 369q51 110 63 142l35 7l171 -370q29 -64 72 -148l-101 -6l-59 132h-201q-9 -20 -27.5 -66.5t-24.5 -59.5h-100zM267 363l-70 -166h141zM240 666q0 -27 -17 -46t-43 -19q-25 0 -41 17.5t-16 41.5q0 27 17 46t43 19q25 0 41 -18t16 -41zM420 666q0 -27 -17 -46
t-43 -19q-25 0 -41 17.5t-16 41.5q0 27 17 46t43 19q25 0 41 -18t16 -41z" />
    <glyph glyph-name="agrave.sc" horiz-adv-x="544" 
d="M15 0l172 369q51 110 63 142l35 7l171 -370q29 -64 72 -148l-101 -6l-59 132h-201q-9 -20 -27.5 -66.5t-24.5 -59.5h-100zM111 725l113 9l91 -149l-59 -5zM267 363l-70 -166h141z" />
    <glyph glyph-name="amacron.sc" horiz-adv-x="544" 
d="M15 0l172 369q51 110 63 142l35 7l171 -370q29 -64 72 -148l-101 -6l-59 132h-201q-9 -20 -27.5 -66.5t-24.5 -59.5h-100zM423 699q-5 -33 -5 -76q-80 2 -113 2h-76q-41 0 -109 -2q4 36 4 76q73 -3 149 -3q77 0 150 3zM267 363l-70 -166h141z" />
    <glyph glyph-name="aogonek.sc" horiz-adv-x="544" 
d="M15 0l172 369q51 110 63 142l35 7l171 -370q29 -64 72 -148q-113 -63 -113 -118q0 -19 12 -30.5t35 -11.5q29 0 62 21l-5 -62q-30 -20 -73 -20q-48 0 -76.5 24.5t-28.5 65.5q0 64 85 126l-58 131h-201q-9 -20 -27.5 -66.5t-24.5 -59.5h-100zM267 363l-70 -166h141z" />
    <glyph glyph-name="aring.sc" horiz-adv-x="544" 
d="M389 584q0 -39 -22.5 -70t-60.5 -42l150 -324q29 -64 72 -148l-101 -6l-59 132h-201q-9 -20 -27.5 -66.5t-24.5 -59.5h-100l172 369l47 102q-38 10 -60 38t-22 64q0 50 33.5 82.5t87.5 32.5q52 0 84 -30t32 -74zM267 363l-70 -166h141zM325 577q0 27 -14 43t-40 16
t-40.5 -16t-14.5 -40q0 -26 15 -43t39 -17q26 0 40.5 16.5t14.5 40.5z" />
    <glyph glyph-name="aringacute.sc" horiz-adv-x="544" 
d="M389 584q0 -39 -22.5 -70t-60.5 -42l150 -324q29 -64 72 -148l-101 -6l-59 132h-201q-9 -20 -27.5 -66.5t-24.5 -59.5h-100l172 369l47 102q-38 10 -60 38t-22 64q0 50 33.5 82.5t87.5 32.5q52 0 84 -30t32 -74zM316 895l131 9l-161 -149l-63 -5zM267 363l-70 -166h141z
M325 577q0 27 -14 43t-40 16t-40.5 -16t-14.5 -40q0 -26 15 -43t39 -17q26 0 40.5 16.5t14.5 40.5z" />
    <glyph glyph-name="atilde.sc" horiz-adv-x="544" 
d="M15 0l172 369q51 110 63 142l35 7l171 -370q29 -64 72 -148l-101 -6l-59 132h-201q-9 -20 -27.5 -66.5t-24.5 -59.5h-100zM98 594q12 77 39 109t68 32q32 0 80.5 -36.5t63.5 -36.5q26 0 38 77l69 -10q-22 -146 -108 -146q-32 0 -81 36.5t-64 36.5q-14 0 -21.5 -15
t-13.5 -57zM267 363l-70 -166h141z" />
    <glyph glyph-name="cacute.sc" horiz-adv-x="513" 
d="M474 141l-7 -100q-74 -54 -164 -54q-110 0 -183.5 74.5t-73.5 178.5q0 117 77.5 197.5t193.5 80.5q87 0 151 -43l-21 -85q-61 45 -127 45q-77 0 -128 -52t-51 -128q0 -85 49.5 -134.5t124.5 -49.5q80 0 159 70zM340 725l131 9l-161 -149l-63 -5z" />
    <glyph glyph-name="ccaron.sc" horiz-adv-x="513" 
d="M474 141l-7 -100q-74 -54 -164 -54q-110 0 -183.5 74.5t-73.5 178.5q0 117 77.5 197.5t193.5 80.5q87 0 151 -43l-21 -85q-61 45 -127 45q-77 0 -128 -52t-51 -128q0 -85 49.5 -134.5t124.5 -49.5q80 0 159 70zM354 586h-115l-98 149l71 6l86 -94l83 89h77z" />
    <glyph glyph-name="ccedilla.sc" horiz-adv-x="513" 
d="M474 141l-7 -100q-69 -51 -157 -54l-14 -51q103 -29 103 -93q0 -34 -30 -59t-81 -25q-38 0 -85 14l13 58q42 -15 79 -15q38 0 38 25q0 28 -91 50l-5 4q8 27 26 95q-96 13 -156.5 84.5t-60.5 165.5q0 117 77.5 197.5t193.5 80.5q87 0 151 -43l-21 -85q-61 45 -127 45
q-77 0 -128 -52t-51 -128q0 -85 49.5 -134.5t124.5 -49.5q80 0 159 70z" />
    <glyph glyph-name="cdotaccent.sc" horiz-adv-x="513" 
d="M474 141l-7 -100q-74 -54 -164 -54q-110 0 -183.5 74.5t-73.5 178.5q0 117 77.5 197.5t193.5 80.5q87 0 151 -43l-21 -85q-61 45 -127 45q-77 0 -128 -52t-51 -128q0 -85 49.5 -134.5t124.5 -49.5q80 0 159 70zM358 666q0 -27 -17 -46t-43 -19q-25 0 -41 17.5t-16 41.5
q0 27 17 46t43 19q25 0 41 -18t16 -41z" />
    <glyph glyph-name="dcaron.sc" horiz-adv-x="553" 
d="M506 267q0 -119 -73 -193t-192 -74h-165q5 44 5 174v159q0 129 -5 173q7 0 57.5 2t92.5 2q132 0 206 -68t74 -175zM413 259q0 77 -48.5 124t-134.5 47q-16 0 -54 -2q-1 -12 -1 -42v-265q0 -24 1 -37q40 -4 56 -4q92 0 136.5 50.5t44.5 128.5zM328 586h-115l-98 149l71 6
l86 -94l83 89h77z" />
    <glyph glyph-name="dcroat.sc" horiz-adv-x="553" 
d="M506 267q0 -119 -73 -193t-192 -74h-165q5 44 5 174v45l-69 -2q3 30 3 79l66 -3v40q0 129 -5 173q7 0 57.5 2t92.5 2q132 0 206 -68t74 -175zM413 259q0 77 -48.5 124t-134.5 47q-16 0 -54 -2q-1 -12 -1 -42v-93q57 0 107 3q-5 -37 -5 -79q-66 2 -97 2h-5v-98
q0 -24 1 -37q40 -4 56 -4q92 0 136.5 50.5t44.5 128.5z" />
    <glyph glyph-name="eacute.sc" horiz-adv-x="436" 
d="M400 81q-3 -27 -5 -84q-60 4 -160 4q-98 0 -159 -4q5 44 5 174v165q0 132 -5 174q69 -3 152 -3q90 0 158 3q-6 -37 -6 -82q-41 1 -140 1h-65q-1 -13 -1 -36v-90l182 1q-2 -22 -2 -79l-180 1v-111q0 -24 1 -36q10 0 32 -0.5t33 -0.5q90 0 160 3zM277 725l131 9l-161 -149
l-63 -5z" />
    <glyph glyph-name="ebreve.sc" horiz-adv-x="436" 
d="M400 81q-3 -27 -5 -84q-60 4 -160 4q-98 0 -159 -4q5 44 5 174v165q0 132 -5 174q69 -3 152 -3q90 0 158 3q-6 -37 -6 -82q-41 1 -140 1h-65q-1 -13 -1 -36v-90l182 1q-2 -22 -2 -79l-180 1v-111q0 -24 1 -36q10 0 32 -0.5t33 -0.5q90 0 160 3zM313 736l77 5
q2 -75 -40 -118.5t-117 -43.5q-66 0 -109 43.5t-43 108.5l79 14q0 -47 20.5 -72.5t57.5 -25.5q38 0 56.5 25t18.5 64z" />
    <glyph glyph-name="ecaron.sc" horiz-adv-x="436" 
d="M400 81q-3 -27 -5 -84q-60 4 -160 4q-98 0 -159 -4q5 44 5 174v165q0 132 -5 174q69 -3 152 -3q90 0 158 3q-6 -37 -6 -82q-41 1 -140 1h-65q-1 -13 -1 -36v-90l182 1q-2 -22 -2 -79l-180 1v-111q0 -24 1 -36q10 0 32 -0.5t33 -0.5q90 0 160 3zM291 586h-115l-98 149
l71 6l86 -94l83 89h77z" />
    <glyph glyph-name="ecircumflex.sc" horiz-adv-x="436" 
d="M400 81q-3 -27 -5 -84q-60 4 -160 4q-98 0 -159 -4q5 44 5 174v165q0 132 -5 174q69 -3 152 -3q90 0 158 3q-6 -37 -6 -82q-41 1 -140 1h-65q-1 -13 -1 -36v-90l182 1q-2 -22 -2 -79l-180 1v-111q0 -24 1 -36q10 0 32 -0.5t33 -0.5q90 0 160 3zM184 735h115l96 -152
l-68 -6l-87 97l-82 -89h-80z" />
    <glyph glyph-name="edieresis.sc" horiz-adv-x="436" 
d="M400 81q-3 -27 -5 -84q-60 4 -160 4q-98 0 -159 -4q5 44 5 174v165q0 132 -5 174q69 -3 152 -3q90 0 158 3q-6 -37 -6 -82q-41 1 -140 1h-65q-1 -13 -1 -36v-90l182 1q-2 -22 -2 -79l-180 1v-111q0 -24 1 -36q10 0 32 -0.5t33 -0.5q90 0 160 3zM385 666q0 -27 -17 -46
t-43 -19q-25 0 -41 17.5t-16 41.5q0 27 17 46t43 19q25 0 41 -18t16 -41zM205 666q0 -27 -17 -46t-43 -19q-25 0 -41 17.5t-16 41.5q0 27 17 46t43 19q25 0 41 -18t16 -41z" />
    <glyph glyph-name="edotaccent.sc" horiz-adv-x="436" 
d="M400 81q-3 -27 -5 -84q-60 4 -160 4q-98 0 -159 -4q5 44 5 174v165q0 132 -5 174q69 -3 152 -3q90 0 158 3q-6 -37 -6 -82q-41 1 -140 1h-65q-1 -13 -1 -36v-90l182 1q-2 -22 -2 -79l-180 1v-111q0 -24 1 -36q10 0 32 -0.5t33 -0.5q90 0 160 3zM295 666q0 -27 -17 -46
t-43 -19q-25 0 -41 17.5t-16 41.5q0 27 17 46t43 19q25 0 41 -18t16 -41z" />
    <glyph glyph-name="egrave.sc" horiz-adv-x="436" 
d="M400 81q-3 -27 -5 -84q-60 4 -160 4q-98 0 -159 -4q5 44 5 174v165q0 132 -5 174q69 -3 152 -3q90 0 158 3q-6 -37 -6 -82q-41 1 -140 1h-65q-1 -13 -1 -36v-90l182 1q-2 -22 -2 -79l-180 1v-111q0 -24 1 -36q10 0 32 -0.5t33 -0.5q90 0 160 3zM76 725l113 9l91 -149
l-59 -5z" />
    <glyph glyph-name="emacron.sc" horiz-adv-x="436" 
d="M400 81q-3 -27 -5 -84q-60 4 -160 4q-98 0 -159 -4q5 44 5 174v165q0 132 -5 174q69 -3 152 -3q90 0 158 3q-6 -37 -6 -82q-41 1 -140 1h-65q-1 -13 -1 -36v-90l182 1q-2 -22 -2 -79l-180 1v-111q0 -24 1 -36q10 0 32 -0.5t33 -0.5q90 0 160 3zM388 699q-5 -33 -5 -76
q-80 2 -113 2h-76q-41 0 -109 -2q4 36 4 76q73 -3 149 -3t150 3z" />
    <glyph glyph-name="eogonek.sc" horiz-adv-x="436" 
d="M400 81q-3 -27 -5 -84q-1 0 -3 0.5t-3 0.5v-1q-113 -61 -113 -115q0 -19 12 -30.5t35 -11.5q29 0 62 21l-5 -62q-30 -20 -73 -20q-48 0 -76.5 24.5t-28.5 65.5q0 69 105 131q-25 1 -72 1q-98 0 -159 -4q5 44 5 174v165q0 132 -5 174q69 -3 152 -3q90 0 158 3
q-6 -37 -6 -82q-41 1 -140 1h-65q-1 -13 -1 -36v-90l182 1q-2 -22 -2 -79l-180 1v-111q0 -24 1 -36q10 0 32 -0.5t33 -0.5q90 0 160 3z" />
    <glyph glyph-name="gbreve.sc" horiz-adv-x="556" 
d="M489 471l-27 -81q-65 45 -133 45q-81 0 -134.5 -52t-53.5 -128q0 -85 49.5 -134.5t124.5 -49.5q51 0 94 20v68q0 29 -1 42h-38q-51 0 -88 -2q3 46 0 81q66 -3 99 -3q51 0 119 3q-5 -35 -5 -177v-62q-86 -54 -192 -54q-110 0 -183.5 74.5t-73.5 178.5q0 117 80 197.5
t201 80.5q97 0 162 -47zM380 736l77 5q2 -75 -40 -118.5t-117 -43.5q-66 0 -109 43.5t-43 108.5l79 14q0 -47 20.5 -72.5t57.5 -25.5q38 0 56.5 25t18.5 64z" />
    <glyph glyph-name="Gbreve.alt" horiz-adv-x="737" 
d="M665 133v-77q-112 -74 -249 -74q-153 0 -257.5 104.5t-104.5 255.5q0 159 109.5 268.5t271.5 109.5q56 0 118 -18t104 -45l-28 -90q-36 29 -93.5 46.5t-110.5 17.5q-120 0 -195 -79t-75 -202q0 -129 78 -204.5t194 -75.5q81 0 142 32v124l-3 130h105q-6 -158 -6 -223z
M486 932l77 5q2 -75 -40 -118.5t-117 -43.5q-66 0 -109 43.5t-43 108.5l79 14q0 -47 20.5 -72.5t57.5 -25.5q38 0 56.5 25t18.5 64z" />
    <glyph glyph-name="gbreve.sc_alt" horiz-adv-x="556" 
d="M489 471l-27 -81q-65 45 -133 45q-81 0 -134.5 -52t-53.5 -128q0 -85 49.5 -134.5t124.5 -49.5q52 0 91 19v75q0 79 -3 94h97q-5 -25 -5 -157v-61q-86 -54 -192 -54q-110 0 -183.5 74.5t-73.5 178.5q0 117 80 197.5t201 80.5q97 0 162 -47zM385 736l77 5
q2 -75 -40 -118.5t-117 -43.5q-66 0 -109 43.5t-43 108.5l79 14q0 -47 20.5 -72.5t57.5 -25.5q38 0 56.5 25t18.5 64z" />
    <glyph glyph-name="gcommaaccent.sc" horiz-adv-x="556" 
d="M489 471l-27 -81q-65 45 -133 45q-81 0 -134.5 -52t-53.5 -128q0 -85 49.5 -134.5t124.5 -49.5q51 0 94 20v68q0 29 -1 42h-38q-51 0 -88 -2q3 46 0 81q66 -3 99 -3q51 0 119 3q-5 -35 -5 -177v-62q-86 -54 -192 -54q-110 0 -183.5 74.5t-73.5 178.5q0 117 80 197.5
t201 80.5q97 0 162 -47zM222 -231l30 20q37 25 37 57q0 25 -32 42l-13 7q15 49 62 49q24 0 41 -18t17 -46q0 -75 -118 -140z" />
    <glyph glyph-name="Gcommaaccent.alt" horiz-adv-x="737" 
d="M665 133v-77q-112 -74 -249 -74q-153 0 -257.5 104.5t-104.5 255.5q0 159 109.5 268.5t271.5 109.5q56 0 118 -18t104 -45l-28 -90q-36 29 -93.5 46.5t-110.5 17.5q-120 0 -195 -79t-75 -202q0 -129 78 -204.5t194 -75.5q81 0 142 32v124l-3 130h105q-6 -158 -6 -223z
M326 -231l30 20q37 25 37 57q0 25 -32 42l-13 7q15 49 62 49q24 0 41 -18t17 -46q0 -75 -118 -140z" />
    <glyph glyph-name="gcommaaccent.sc_alt" horiz-adv-x="556" 
d="M489 471l-27 -81q-65 45 -133 45q-81 0 -134.5 -52t-53.5 -128q0 -85 49.5 -134.5t124.5 -49.5q52 0 91 19v75q0 79 -3 94h97q-5 -25 -5 -157v-61q-86 -54 -192 -54q-110 0 -183.5 74.5t-73.5 178.5q0 117 80 197.5t201 80.5q97 0 162 -47zM222 -231l30 20q37 25 37 57
q0 25 -32 42l-13 7q15 49 62 49q24 0 41 -18t17 -46q0 -75 -118 -140z" />
    <glyph glyph-name="gdotaccent.sc" horiz-adv-x="556" 
d="M489 471l-27 -81q-65 45 -133 45q-81 0 -134.5 -52t-53.5 -128q0 -85 49.5 -134.5t124.5 -49.5q51 0 94 20v68q0 29 -1 42h-38q-51 0 -88 -2q3 46 0 81q66 -3 99 -3q51 0 119 3q-5 -35 -5 -177v-62q-86 -54 -192 -54q-110 0 -183.5 74.5t-73.5 178.5q0 117 80 197.5
t201 80.5q97 0 162 -47zM362 666q0 -27 -17 -46t-43 -19q-25 0 -41 17.5t-16 41.5q0 27 17 46t43 19q25 0 41 -18t16 -41z" />
    <glyph glyph-name="Gdotaccent.alt" horiz-adv-x="737" 
d="M665 133v-77q-112 -74 -249 -74q-153 0 -257.5 104.5t-104.5 255.5q0 159 109.5 268.5t271.5 109.5q56 0 118 -18t104 -45l-28 -90q-36 29 -93.5 46.5t-110.5 17.5q-120 0 -195 -79t-75 -202q0 -129 78 -204.5t194 -75.5q81 0 142 32v124l-3 130h105q-6 -158 -6 -223z
M468 862q0 -27 -17 -46t-43 -19q-25 0 -41 17.5t-16 41.5q0 27 17 46t43 19q25 0 41 -18t16 -41z" />
    <glyph glyph-name="gdotaccent.sc_alt" horiz-adv-x="556" 
d="M489 471l-27 -81q-65 45 -133 45q-81 0 -134.5 -52t-53.5 -128q0 -85 49.5 -134.5t124.5 -49.5q52 0 91 19v75q0 79 -3 94h97q-5 -25 -5 -157v-61q-86 -54 -192 -54q-110 0 -183.5 74.5t-73.5 178.5q0 117 80 197.5t201 80.5q97 0 162 -47zM367 666q0 -27 -17 -46
t-43 -19q-25 0 -41 17.5t-16 41.5q0 27 17 46t43 19q25 0 41 -18t16 -41z" />
    <glyph glyph-name="hbar.sc" horiz-adv-x="588" 
d="M578 425q-5 -38 -5 -69q-22 0 -66 2v-254q0 -77 4 -104h-103q6 42 6 163v53h-239v-112q0 -84 3 -104h-102q5 44 5 174v159v25q-12 0 -34.5 -1t-33.5 -1q3 32 3 69l64 -2q-2 65 -4 83q70 0 102 4q-3 -18 -3 -89h119q77 0 119 1q-2 55 -5 84q70 0 103 4q-4 -23 -4 -87z
M414 292v35v31q-21 1 -60 1h-179v-67h239z" />
    <glyph glyph-name="iacute.sc" horiz-adv-x="261" 
d="M181 0h-102q5 44 5 174v159q0 131 -5 173q70 0 102 4q-3 -21 -3 -107v-299q0 -84 3 -104zM171 725l131 9l-161 -149l-63 -5z" />
    <glyph glyph-name="ibreve.sc" horiz-adv-x="261" 
d="M181 0h-102q5 44 5 174v159q0 131 -5 173q70 0 102 4q-3 -21 -3 -107v-299q0 -84 3 -104zM207 736l77 5q2 -75 -40 -118.5t-117 -43.5q-66 0 -109 43.5t-43 108.5l79 14q0 -47 20.5 -72.5t57.5 -25.5q38 0 56.5 25t18.5 64z" />
    <glyph glyph-name="icircumflex.sc" horiz-adv-x="261" 
d="M181 0h-102q5 44 5 174v159q0 131 -5 173q70 0 102 4q-3 -21 -3 -107v-299q0 -84 3 -104zM78 735h115l96 -152l-68 -6l-87 97l-82 -89h-80z" />
    <glyph glyph-name="idieresis.sc" horiz-adv-x="261" 
d="M181 0h-102q5 44 5 174v159q0 131 -5 173q70 0 102 4q-3 -21 -3 -107v-299q0 -84 3 -104zM99 666q0 -27 -17 -46t-43 -19q-25 0 -41 17.5t-16 41.5q0 27 17 46t43 19q25 0 41 -18t16 -41zM279 666q0 -27 -17 -46t-43 -19q-25 0 -41 17.5t-16 41.5q0 27 17 46t43 19
q25 0 41 -18t16 -41z" />
    <glyph glyph-name="idotaccent.sc" horiz-adv-x="261" 
d="M181 0h-102q5 44 5 174v159q0 131 -5 173q70 0 102 4q-3 -21 -3 -107v-299q0 -84 3 -104zM189 666q0 -27 -17 -46t-43 -19q-25 0 -41 17.5t-16 41.5q0 27 17 46t43 19q25 0 41 -18t16 -41z" />
    <glyph glyph-name="dotlessi.sc" horiz-adv-x="261" 
d="M181 0h-102q5 44 5 174v159q0 131 -5 173q70 0 102 4q-3 -21 -3 -107v-299q0 -84 3 -104z" />
    <glyph glyph-name="igrave.sc" horiz-adv-x="261" 
d="M181 0h-102q5 44 5 174v159q0 131 -5 173q70 0 102 4q-3 -21 -3 -107v-299q0 -84 3 -104zM-30 725l113 9l91 -149l-59 -5z" />
    <glyph glyph-name="imacron.sc" horiz-adv-x="261" 
d="M181 0h-102q5 44 5 174v159q0 131 -5 173q70 0 102 4q-3 -21 -3 -107v-299q0 -84 3 -104zM282 699q-5 -33 -5 -76q-80 2 -113 2h-76q-41 0 -109 -2q4 36 4 76q74 -3 149 -3q77 0 150 3z" />
    <glyph glyph-name="iogonek.sc" horiz-adv-x="261" 
d="M181 0q-89 -63 -89 -118q0 -19 12 -30.5t35 -11.5q29 0 62 21l-5 -62q-30 -20 -73 -20q-48 0 -76.5 24.5t-28.5 65.5q0 69 82 131h-21q5 44 5 174v159q0 131 -5 173q70 0 102 4q-3 -21 -3 -107v-299q0 -84 3 -104z" />
    <glyph glyph-name="kcommaaccent.sc" horiz-adv-x="511" 
d="M498 1l-110 -7l-213 252v-142q0 -74 3 -104h-102q6 52 6 174v159q0 122 -6 173q70 0 102 4q-3 -32 -3 -107v-132l86 102q69 80 112 135h115l-218 -244l109 -127q92 -108 119 -136zM201 -231l30 20q37 25 37 57q0 25 -32 42l-13 7q15 49 62 49q24 0 41 -18t17 -46
q0 -75 -118 -140z" />
    <glyph glyph-name="lacute.sc" horiz-adv-x="415" 
d="M76 -3q5 44 5 175v161q0 131 -5 173q70 0 102 4q-3 -21 -3 -107v-282q0 -28 1 -41q10 0 30.5 -0.5t30.5 -0.5q58 0 154 2q-4 -38 -6 -84q-60 4 -153 4q-95 0 -156 -4zM196 726l131 9l-161 -149l-63 -5z" />
    <glyph glyph-name="lcaron.sc" horiz-adv-x="415" 
d="M76 -3q5 44 5 175v161q0 131 -5 173q70 0 102 4q-3 -21 -3 -107v-282q0 -28 1 -41q10 0 30.5 -0.5t30.5 -0.5q58 0 154 2q-4 -38 -6 -84q-60 4 -153 4q-95 0 -156 -4zM286 351l-40 -9q8 98 8 166q17 3 76 11q-27 -116 -44 -168z" />
    <glyph glyph-name="lcommaaccent.sc" horiz-adv-x="415" 
d="M76 -3q5 44 5 175v161q0 131 -5 173q70 0 102 4q-3 -21 -3 -107v-282q0 -28 1 -41q10 0 30.5 -0.5t30.5 -0.5q58 0 154 2q-4 -38 -6 -84q-60 4 -153 4q-95 0 -156 -4zM147 -231l30 20q37 25 37 57q0 25 -32 42l-13 7q15 49 62 49q24 0 41 -18t17 -46q0 -75 -118 -140z
" />
    <glyph glyph-name="ldot.sc" horiz-adv-x="415" 
d="M76 -3q5 44 5 175v161q0 131 -5 173q70 0 102 4q-3 -21 -3 -107v-282q0 -28 1 -41q10 0 30.5 -0.5t30.5 -0.5q58 0 154 2q-4 -38 -6 -84q-60 4 -153 4q-95 0 -156 -4zM387 288q0 -27 -17 -46t-43 -19q-25 0 -41 17.5t-16 41.5q0 27 17 46t43 19q25 0 41 -18t16 -41z" />
    <glyph glyph-name="lslash.sc" horiz-adv-x="415" 
d="M76 -4q5 44 5 175v27q-14 -8 -46 -27q-18 39 -36 67q52 27 82 44v50q0 130 -5 173q70 0 102 4q-3 -21 -3 -107v-67l72 45q18 -39 36 -67q-57 -31 -108 -61v-132q0 -28 1 -41q10 0 30.5 -0.5t30.5 -0.5q58 0 154 2q-4 -38 -6 -84q-60 4 -153 4q-95 0 -156 -4z" />
    <glyph glyph-name="nacute.sc" horiz-adv-x="593" 
d="M71 0q8 70 8 174l2 170q3 119 -3 167l35 7l313 -351v166q0 132 -6 173q68 0 100 4q-2 -11 -5 -107l-4 -305q0 -84 2 -104l-35 -7l-310 348v-231q0 -74 3 -104h-100zM336 725l131 9l-161 -149l-63 -5z" />
    <glyph glyph-name="ncaron.sc" horiz-adv-x="593" 
d="M71 0q8 70 8 174l2 170q3 119 -3 167l35 7l313 -351v166q0 132 -6 173q68 0 100 4q-2 -11 -5 -107l-4 -305q0 -84 2 -104l-35 -7l-310 348v-231q0 -74 3 -104h-100zM350 586h-115l-98 149l71 6l86 -94l83 89h77z" />
    <glyph glyph-name="ncommaaccent.sc" horiz-adv-x="593" 
d="M71 0q8 70 8 174l2 170q3 119 -3 167l35 7l313 -351v166q0 132 -6 173q68 0 100 4q-2 -11 -5 -107l-4 -305q0 -84 2 -104l-35 -7l-310 348v-231q0 -74 3 -104h-100zM209 -231l30 20q37 25 37 57q0 25 -32 42l-13 7q15 49 62 49q24 0 41 -18t17 -46q0 -75 -118 -140z" />
    <glyph glyph-name="ntilde.sc" horiz-adv-x="593" 
d="M71 0q8 70 8 174l2 170q3 119 -3 167l35 7l313 -351v166q0 132 -6 173q68 0 100 4q-2 -11 -5 -107l-4 -305q0 -84 2 -104l-35 -7l-310 348v-231q0 -74 3 -104h-100zM122 594q12 77 39 109t68 32q32 0 80.5 -36.5t63.5 -36.5q26 0 38 77l69 -10q-22 -146 -108 -146
q-32 0 -81 36.5t-64 36.5q-14 0 -21.5 -15t-13.5 -57z" />
    <glyph glyph-name="oacute.sc" horiz-adv-x="602" 
d="M308 518q109 0 178.5 -73.5t69.5 -179.5q0 -119 -73.5 -198.5t-188.5 -79.5q-109 0 -178.5 73.5t-69.5 179.5q0 119 73.5 198.5t188.5 79.5zM300 67q71 0 116 54t45 131q0 85 -44.5 135.5t-114.5 50.5q-71 0 -116 -54t-45 -131q0 -85 44.5 -135.5t114.5 -50.5zM342 725
l131 9l-161 -149l-63 -5z" />
    <glyph glyph-name="obreve.sc" horiz-adv-x="602" 
d="M308 518q109 0 178.5 -73.5t69.5 -179.5q0 -119 -73.5 -198.5t-188.5 -79.5q-109 0 -178.5 73.5t-69.5 179.5q0 119 73.5 198.5t188.5 79.5zM300 67q71 0 116 54t45 131q0 85 -44.5 135.5t-114.5 50.5q-71 0 -116 -54t-45 -131q0 -85 44.5 -135.5t114.5 -50.5zM378 736
l77 5q2 -75 -40 -118.5t-117 -43.5q-66 0 -109 43.5t-43 108.5l79 14q0 -47 20.5 -72.5t57.5 -25.5q38 0 56.5 25t18.5 64z" />
    <glyph glyph-name="ocircumflex.sc" horiz-adv-x="602" 
d="M308 518q109 0 178.5 -73.5t69.5 -179.5q0 -119 -73.5 -198.5t-188.5 -79.5q-109 0 -178.5 73.5t-69.5 179.5q0 119 73.5 198.5t188.5 79.5zM300 67q71 0 116 54t45 131q0 85 -44.5 135.5t-114.5 50.5q-71 0 -116 -54t-45 -131q0 -85 44.5 -135.5t114.5 -50.5zM249 735
h115l96 -152l-68 -6l-87 97l-82 -89h-80z" />
    <glyph glyph-name="odieresis.sc" horiz-adv-x="602" 
d="M308 518q109 0 178.5 -73.5t69.5 -179.5q0 -119 -73.5 -198.5t-188.5 -79.5q-109 0 -178.5 73.5t-69.5 179.5q0 119 73.5 198.5t188.5 79.5zM300 67q71 0 116 54t45 131q0 85 -44.5 135.5t-114.5 50.5q-71 0 -116 -54t-45 -131q0 -85 44.5 -135.5t114.5 -50.5zM270 666
q0 -27 -17 -46t-43 -19q-25 0 -41 17.5t-16 41.5q0 27 17 46t43 19q25 0 41 -18t16 -41zM450 666q0 -27 -17 -46t-43 -19q-25 0 -41 17.5t-16 41.5q0 27 17 46t43 19q25 0 41 -18t16 -41z" />
    <glyph glyph-name="ograve.sc" horiz-adv-x="602" 
d="M308 518q109 0 178.5 -73.5t69.5 -179.5q0 -119 -73.5 -198.5t-188.5 -79.5q-109 0 -178.5 73.5t-69.5 179.5q0 119 73.5 198.5t188.5 79.5zM300 67q71 0 116 54t45 131q0 85 -44.5 135.5t-114.5 50.5q-71 0 -116 -54t-45 -131q0 -85 44.5 -135.5t114.5 -50.5zM141 725
l113 9l91 -149l-59 -5z" />
    <glyph glyph-name="ohungarumlaut.sc" horiz-adv-x="602" 
d="M308 518q109 0 178.5 -73.5t69.5 -179.5q0 -119 -73.5 -198.5t-188.5 -79.5q-109 0 -178.5 73.5t-69.5 179.5q0 119 73.5 198.5t188.5 79.5zM300 67q71 0 116 54t45 131q0 85 -44.5 135.5t-114.5 50.5q-71 0 -116 -54t-45 -131q0 -85 44.5 -135.5t114.5 -50.5zM238 730
l116 9l-99 -156l-66 -3zM402 732l121 11l-111 -158l-66 -3z" />
    <glyph glyph-name="omacron.sc" horiz-adv-x="602" 
d="M308 518q109 0 178.5 -73.5t69.5 -179.5q0 -119 -73.5 -198.5t-188.5 -79.5q-109 0 -178.5 73.5t-69.5 179.5q0 119 73.5 198.5t188.5 79.5zM300 67q71 0 116 54t45 131q0 85 -44.5 135.5t-114.5 50.5q-71 0 -116 -54t-45 -131q0 -85 44.5 -135.5t114.5 -50.5zM453 699
q-5 -33 -5 -76q-80 2 -113 2h-76q-41 0 -109 -2q4 36 4 76q73 -3 149 -3q77 0 150 3z" />
    <glyph glyph-name="oslash.sc" horiz-adv-x="602" 
d="M95 -32l-48 35q48 51 60 66q-61 70 -61 171q0 119 73.5 198.5t188.5 79.5q82 0 145 -45q34 38 53 62q20 -20 47 -38q-19 -20 -57 -64q60 -71 60 -168q0 -119 -73.5 -198.5t-188.5 -79.5q-82 0 -144 43q-50 -56 -55 -62zM141 253q0 -66 28 -113l227 266q-40 32 -94 32
q-71 0 -116 -54t-45 -131zM300 67q71 0 116 54t45 131q0 64 -27 110l-226 -266q38 -29 92 -29z" />
    <glyph glyph-name="oslashacute.sc" horiz-adv-x="602" 
d="M95 -32l-48 35q48 51 60 66q-61 70 -61 171q0 119 73.5 198.5t188.5 79.5q82 0 145 -45q34 38 53 62q20 -20 47 -38q-19 -20 -57 -64q60 -71 60 -168q0 -119 -73.5 -198.5t-188.5 -79.5q-82 0 -144 43q-50 -56 -55 -62zM141 253q0 -66 28 -113l227 266q-40 32 -94 32
q-71 0 -116 -54t-45 -131zM300 67q71 0 116 54t45 131q0 64 -27 110l-226 -266q38 -29 92 -29zM342 725l131 9l-161 -149l-63 -5z" />
    <glyph glyph-name="otilde.sc" horiz-adv-x="602" 
d="M308 518q109 0 178.5 -73.5t69.5 -179.5q0 -119 -73.5 -198.5t-188.5 -79.5q-109 0 -178.5 73.5t-69.5 179.5q0 119 73.5 198.5t188.5 79.5zM300 67q71 0 116 54t45 131q0 85 -44.5 135.5t-114.5 50.5q-71 0 -116 -54t-45 -131q0 -85 44.5 -135.5t114.5 -50.5zM128 594
q12 77 39 109t68 32q32 0 80.5 -36.5t63.5 -36.5q26 0 38 77l69 -10q-22 -146 -108 -146q-32 0 -81 36.5t-64 36.5q-14 0 -21.5 -15t-13.5 -57z" />
    <glyph glyph-name="racute.sc" horiz-adv-x="496" 
d="M476 4l-107 -10l-122 192h-73v-82q0 -74 3 -104h-101q5 44 5 174v159q0 131 -5 173q15 0 147 4q99 1 155 -41t55 -110q-1 -99 -103 -148l77 -112q34 -49 69 -95zM174 260h70q44 0 70 24.5t26 60.5q0 85 -109 85q-22 0 -56 -2q-1 -15 -1 -38v-130zM282 725l131 9
l-161 -149l-63 -5z" />
    <glyph glyph-name="rcaron.sc" horiz-adv-x="496" 
d="M476 4l-107 -10l-122 192h-73v-82q0 -74 3 -104h-101q5 44 5 174v159q0 131 -5 173q15 0 147 4q99 1 155 -41t55 -110q-1 -99 -103 -148l77 -112q34 -49 69 -95zM296 586h-115l-98 149l71 6l86 -94l83 89h77zM174 260h70q44 0 70 24.5t26 60.5q0 85 -109 85q-22 0 -56 -2
q-1 -15 -1 -38v-130z" />
    <glyph glyph-name="rcommaaccent.sc" horiz-adv-x="496" 
d="M476 4l-107 -10l-122 192h-73v-82q0 -74 3 -104h-101q5 44 5 174v159q0 131 -5 173q15 0 147 4q99 1 155 -41t55 -110q-1 -99 -103 -148l77 -112q34 -49 69 -95zM174 260h70q44 0 70 24.5t26 60.5q0 85 -109 85q-22 0 -56 -2q-1 -15 -1 -38v-130zM173 -231l30 20
q37 25 37 57q0 25 -32 42l-13 7q15 49 62 49q24 0 41 -18t17 -46q0 -75 -118 -140z" />
    <glyph glyph-name="sacute.sc" horiz-adv-x="418" 
d="M373 145q0 -70 -48.5 -114t-127.5 -44q-84 0 -152 42l4 94q25 -21 68 -37.5t84 -16.5q37 0 59 17t22 48q0 29 -34.5 55t-75.5 44.5t-75.5 54t-34.5 80.5q0 66 47 108t121 42q76 0 129 -37l-25 -80q-49 36 -104 36q-35 0 -55.5 -16.5t-20.5 -43.5q0 -23 22.5 -42t55 -35
t64.5 -34.5t54.5 -49.5t22.5 -71zM266 725l131 9l-161 -149l-63 -5z" />
    <glyph glyph-name="scaron.sc" horiz-adv-x="418" 
d="M373 145q0 -70 -48.5 -114t-127.5 -44q-84 0 -152 42l4 94q25 -21 68 -37.5t84 -16.5q37 0 59 17t22 48q0 29 -34.5 55t-75.5 44.5t-75.5 54t-34.5 80.5q0 66 47 108t121 42q76 0 129 -37l-25 -80q-49 36 -104 36q-35 0 -55.5 -16.5t-20.5 -43.5q0 -23 22.5 -42t55 -35
t64.5 -34.5t54.5 -49.5t22.5 -71zM280 586h-115l-98 149l71 6l86 -94l83 89h77z" />
    <glyph glyph-name="scedilla.sc" horiz-adv-x="418" 
d="M373 145q0 -62 -38 -104t-103 -51l-15 -54q103 -29 103 -93q0 -34 -30 -59t-81 -25q-38 0 -85 14l13 58q42 -15 79 -15q38 0 38 25q0 28 -91 50l-5 4q5 14 25 93q-81 5 -138 41l4 94q25 -21 68 -37.5t84 -16.5q37 0 59 17t22 48q0 29 -34.5 55t-75.5 44.5t-75.5 54
t-34.5 80.5q0 66 47 108t121 42q76 0 129 -37l-25 -80q-49 36 -104 36q-35 0 -55.5 -16.5t-20.5 -43.5q0 -23 22.5 -42t55 -35t64.5 -34.5t54.5 -49.5t22.5 -71z" />
    <glyph glyph-name="scommaaccent.sc" horiz-adv-x="418" 
d="M373 145q0 -70 -48.5 -114t-127.5 -44q-84 0 -152 42l4 94q25 -21 68 -37.5t84 -16.5q37 0 59 17t22 48q0 29 -34.5 55t-75.5 44.5t-75.5 54t-34.5 80.5q0 66 47 108t121 42q76 0 129 -37l-25 -80q-49 36 -104 36q-35 0 -55.5 -16.5t-20.5 -43.5q0 -23 22.5 -42t55 -35
t64.5 -34.5t54.5 -49.5t22.5 -71zM113 -231l30 20q37 25 37 57q0 25 -32 42l-13 7q15 49 62 49q24 0 41 -18t17 -46q0 -75 -118 -140z" />
    <glyph glyph-name="tcaron.sc" horiz-adv-x="494" 
d="M461 510q-5 -43 -5 -86q-108 2 -162 2q-1 -15 -1 -45v-277q0 -84 3 -104h-102q6 52 6 174v142q0 51 -3 110q-58 0 -164 -2q2 24 2 86q100 -3 211 -3q114 0 215 3zM302 586h-115l-98 149l71 6l86 -94l83 89h77z" />
    <glyph glyph-name="tcommaaccent.sc" horiz-adv-x="494" 
d="M461 510q-5 -43 -5 -86q-108 2 -162 2q-1 -15 -1 -45v-277q0 -84 3 -104h-102q6 52 6 174v142q0 51 -3 110q-58 0 -164 -2q2 24 2 86q100 -3 211 -3q114 0 215 3zM161 -231l30 20q37 25 37 57q0 25 -32 42l-13 7q15 49 62 49q24 0 41 -18t17 -46q0 -75 -118 -140z" />
    <glyph glyph-name="uacute.sc" horiz-adv-x="575" 
d="M504 510q-4 -28 -4 -107v-188q0 -111 -58 -168q-60 -60 -164 -60q-91 0 -147 51t-56 139v156q0 131 -5 173q69 0 101 4q-3 -32 -3 -107v-198q0 -134 122 -134q56 0 86.5 31.5t30.5 88.5v142q0 122 -6 173q70 0 103 4zM327 725l131 9l-161 -149l-63 -5z" />
    <glyph glyph-name="ubreve.sc" horiz-adv-x="575" 
d="M504 510q-4 -28 -4 -107v-188q0 -111 -58 -168q-60 -60 -164 -60q-91 0 -147 51t-56 139v156q0 131 -5 173q69 0 101 4q-3 -32 -3 -107v-198q0 -134 122 -134q56 0 86.5 31.5t30.5 88.5v142q0 122 -6 173q70 0 103 4zM363 736l77 5q2 -75 -40 -118.5t-117 -43.5
q-66 0 -109 43.5t-43 108.5l79 14q0 -47 20.5 -72.5t57.5 -25.5q38 0 56.5 25t18.5 64z" />
    <glyph glyph-name="ucircumflex.sc" horiz-adv-x="575" 
d="M504 510q-4 -28 -4 -107v-188q0 -111 -58 -168q-60 -60 -164 -60q-91 0 -147 51t-56 139v156q0 131 -5 173q69 0 101 4q-3 -32 -3 -107v-198q0 -134 122 -134q56 0 86.5 31.5t30.5 88.5v142q0 122 -6 173q70 0 103 4zM234 735h115l96 -152l-68 -6l-87 97l-82 -89h-80z
" />
    <glyph glyph-name="udieresis.sc" horiz-adv-x="575" 
d="M504 510q-4 -28 -4 -107v-188q0 -111 -58 -168q-60 -60 -164 -60q-91 0 -147 51t-56 139v156q0 131 -5 173q69 0 101 4q-3 -32 -3 -107v-198q0 -134 122 -134q56 0 86.5 31.5t30.5 88.5v142q0 122 -6 173q70 0 103 4zM255 666q0 -27 -17 -46t-43 -19q-25 0 -41 17.5
t-16 41.5q0 27 17 46t43 19q25 0 41 -18t16 -41zM435 666q0 -27 -17 -46t-43 -19q-25 0 -41 17.5t-16 41.5q0 27 17 46t43 19q25 0 41 -18t16 -41z" />
    <glyph glyph-name="ugrave.sc" horiz-adv-x="575" 
d="M504 510q-4 -28 -4 -107v-188q0 -111 -58 -168q-60 -60 -164 -60q-91 0 -147 51t-56 139v156q0 131 -5 173q69 0 101 4q-3 -32 -3 -107v-198q0 -134 122 -134q56 0 86.5 31.5t30.5 88.5v142q0 122 -6 173q70 0 103 4zM126 725l113 9l91 -149l-59 -5z" />
    <glyph glyph-name="uhungarumlaut.sc" horiz-adv-x="575" 
d="M504 510q-4 -28 -4 -107v-188q0 -111 -58 -168q-60 -60 -164 -60q-91 0 -147 51t-56 139v156q0 131 -5 173q69 0 101 4q-3 -32 -3 -107v-198q0 -134 122 -134q56 0 86.5 31.5t30.5 88.5v142q0 122 -6 173q70 0 103 4zM223 730l116 9l-99 -156l-66 -3zM387 732l121 11
l-111 -158l-66 -3z" />
    <glyph glyph-name="umacron.sc" horiz-adv-x="575" 
d="M504 510q-4 -28 -4 -107v-188q0 -111 -58 -168q-60 -60 -164 -60q-91 0 -147 51t-56 139v156q0 131 -5 173q69 0 101 4q-3 -32 -3 -107v-198q0 -134 122 -134q56 0 86.5 31.5t30.5 88.5v142q0 122 -6 173q70 0 103 4zM438 699q-5 -33 -5 -76q-80 2 -113 2h-76
q-41 0 -109 -2q4 36 4 76q73 -3 149 -3t150 3z" />
    <glyph glyph-name="uogonek.sc" horiz-adv-x="575" 
d="M203 -131q0 62 77 118h-2q-91 0 -147 51t-56 139v156q0 131 -5 173q69 0 101 4q-3 -32 -3 -107v-198q0 -134 122 -134q56 0 86.5 31.5t30.5 88.5v142q0 122 -6 173q70 0 103 4q-4 -28 -4 -107v-188q0 -61 -13.5 -98t-43.5 -67q-26 -26 -77 -55q-89 -51 -89 -113
q0 -19 12 -30.5t35 -11.5q29 0 62 21l-5 -62q-30 -20 -73 -20q-48 0 -76.5 24.5t-28.5 65.5z" />
    <glyph glyph-name="uring.sc" horiz-adv-x="575" 
d="M504 510q-4 -28 -4 -107v-188q0 -111 -58 -168q-60 -60 -164 -60q-91 0 -147 51t-56 139v156q0 131 -5 173q69 0 101 4q-3 -32 -3 -107v-198q0 -134 122 -134q56 0 86.5 31.5t30.5 88.5v142q0 122 -6 173q70 0 103 4zM405 697q0 -49 -33.5 -83t-87.5 -34q-52 0 -84 31
t-32 75q0 50 33.5 82.5t87.5 32.5q52 0 84 -30t32 -74zM341 690q0 27 -14 43t-40 16t-40.5 -16t-14.5 -40q0 -26 15 -43t39 -17q26 0 40.5 16.5t14.5 40.5z" />
    <glyph glyph-name="wacute.sc" horiz-adv-x="751" 
d="M736 506l-140 -367q-34 -91 -52 -144l-34 -7l-133 350l-79 -202q-4 -11 -15 -38t-21.5 -54.5t-20.5 -53.5l-34 -2l-134 369q-26 72 -58 147l99 6l121 -341l76 204l50 137l34 6l132 -342l66 194q12 36 44 138h99zM416 725l131 9l-161 -149l-63 -5z" />
    <glyph glyph-name="wcircumflex.sc" horiz-adv-x="751" 
d="M736 506l-140 -367q-34 -91 -52 -144l-34 -7l-133 350l-79 -202q-4 -11 -15 -38t-21.5 -54.5t-20.5 -53.5l-34 -2l-134 369q-26 72 -58 147l99 6l121 -341l76 204l50 137l34 6l132 -342l66 194q12 36 44 138h99zM323 735h115l96 -152l-68 -6l-87 97l-82 -89h-80z" />
    <glyph glyph-name="wdieresis.sc" horiz-adv-x="751" 
d="M736 506l-140 -367q-34 -91 -52 -144l-34 -7l-133 350l-79 -202q-4 -11 -15 -38t-21.5 -54.5t-20.5 -53.5l-34 -2l-134 369q-26 72 -58 147l99 6l121 -341l76 204l50 137l34 6l132 -342l66 194q12 36 44 138h99zM344 666q0 -27 -17 -46t-43 -19q-25 0 -41 17.5t-16 41.5
q0 27 17 46t43 19q25 0 41 -18t16 -41zM524 666q0 -27 -17 -46t-43 -19q-25 0 -41 17.5t-16 41.5q0 27 17 46t43 19q25 0 41 -18t16 -41z" />
    <glyph glyph-name="wgrave.sc" horiz-adv-x="751" 
d="M736 506l-140 -367q-34 -91 -52 -144l-34 -7l-133 350l-79 -202q-4 -11 -15 -38t-21.5 -54.5t-20.5 -53.5l-34 -2l-134 369q-26 72 -58 147l99 6l121 -341l76 204l50 137l34 6l132 -342l66 194q12 36 44 138h99zM215 725l113 9l91 -149l-59 -5z" />
    <glyph glyph-name="yacute.sc" horiz-adv-x="490" 
d="M13 506l103 6l131 -218l39 62q14 22 49 81t42 70h104l-190 -289v-114q0 -77 4 -104h-102q6 52 6 174v41l-75 119q-75 120 -111 172zM288 725l131 9l-161 -149l-63 -5z" />
    <glyph glyph-name="ycircumflex.sc" horiz-adv-x="490" 
d="M13 506l103 6l131 -218l39 62q14 22 49 81t42 70h104l-190 -289v-114q0 -77 4 -104h-102q6 52 6 174v41l-75 119q-75 120 -111 172zM195 735h115l96 -152l-68 -6l-87 97l-82 -89h-80z" />
    <glyph glyph-name="ydieresis.sc" horiz-adv-x="490" 
d="M13 506l103 6l131 -218l39 62q14 22 49 81t42 70h104l-190 -289v-114q0 -77 4 -104h-102q6 52 6 174v41l-75 119q-75 120 -111 172zM396 666q0 -27 -17 -46t-43 -19q-25 0 -41 17.5t-16 41.5q0 27 17 46t43 19q25 0 41 -18t16 -41zM216 666q0 -27 -17 -46t-43 -19
q-25 0 -41 17.5t-16 41.5q0 27 17 46t43 19q25 0 41 -18t16 -41z" />
    <glyph glyph-name="ygrave.sc" horiz-adv-x="490" 
d="M13 506l103 6l131 -218l39 62q14 22 49 81t42 70h104l-190 -289v-114q0 -77 4 -104h-102q6 52 6 174v41l-75 119q-75 120 -111 172zM87 725l113 9l91 -149l-59 -5z" />
    <glyph glyph-name="zacute.sc" horiz-adv-x="489" 
d="M446 510l19 -18l-294 -414q22 -1 92 -1q92 0 182 2q-4 -37 -6 -82q-56 4 -191 4t-204 -4l-20 19l295 414q-24 1 -86 1q-70 0 -174 -2q3 35 3 81q102 -3 191 -3q121 0 193 3zM302 725l131 9l-161 -149l-63 -5z" />
    <glyph glyph-name="zcaron.sc" horiz-adv-x="489" 
d="M446 510l19 -18l-294 -414q22 -1 92 -1q92 0 182 2q-4 -37 -6 -82q-56 4 -191 4t-204 -4l-20 19l295 414q-24 1 -86 1q-70 0 -174 -2q3 35 3 81q102 -3 191 -3q121 0 193 3zM316 586h-115l-98 149l71 6l86 -94l83 89h77z" />
    <glyph glyph-name="zdotaccent.sc" horiz-adv-x="489" 
d="M446 510l19 -18l-294 -414q22 -1 92 -1q92 0 182 2q-4 -37 -6 -82q-56 4 -191 4t-204 -4l-20 19l295 414q-24 1 -86 1q-70 0 -174 -2q3 35 3 81q102 -3 191 -3q121 0 193 3zM320 666q0 -27 -17 -46t-43 -19q-25 0 -41 17.5t-16 41.5q0 27 17 46t43 19q25 0 41 -18t16 -41
z" />
    <glyph glyph-name="ae.sc" horiz-adv-x="688" 
d="M99 0h-102l226 369q57 95 82 141q78 -3 161 -3q96 0 172 3q-6 -38 -6 -82q-41 1 -134 1h-65q-1 -13 -1 -36v-90l172 2q-2 -22 -2 -79l-170 1v-112q0 -24 1 -36q11 0 33 -0.5t32 -0.5q84 0 154 3q-3 -27 -5 -84q-60 4 -154 4q-98 0 -159 -4q3 23 5 129h-168
q-25 -41 -72 -126zM339 336q0 45 -1 71l-126 -210h127v139z" />
    <glyph glyph-name="aeacute.sc" horiz-adv-x="688" 
d="M99 0h-102l226 369q57 95 82 141q78 -3 161 -3q96 0 172 3q-6 -38 -6 -82q-41 1 -134 1h-65q-1 -13 -1 -36v-90l172 2q-2 -22 -2 -79l-170 1v-112q0 -24 1 -36q11 0 33 -0.5t32 -0.5q84 0 154 3q-3 -27 -5 -84q-60 4 -154 4q-98 0 -159 -4q3 23 5 129h-168
q-25 -41 -72 -126zM339 336q0 45 -1 71l-126 -210h127v139zM469 725l131 9l-161 -149l-63 -5z" />
    <glyph glyph-name="oe.sc" horiz-adv-x="727" 
d="M311 510q22 0 98.5 -1.5t105.5 -1.5q90 0 162 3q-6 -38 -6 -82q-41 1 -134 1h-65q-1 -13 -1 -36v-90l172 2q-2 -22 -2 -79l-170 1v-112q0 -24 1 -36q10 0 32 -0.5t33 -0.5q83 0 154 3q-3 -27 -5 -84q-60 4 -154 4q-26 0 -106 -0.5t-100 -0.5q-132 0 -206 68t-74 175
q0 119 73 193t192 74zM139 251q0 -77 48.5 -124t134.5 -47q16 0 54 2q1 12 1 42v265q0 24 -1 37q-40 4 -56 4q-92 0 -136.5 -50.5t-44.5 -128.5z" />
    <glyph glyph-name="eth.sc" horiz-adv-x="553" 
d="M506 267q0 -119 -73 -193t-192 -74h-165q5 44 5 174v45l-69 -2q3 30 3 79l66 -3v40q0 129 -5 173q7 0 57.5 2t92.5 2q132 0 206 -68t74 -175zM413 259q0 77 -48.5 124t-134.5 47q-16 0 -54 -2q-1 -12 -1 -42v-93q57 0 107 3q-5 -37 -5 -79q-66 2 -97 2h-5v-98
q0 -24 1 -37q40 -4 56 -4q92 0 136.5 50.5t44.5 128.5z" />
    <glyph glyph-name="thorn.sc" horiz-adv-x="484" 
d="M175 340q-1 -15 -1 -39v-137q12 -2 46 -2q59 0 95.5 23.5t36.5 67.5q0 88 -122 88q-36 0 -55 -1zM175 421q19 1 60 1q99 0 154 -44.5t55 -118.5q0 -77 -58 -124.5t-167 -47.5q-33 0 -44 1q0 -61 3 -88h-102q5 44 5 174v159q0 131 -5 173q70 0 102 4q-3 -18 -3 -89z" />
    <glyph glyph-name="one.alt" horiz-adv-x="319" 
d="M210 0h-103q7 62 7 169v161q0 112 -7 175q51 0 103 5q-4 -36 -4 -110v-300q0 -64 4 -100z" />
    <glyph glyph-name="zero.lin" horiz-adv-x="622" 
d="M316 703q117 0 183 -98t66 -251q0 -164 -71 -268t-190 -104q-116 0 -181.5 98t-65.5 251q0 164 70.5 268t188.5 104zM311 65q72 0 115 80t43 193q0 133 -43 207.5t-115 74.5t-115 -80t-43 -193q0 -133 43 -207.5t115 -74.5z" />
    <glyph glyph-name="one.lin" horiz-adv-x="404" 
d="M272 703l12 -9q-3 -27 -3 -107v-486q0 -69 3 -101h-101q5 41 5 169v418l-147 -46l-21 81q68 20 179 57z" />
    <glyph glyph-name="two.lin" horiz-adv-x="564" 
d="M183 84q199 0 320 4q-4 -36 -7 -92q-92 4 -213 4q-133 0 -228 -4l-13 65q193 188 233 232q98 107 110 179q2 14 2 28q0 51 -33 81.5t-89 30.5q-83 0 -164 -69l-33 81q96 76 205 76q94 0 152 -50.5t58 -137.5q0 -49 -21.5 -98t-47 -82t-74.5 -88q-76 -86 -157 -160z" />
    <glyph glyph-name="three.lin" horiz-adv-x="531" 
d="M60 11l-16 93q96 -32 172 -32q72 0 114.5 27.5t42.5 74.5q0 58 -58 92.5t-175 38.5l-12 68q113 24 173 66.5t60 90.5q0 35 -31.5 59t-87.5 24q-39 0 -81.5 -15t-71.5 -39l-33 80q93 61 192 61q93 0 151.5 -46t58.5 -114q0 -122 -170 -181q183 -40 183 -174
q0 -88 -69 -144.5t-177 -56.5q-92 0 -165 27z" />
    <glyph glyph-name="four.lin" horiz-adv-x="584" 
d="M356 0q5 42 5 168v14h-46q-177 0 -272 -4l-21 62l292 362l78 99l63 -6q-3 -44 -3 -115v-322q58 0 106 2q-7 -44 -8 -82l-98 3v-62q0 -86 3 -119h-99zM137 258h224v274z" />
    <glyph glyph-name="five.lin" horiz-adv-x="537" 
d="M479 199q0 -94 -67 -154.5t-176 -60.5q-91 0 -163 27l-16 92q94 -32 175 -32q69 0 110.5 37t41.5 87q0 62 -51.5 96.5t-149.5 34.5q-27 0 -81 -6l-14 7q4 52 6 115l4 123q2 85 0 106l16 15q111 -3 170 -3q64 0 178 3q-8 -30 -13 -95q-106 2 -165 2h-94l-7 -185
q5 0 19 0.5t19 0.5q126 0 192 -59.5t66 -150.5z" />
    <glyph glyph-name="six.lin" horiz-adv-x="560" 
d="M459 626q-259 -49 -315 -264q65 77 164 77q85 0 146.5 -62.5t61.5 -155.5q0 -101 -66.5 -170t-169.5 -69q-107 0 -168.5 74t-61.5 201q0 177 96.5 296t290.5 155zM420 217q0 62 -39 101t-100 39q-55 0 -94.5 -41t-39.5 -103q0 -64 39 -106t100 -42q59 0 96.5 43.5
t37.5 108.5z" />
    <glyph glyph-name="seven.lin" horiz-adv-x="536" 
d="M47 686q115 -3 207 -3q111 0 225 3l23 -43q-7 -11 -61 -123l-195 -393q-44 -84 -63 -135l-105 14q32 54 91 170l207 417h-137q-135 0 -199 -1q7 84 7 94z" />
    <glyph glyph-name="eight.lin" horiz-adv-x="576" 
d="M56 167q0 65 41 112.5t112 72.5q-58 24 -93.5 66t-35.5 97q0 79 62.5 133.5t156.5 54.5q91 0 150 -52.5t59 -125.5q0 -103 -130 -166q142 -66 142 -181q0 -84 -64.5 -140t-168.5 -56q-102 0 -166.5 53.5t-64.5 131.5zM424 174q0 48 -32.5 82t-103.5 61
q-136 -51 -136 -143q0 -51 41 -81.5t102 -30.5q57 0 93 32t36 80zM175 519q0 -77 127 -125q52 19 81.5 53t29.5 72q0 47 -34 75.5t-85 28.5q-53 0 -86 -29.5t-33 -74.5z" />
    <glyph glyph-name="nine.lin" horiz-adv-x="560" 
d="M101 58q260 48 314 264q-62 -77 -163 -77q-85 0 -146.5 62.5t-61.5 155.5q0 101 66.5 170t169.5 69q107 0 168.5 -74t61.5 -201q0 -177 -96.5 -296t-290.5 -155zM140 467q0 -62 39 -101t100 -39q55 0 94.5 41t39.5 103q0 64 -39 106t-100 42q-59 0 -96.5 -43.5
t-37.5 -108.5z" />
    <glyph glyph-name="hyphen.lin" horiz-adv-x="446" 
d="M381 385q-5 -33 -5 -76q-78 2 -113 2h-90q-42 0 -108 -2q3 29 3 76q74 -3 156 -3q84 0 157 3z" />
    <glyph glyph-name="endash.lin" horiz-adv-x="555" 
d="M490 385q-5 -33 -5 -76q-116 2 -166 2h-86q-54 0 -168 -2q3 29 3 76q102 -3 208 -3q112 0 214 3z" />
    <glyph glyph-name="emdash.lin" horiz-adv-x="1010" 
d="M945 385q-5 -33 -5 -76q-116 2 -199 2h-475q-87 0 -201 -2q3 29 3 76q102 -3 435 -3q340 0 442 3z" />
    <glyph glyph-name="parenleft.lin" horiz-adv-x="417" 
d="M378 -129q-134 76 -216 198t-82 274q0 154 81.5 279.5t216.5 201.5l35 -61q-107 -66 -176.5 -170.5t-69.5 -245.5t70 -246.5t177 -171.5z" />
    <glyph glyph-name="parenright.lin" horiz-adv-x="417" 
d="M39 -129l-35 61q107 66 176.5 170.5t69.5 245.5t-70 245.5t-178 171.5l37 59q134 -76 216 -198t82 -274q0 -154 -81.5 -279.5t-216.5 -201.5z" />
    <glyph glyph-name="bracketleft.lin" horiz-adv-x="390" 
d="M384 -51q-7 -38 -8 -78q-43 4 -119 4q-91 0 -142 -4l-12 7q6 59 6 200v537q0 137 -6 195l13 14q63 -5 137 -5q67 0 126 4q-3 -28 -5 -78q-88 2 -121 2q-41 0 -62 -1v-670q0 -96 4 -128q10 0 30 -0.5t32 -0.5q39 0 127 2z" />
    <glyph glyph-name="bracketright.lin" horiz-adv-x="390" 
d="M6 745q7 38 8 78q43 -4 119 -4q91 0 142 4l12 -7q-6 -58 -6 -200v-537q0 -137 6 -195l-13 -14q-63 5 -137 5q-67 0 -126 -4q3 28 5 78q88 -2 121 -2q41 0 62 1v667q0 99 -4 131q-10 0 -30 0.5t-32 0.5q-39 0 -127 -2z" />
    <glyph glyph-name="braceleft.lin" horiz-adv-x="407" 
d="M72 322v50q80 18 109.5 33.5t29.5 32.5q0 15 -18.5 45.5t-36.5 68.5t-18 72q0 149 202 197l18 -58q-137 -41 -137 -118q0 -29 33.5 -91t33.5 -92q0 -74 -105 -115q61 -21 83 -49.5t22 -65.5q0 -30 -33.5 -91.5t-33.5 -90.5q0 -77 137 -118l-18 -58q-202 48 -202 197
q0 34 18 72t36.5 68t18.5 45q0 17 -29.5 32.5t-109.5 33.5z" />
    <glyph glyph-name="braceright.lin" horiz-adv-x="407" 
d="M335 373v-50q-80 -18 -109.5 -33.5t-29.5 -32.5q0 -15 18 -45.5t36.5 -68.5t18.5 -72q0 -149 -202 -197l-18 58q137 41 137 118q0 29 -33.5 91t-33.5 92q0 74 105 115q-61 21 -83 49.5t-22 65.5q0 30 33.5 91.5t33.5 90.5q0 77 -137 118l18 58q202 -48 202 -197
q0 -34 -18.5 -72t-36.5 -68t-18 -45q0 -17 29.5 -32.5t109.5 -33.5z" />
    <glyph glyph-name="at.cap" horiz-adv-x="833" 
d="M558 164q-49 0 -64.5 36t1.5 85q-27 -53 -69.5 -87t-76.5 -34q-44 0 -67 34t-23 88q0 89 61 169.5t141 80.5q56 0 76 -22l52 27l6 -7l-39 -254q-3 -19 -3.5 -34t6 -24t21.5 -9q54 0 100.5 57.5t46.5 148.5q0 47 -14.5 89.5t-44.5 79t-83 58t-122 21.5q-134 0 -229.5 -102
t-95.5 -240t80 -214t207 -76q60 0 125 17t111 46l19 -44q-119 -72 -266 -72q-145 0 -239 96.5t-94 231.5q0 121 58.5 216.5t148.5 144.5t191 49q142 0 223.5 -85t81.5 -200q0 -109 -65 -190t-161 -81zM515 458q-20 19 -59 19q-48 0 -87 -54t-39 -119q0 -80 46 -80
q35 0 77.5 51.5t52.5 124.5z" />
    <glyph glyph-name="registered.alt" horiz-adv-x="868" 
d="M803 351q0 -153 -108 -261t-261 -108t-261 108t-108 261t108 261t261 108t261 -108t108 -261zM747 351q0 131 -91 224t-222 93t-222 -93t-91 -224t91 -224t222 -93t222 93t91 224zM313 539q9 0 53.5 1.5t57.5 1.5q74 1 115.5 -30.5t40.5 -79.5q-3 -74 -74 -110l64 -92
q25 -36 42 -57l-85 -7l-90 137h-46v-77q0 -26 2 -56h-80q3 38 3 127v116q0 89 -3 126zM391 359h38q35 0 54.5 17.5t19.5 44.5q0 28 -18 44.5t-53 16.5q-17 0 -41 -2v-121z" />
    <glyph glyph-name="dollar.lin" horiz-adv-x="559" 
d="M297 -131h-84q2 15 11 115q-103 9 -188 56l6 101q31 -25 83 -45.5t106 -26.5l5 52l16 197q-45 18 -70 30.5t-56.5 35t-46.5 52t-15 68.5q0 77 60 133t155 64q4 53 6 104q51 0 80 3q-4 -38 -10 -109q82 -9 143 -47l-32 -85q-52 34 -120 45l-18 -226q43 -16 69.5 -29.5
t57 -36t45.5 -54.5t15 -73q0 -82 -58 -140t-156 -69q-4 -55 -4 -115zM419 179q0 37 -25.5 63t-72.5 48l-15 -219q52 8 82.5 36t30.5 72zM160 515q0 -36 26 -60t74 -43l11 142l3 60q-52 -6 -83 -32.5t-31 -66.5z" />
    <glyph glyph-name="sterling.lin" horiz-adv-x="535" 
d="M43 304q3 32 3 87h86q-25 54 -25 102q0 88 63.5 148.5t163.5 60.5q87 0 149 -33l-21 -86q-60 32 -131 32q-55 0 -91.5 -29.5t-36.5 -83.5q0 -44 34 -110q111 1 200 8q-2 -17 -5 -88q-79 2 -159 -1q10 -30 10 -57q0 -95 -79 -168q96 0 307 8q-7 -49 -7 -98q-69 4 -204 4
q-172 0 -254 -6l-14 70q81 38 120.5 79.5t39.5 97.5q0 29 -17 65z" />
    <glyph glyph-name="Euro.lin" horiz-adv-x="681" 
d="M330 293q131 0 214 4q0 -2 -4.5 -35.5t-5.5 -49.5q-64 1 -204 1h-97q29 -69 88 -106t131 -37q117 0 198 77l-6 -106q-89 -59 -207 -59q-106 0 -190 63t-116 168q-83 0 -119 -1q3 30 3 85q32 -2 101 -4q-1 11 -1 33q0 36 4 64q-19 0 -53 -0.5t-49 -0.5q5 53 5 83
q99 -3 115 -3q36 107 119.5 170t196.5 63t190 -57l-27 -86q-32 25 -78.5 40.5t-90.5 15.5q-71 0 -128.5 -39t-86.5 -107h98q140 0 233 3q-7 -42 -9 -83q-66 1 -224 1h-119q-3 -24 -3 -48q0 -26 3 -49h119z" />
    <glyph glyph-name="yen.lin" horiz-adv-x="647" 
d="M270 0q3 45 6 144q-156 0 -220 -2q3 32 3 84q92 -3 217 -3l1 70l-14 22q-145 0 -205 -1q3 30 3 82q88 -4 154 -4l-41 67l-147 226l106 7l191 -316l56 91q42 69 129 219h113l-192 -294q69 0 159 4q-3 -14 -8 -82q-60 1 -201 1l-11 -18v-74q124 0 218 3q-3 -14 -8 -84
q-63 2 -210 2v-5q0 -97 3 -139h-102z" />
    <glyph glyph-name="cent.lin" horiz-adv-x="500" 
d="M324 478l-14 -226l-5 -78q79 3 152 65l-4 -99q-76 -44 -153 -47q-3 -68 -2 -93h-80l8 99q-81 19 -130.5 82.5t-49.5 148.5q0 100 59 173t151 87q3 63 3 93q36 0 81 5q-5 -44 -8 -97q69 -9 126 -48l-27 -81q-45 36 -105 46q-2 -22 -2 -30zM141 347q0 -128 90 -163
q1 18 5 73l15 223q0 17 1 26q-53 -13 -82 -55.5t-29 -103.5z" />
    <glyph glyph-name="R_p" horiz-adv-x="1135" 
d="M599 6l-114 -13l-177 276h-106v-129q0 -100 3 -141h-107q6 56 6 236v216q0 179 -6 235q1 0 181 4q123 3 193.5 -55t68.5 -143q-4 -138 -143 -200l99 -147q77 -108 102 -139zM1078 246q0 -116 -71 -190t-157 -74q-73 0 -118 38v-132q0 -60 4 -93l-103 -9q7 60 7 169v335
q0 110 -7 170q50 0 90 4l4 -62q60 72 148 72q93 0 148 -65t55 -163zM988 237q0 79 -39 118t-98 39q-34 0 -66 -19t-53 -50v-217q40 -47 116 -47q61 0 100.5 52t39.5 124zM202 351h101q63 0 100.5 37.5t37.5 91.5q0 126 -153 126q-17 0 -45.5 -0.5t-40.5 -0.5v-254z" />
    <glyph glyph-name="numbersign.lin" horiz-adv-x="722" 
d="M543 519l-2 -14q117 0 167 2q-10 -36 -15 -82q-4 0 -62 0.5t-100 0.5l-21 -171q115 0 167 2q-13 -50 -15 -84q-5 0 -63.5 1t-98.5 1l-1 -9q-16 -148 -17 -166h-93q15 57 30 175l-163 1l-1 -10q-15 -115 -17 -166h-93q13 57 30 176q-129 0 -161 -3q13 74 14 84
q50 -2 157 -2l22 173q-90 0 -162 -3q12 67 14 82q50 -2 159 -2q12 101 14 181q48 0 92 5q-16 -86 -25 -172l-2 -14h165q13 112 15 181q47 0 92 5q-3 -15 -7.5 -46.5t-10.5 -71t-8 -54.5zM287 427l-21 -172h163l23 171z" />
    <glyph glyph-name="paragraph.lin" horiz-adv-x="693" 
d="M293 689q25 0 67.5 -1t60.5 -1q-4 -39 -4 -141v-407q0 -103 4 -139h-104q7 82 7 234v20q-145 0 -214.5 61t-69.5 165q0 86 67 147.5t186 61.5zM600 0h-106q8 63 8 234v215q0 189 -8 236q57 0 106 4q-5 -48 -5 -143v-407q0 -94 5 -139z" />
    <glyph glyph-name="section.lin" horiz-adv-x="477" 
d="M48 274q0 93 93 136q-73 46 -73 121q0 66 53 118.5t140 52.5q91 0 156 -44l-27 -83q-65 44 -134 44q-41 0 -68 -20.5t-27 -55.5q0 -30 28.5 -53.5t68.5 -42t80.5 -39t69 -55t28.5 -80.5q0 -86 -85 -136q74 -45 74 -117q0 -74 -55.5 -125.5t-156.5 -51.5q-87 0 -164 46
l5 95q81 -58 168 -58q49 0 79 22.5t30 60.5q0 29 -29 51.5t-70.5 40.5t-83.5 38t-71 54.5t-29 80.5zM142 284q0 -28 30 -50t102 -53q32 12 51.5 33.5t19.5 48.5q0 23 -21 44t-42.5 32t-64.5 30q-75 -26 -75 -85z" />
    <glyph glyph-name="ordfeminine.lin" horiz-adv-x="350" 
d="M163 684q-51 0 -90 -28l-14 63q59 32 119 32q62 0 93 -31t29 -89l-4 -126q0 -27 20 -27q3 0 6 0.5t6.5 1.5t5.5 1l10 -40q-28 -20 -59 -20q-49 0 -58 50q-13 -23 -39.5 -36.5t-54.5 -13.5q-45 0 -71.5 24.5t-26.5 65.5q0 48 41.5 76t117.5 28q10 0 30 -2l1 14
q3 57 -62 57zM157 478q26 0 45 17t20 44l1 31q-20 2 -28 2q-83 0 -83 -51q0 -19 11.5 -31t33.5 -12z" />
    <glyph glyph-name="ordmasculine.lin" horiz-adv-x="379" 
d="M355 593q0 -74 -46 -123.5t-119 -49.5q-69 0 -112.5 46t-43.5 112q0 74 46 123.5t119 49.5q69 0 112.5 -46t43.5 -112zM275 584q0 50 -22.5 76.5t-56.5 26.5q-36 0 -59 -28t-23 -71q0 -50 21.5 -77t57.5 -27t59 28.5t23 71.5z" />
    <glyph glyph-name="degree.lin" horiz-adv-x="372" 
d="M342 605q0 -70 -43.5 -116.5t-112.5 -46.5q-66 0 -106.5 43.5t-40.5 104.5q0 69 43 115t112 46q66 0 107 -42.5t41 -103.5zM270 595q0 44 -21 68.5t-58 24.5t-58.5 -25.5t-21.5 -62.5q0 -44 21 -69t58 -25t58.5 25.5t21.5 63.5z" />
    <glyph glyph-name="percent.lin" horiz-adv-x="757" 
d="M232 698q55 0 86.5 -37t31.5 -94q0 -91 -59.5 -171.5t-135.5 -80.5q-55 0 -86.5 37t-31.5 94q0 91 59.5 171.5t135.5 80.5zM601 368q55 0 86.5 -37t31.5 -94q0 -91 -59.5 -171.5t-135.5 -80.5q-55 0 -86.5 37t-31.5 94q0 91 59.5 171.5t135.5 80.5zM133 -32l-65 32
q80 99 133 168l293 382q111 147 124 165l66 -35q-26 -31 -95 -121l-375 -488q-12 -15 -24 -30.5t-28.5 -36.5t-28.5 -36zM158 384q45 0 80 60t35 123q0 62 -44 62t-79 -60.5t-35 -122.5t43 -62zM527 54q45 0 80 60t35 123q0 62 -44 62t-79 -60.5t-35 -122.5t43 -62z" />
    <glyph glyph-name="quotedbl.lin" horiz-adv-x="357" 
d="M267 501l-51 -12q11 133 9 258q91 13 104 14q-26 -145 -62 -260zM93 495l-51 -12q11 133 9 258q87 12 105 14q-25 -138 -63 -260z" />
    <glyph glyph-name="quotesingle.lin" horiz-adv-x="183" 
d="M93 495l-51 -12q11 133 9 258q87 12 105 14q-25 -138 -63 -260z" />
    <glyph glyph-name="plus.lin" horiz-adv-x="570" 
d="M495 371q-4 -24 -6 -78l-147 2h-19v-31q0 -115 4 -152h-87q5 47 7 183h-27l-145 -2q3 27 3 78q51 -2 169 -4q-2 133 -7 180q22 0 87 5q-4 -39 -4 -157v-28q135 2 172 4z" />
    <glyph glyph-name="minus.lin" horiz-adv-x="570" 
d="M475 372q-5 -33 -5 -80q-116 2 -166 2h-41q-54 0 -168 -2q3 29 3 80q102 -3 188 -3q87 0 189 3z" />
    <glyph glyph-name="divide.lin" horiz-adv-x="570" 
d="M510 372q-5 -33 -5 -80q-116 2 -176 2h-71q-64 0 -178 -2q3 28 3 80q102 -3 213 -3q112 0 214 3zM353 509q0 -27 -17 -46.5t-45 -19.5q-27 0 -43 18t-16 42q0 27 17 46.5t45 19.5q26 0 42.5 -18t16.5 -42zM353 160q0 -27 -17 -46.5t-45 -19.5q-27 0 -43 18t-16 42
q0 27 17 46.5t45 19.5q26 0 42.5 -18t16.5 -42z" />
    <glyph glyph-name="equal.lin" horiz-adv-x="570" 
d="M486 460q-3 -23 -6 -81l-139 2h-118l-138 -2q3 27 3 81q118 -4 198 -4q82 0 200 4zM486 283q-3 -23 -6 -81l-139 2h-118l-138 -2q3 27 3 81q118 -4 198 -4q82 0 200 4z" />
    <glyph glyph-name="multiply.lin" horiz-adv-x="570" 
d="M493 174q-16 -13 -61 -55q-50 57 -146 159q-73 -74 -153 -158q-15 19 -55 59q126 123 155 152q-92 92 -155 152q31 22 62 53q20 -21 65 -68t81 -85q74 76 147 159q6 -8 15.5 -18.5t21.5 -24t17 -18.5q-45 -44 -148 -151q30 -31 63.5 -65t53 -53.5z" />
    <glyph glyph-name="less.lin" horiz-adv-x="570" 
d="M403 87q-63 50 -282 215l-2 48q150 115 283 225l45 -66q-78 -57 -137 -103l-97 -77l102 -79q71 -56 134 -97z" />
    <glyph glyph-name="greater.lin" horiz-adv-x="570" 
d="M167 575q63 -50 282 -215l2 -48q-150 -115 -283 -225l-45 66q78 57 137 103l96 77l-101 79q-71 56 -134 97z" />
    <glyph glyph-name="plusminus.lin" horiz-adv-x="570" 
d="M485 452q-4 -24 -6 -80l-146 2h-9v-10q0 -115 4 -152h-89q5 52 7 162h-17l-144 -2q3 27 3 80q59 -2 158 -4q-2 108 -7 159q24 0 89 5q-4 -39 -4 -155v-9q115 2 161 4zM485 130q-5 -33 -5 -79q-116 2 -166 2h-61q-54 0 -168 -2q3 29 3 79q102 -3 198 -3q97 0 199 3z" />
    <glyph glyph-name="onehalf.alt" horiz-adv-x="934" 
d="M618 294l-27 61q61 52 136 52q60 0 97.5 -30t37.5 -82q0 -40 -22 -74.5t-65 -76.5q-37 -37 -90 -79q29 0 188 3l-4 -70q-90 2 -138 2q-55 0 -145 -2l-8 54q122 103 148 129q61 61 61 102q0 26 -17.5 40.5t-48.5 14.5q-52 0 -103 -44zM280 -15l-59 25q51 71 112 162
l242 373q92 140 103 160q10 -5 30.5 -15t28.5 -14q-16 -22 -79 -116l-312 -476q-10 -17 -66 -99zM344 358q-1 -12 -1 -67q-29 1 -93 1h-87q-54 0 -93 -1q0 43 -2 67q27 -2 77 -2h28q1 17 1 47v211l-95 -28l-12 64q19 5 41.5 11.5t44 13.5t30.5 10l46 14l18 -6q-2 -16 -2 -69
v-266v-2h19q58 0 80 2z" />
    <glyph glyph-name="onethird.alt" horiz-adv-x="934" 
d="M600 6l-10 68q63 -17 109 -17t73.5 14t27.5 37q0 60 -140 63l-8 48q142 26 142 79q0 18 -20 30t-56 12q-60 0 -107 -29l-20 60q67 35 137 35q63 0 102 -27t39 -68q0 -70 -109 -104q117 -22 117 -98q0 -53 -47 -85.5t-122 -32.5q-59 0 -108 15zM281 -15l-59 25
q51 71 112 162l242 373q92 140 103 160q10 -5 30.5 -15t28.5 -14q-16 -22 -79 -116l-312 -476q-10 -17 -66 -99zM344 358q-1 -12 -1 -67q-29 1 -93 1h-87q-54 0 -93 -1q0 43 -2 67q27 -2 77 -2h28q1 17 1 47v211l-95 -28l-12 64q19 5 41.5 11.5t44 13.5t30.5 10l46 14l18 -6
q-2 -16 -2 -69v-266v-2h19q58 0 80 2z" />
    <glyph glyph-name="onequarter.alt" horiz-adv-x="934" 
d="M756 0q3 18 3 86v13h-34q-123 0 -163 -2l-11 54l166 208q6 7 16 19t17.5 21.5t12.5 14.5l65 -5q-2 -17 -2 -68v-183q48 0 62 1q-5 -38 -5 -62q-14 1 -57 1v-32q0 -52 2 -66h-72zM301 -15l-59 25q51 71 112 162l242 373q92 140 103 160q10 -5 30.5 -15t28.5 -14
q-16 -22 -79 -116l-312 -476q-10 -17 -66 -99zM344 358q-1 -12 -1 -67q-29 1 -93 1h-87q-54 0 -93 -1q0 43 -2 67q27 -2 77 -2h28q1 17 1 47v211l-95 -28l-12 64q19 5 41.5 11.5t44 13.5t30.5 10l46 14l18 -6q-2 -16 -2 -69v-266v-2h19q58 0 80 2zM762 325l-135 -170h134z
" />
    <glyph glyph-name="onefifth.alt" horiz-adv-x="934" 
d="M597 7l-8 68q64 -18 113 -18q47 0 72 17.5t25 43.5q0 63 -126 63q-28 0 -58 -3l-8 5q0 11 1.5 35t1.5 30l3 72v70l9 8q110 -2 120 -2q13 0 121 2q-8 -68 -8 -71q-37 1 -108 1h-65l-4 -87h23q83 0 128 -33t45 -90t-44 -92t-119 -35q-63 0 -114 16zM286 -15l-59 25
q51 71 112 162l242 373q92 140 103 160q10 -5 30.5 -15t28.5 -14q-16 -22 -79 -116l-312 -476q-10 -17 -66 -99zM344 358q-1 -12 -1 -67q-29 1 -93 1h-87q-54 0 -93 -1q0 43 -2 67q27 -2 77 -2h28q1 17 1 47v211l-95 -28l-12 64q19 5 41.5 11.5t44 13.5t30.5 10l46 14l18 -6
q-2 -16 -2 -69v-266v-2h19q58 0 80 2z" />
    <glyph glyph-name="onesixth.alt" horiz-adv-x="934" 
d="M847 346q-159 -20 -196 -127q39 37 100 37q56 0 94.5 -36t38.5 -89q0 -60 -43.5 -100.5t-112.5 -40.5q-71 0 -111 43.5t-40 121.5q0 103 65.5 171.5t190.5 83.5zM288 -15l-59 25q51 71 112 162l242 373q92 140 103 160q10 -5 30.5 -15t28.5 -14q-16 -22 -79 -116
l-312 -476q-10 -17 -66 -99zM344 358q-1 -12 -1 -67q-29 1 -93 1h-87q-54 0 -93 -1q0 43 -2 67q27 -2 77 -2h28q1 17 1 47v211l-95 -28l-12 64q19 5 41.5 11.5t44 13.5t30.5 10l46 14l18 -6q-2 -16 -2 -69v-266v-2h19q58 0 80 2zM811 127q0 35 -21.5 54.5t-57.5 19.5
q-35 0 -58 -20.5t-23 -53.5q0 -34 22.5 -55.5t57.5 -21.5q36 0 58 21.5t22 55.5z" />
    <glyph glyph-name="oneeighth.alt" horiz-adv-x="934" 
d="M730 -10q-68 0 -109.5 31t-41.5 79q0 74 92 104q-78 31 -78 93q0 48 41 79.5t103 31.5q61 0 100 -30.5t40 -75.5q1 -62 -80 -95q88 -36 88 -101q0 -52 -43 -84t-112 -32zM287 -15l-59 25q51 71 112 162l242 373q92 140 103 160q10 -5 30.5 -15t28.5 -14q-16 -22 -79 -116
l-312 -476q-10 -17 -66 -99zM344 358q-1 -12 -1 -67q-29 1 -93 1h-87q-54 0 -93 -1q0 43 -2 67q27 -2 77 -2h28q1 17 1 47v211l-95 -28l-12 64q19 5 41.5 11.5t44 13.5t30.5 10l46 14l18 -6q-2 -16 -2 -69v-266v-2h19q58 0 80 2zM812 106q0 27 -21.5 42.5t-60.5 28.5
q-79 -23 -79 -72q0 -26 23.5 -42t60.5 -16q36 0 56.5 16.5t20.5 42.5zM663 299q0 -43 77 -66q67 18 67 64q0 24 -19.5 39t-52.5 15t-52.5 -15t-19.5 -37z" />
    <glyph glyph-name="one.sup_alt" 
d="M344 502q-1 -12 -1 -67q-29 1 -93 1h-87q-54 0 -93 -1q0 43 -2 67q27 -2 77 -2h28q1 17 1 47v211l-95 -28l-12 64q19 5 41.5 11.5t44 13.5t30.5 10l46 14l18 -6q-2 -16 -2 -69v-266v-3h19q47 0 80 3z" />
    <glyph glyph-name="one.inf_alt" 
d="M344 -138q-1 -12 -1 -67q-29 1 -93 1h-87q-54 0 -93 -1q0 43 -2 67q27 -2 77 -2h28q1 18 1 47v211l-95 -28l-12 64q19 5 41.5 11.5t44 13.5t30.5 10l46 14l18 -6q-2 -16 -2 -69v-266v-3h19q47 0 80 3z" />
    <glyph glyph-name="zero.tab" horiz-adv-x="560" 
d="M285 703q114 0 175.5 -97.5t61.5 -251.5q0 -166 -66 -269t-183 -103q-76 0 -130 46.5t-79.5 124t-25.5 178.5q0 166 66 269t181 103zM279 65q67 0 107 80t40 193q0 133 -39.5 207.5t-106.5 74.5q-66 0 -106 -80t-40 -193q0 -133 39.5 -207.5t105.5 -74.5z" />
    <glyph glyph-name="one.tab" horiz-adv-x="560" 
d="M518 86l-2 -89q-76 3 -194 3h-94q-48 0 -153 -3q-2 70 -4 89q51 -2 127 -2h54q1 31 1 85v418l-157 -51l-18 83q51 15 186 60l73 24l12 -9q-3 -27 -3 -107v-486v-17h36q95 0 136 2z" />
    <glyph glyph-name="two.tab" horiz-adv-x="560" 
d="M180 84q201 0 324 4q-1 -13 -3.5 -43.5t-3.5 -48.5q-93 4 -217 4q-133 0 -228 -4l-13 65q18 17 52 50q76 73 110 106t79.5 82t63 76.5t31 60.5t13.5 64q0 51 -34 81.5t-92 30.5q-85 0 -169 -77l-33 81q99 84 210 84q96 0 155.5 -50.5t59.5 -137.5q0 -37 -10 -70.5
t-34 -69.5t-44 -60t-58 -67q-82 -90 -159 -161z" />
    <glyph glyph-name="three.tab" horiz-adv-x="560" 
d="M61 11l-16 93q101 -32 182 -32t129 27.5t48 74.5q0 58 -59 92.5t-179 38.5l-12 68q116 24 177 66.5t61 90.5q0 35 -34 59t-95 24q-43 0 -91 -15t-82 -39l-33 80q103 61 212 61q98 0 159 -46t61 -114q0 -122 -180 -181q193 -40 193 -174q0 -88 -74.5 -144.5t-191.5 -56.5
q-98 0 -175 27z" />
    <glyph glyph-name="four.tab" horiz-adv-x="560" 
d="M348 0q5 42 5 168v14h-48q-171 0 -262 -4l-21 62l282 362l78 99l63 -6q-3 -44 -3 -115v-322q49 0 91 2q-8 -51 -8 -82l-83 3v-62q0 -86 3 -119h-97zM354 540l-219 -282h218z" />
    <glyph glyph-name="five.tab" horiz-adv-x="560" 
d="M68 11l-16 92q103 -32 189 -32q77 0 124 37t47 87q0 62 -58 96.5t-169 34.5q-28 0 -88 -6l-14 7q0 17 3 55.5t3 59.5l4 123v106l16 15q120 -3 184 -3q71 0 197 3q-13 -75 -13 -95q-118 2 -184 2h-108l-7 -185q8 0 26 0.5t26 0.5q135 0 206 -59.5t71 -150.5
q0 -93 -72.5 -154t-189.5 -61q-99 0 -177 27z" />
    <glyph glyph-name="six.tab" horiz-adv-x="560" 
d="M464 626q-264 -49 -320 -264q64 77 164 77q87 0 150 -62.5t63 -155.5q0 -101 -68 -170t-173 -69q-107 0 -169 73.5t-62 201.5q0 177 98.5 296t294.5 155zM425 217q0 62 -40.5 101t-103.5 39q-55 0 -95 -41t-40 -103q0 -64 39.5 -106t100.5 -42t100 43.5t39 108.5z" />
    <glyph glyph-name="seven.tab" horiz-adv-x="560" 
d="M46 686q122 -3 217 -3q119 0 240 3l23 -43q-5 -8 -61 -123l-205 -393q-44 -84 -63 -135l-105 14q32 54 91 170l217 417h-152q-142 0 -209 -1q7 84 7 94z" />
    <glyph glyph-name="eight.tab" horiz-adv-x="560" 
d="M46 167q0 65 41 112.5t112 72.5q-58 24 -93.5 66t-35.5 97q0 79 63 133.5t158 54.5q91 0 151 -52.5t60 -125.5q0 -103 -130 -166q142 -66 142 -181q0 -84 -65.5 -140t-169.5 -56q-103 0 -168 53.5t-65 131.5zM418 174q0 48 -33 82t-105 61q-138 -51 -138 -143
q0 -51 41.5 -81.5t103.5 -30.5q58 0 94.5 32.5t36.5 79.5zM165 519q0 -77 129 -125q53 19 83 53t30 72q0 47 -34.5 75.5t-86.5 28.5q-54 0 -87.5 -29.5t-33.5 -74.5z" />
    <glyph glyph-name="nine.tab" horiz-adv-x="560" 
d="M96 58q264 48 320 264q-64 -77 -164 -77q-87 0 -150 62.5t-63 155.5q0 101 68 170t173 69q107 0 169 -73.5t62 -201.5q0 -177 -98.5 -296t-294.5 -155zM135 467q0 -62 40.5 -101t103.5 -39q55 0 95 41t40 103q0 64 -39.5 106t-100.5 42t-100 -43.5t-39 -108.5z" />
    <glyph glyph-name="dollar.tab" horiz-adv-x="560" 
d="M298 -131h-84q2 11 11 115q-106 11 -193 61l6 101q32 -26 86 -48t109 -28q1 7 6.5 83t13.5 165q-45 18 -72 32t-58.5 37t-47 53.5t-15.5 68.5q0 82 60.5 134t159.5 58q4 53 6 104q51 0 80 3q-4 -38 -10 -109q87 -12 148 -52l-32 -85q-52 36 -125 49l-17 -225
q42 -17 70.5 -31.5t59 -38t46 -55.5t15.5 -73q0 -86 -58.5 -140.5t-160.5 -63.5q-4 -57 -4 -115zM425 179q0 36 -26.5 61.5t-76.5 48.5l-15 -219q118 12 118 109zM156 515q0 -35 26.5 -57.5t77.5 -44.5q3 35 6 81t5 73.5t4 47.5q-119 -10 -119 -100z" />
    <glyph glyph-name="sterling.tab" horiz-adv-x="560" 
d="M48 304q3 63 3 87h89q-23 51 -23 97q0 90 62.5 152t159.5 62q99 0 169 -43l-21 -86q-68 42 -151 42q-53 0 -88 -31t-35 -87q0 -43 33 -105q94 1 216 8q-5 -24 -5 -88q-80 1 -174 0q10 -32 10 -58q0 -93 -79 -168q101 0 322 8q-7 -61 -7 -98q-74 4 -219 4q-172 0 -254 -6
l-14 70q81 38 120.5 79.5t39.5 97.5q0 30 -18 66q-30 -1 -80 -2t-56 -1z" />
    </font>
</defs>
</svg>
