<?xml version="1.0" standalone="no"?>
<!DOCTYPE svg PUBLIC "-//W3C//DTD SVG 1.1//EN" "http://www.w3.org/Graphics/SVG/1.1/DTD/svg11.dtd" >
<svg xmlns="http://www.w3.org/2000/svg">
<metadata></metadata>
<defs>
<font id="azo_sanslight" horiz-adv-x="1212" >
<font-face units-per-em="2048" ascent="1581" descent="-467" />
<missing-glyph horiz-adv-x="501" />
<glyph unicode="&#xfb01;" horiz-adv-x="1148" d="M51 901v107h172v219q0 101 19.5 170t66.5 114q79 76 217 76q72 0 131 -18v-109q-59 17 -127 17q-107 0 -146.5 -59.5t-39.5 -174.5v-235h281v-107h-281v-901h-121v901h-172zM817 1360q0 38 27 65t67 27q39 0 66 -27t27 -67q0 -38 -27.5 -65t-67.5 -27q-38 0 -65 27 t-27 67zM850 0v1008h121v-1008h-121z" />
<glyph unicode="&#xfb02;" horiz-adv-x="1148" d="M51 901v107h172v219q0 101 19.5 170t66.5 114q79 76 217 76q72 0 131 -18v-109q-59 17 -127 17q-107 0 -146.5 -59.5t-39.5 -174.5v-235h281v-107h-281v-901h-121v901h-172zM850 0v1565h121v-1565h-121z" />
<glyph horiz-adv-x="2" />
<glyph horiz-adv-x="2" />
<glyph horiz-adv-x="682" />
<glyph unicode="&#xd;" horiz-adv-x="708" />
<glyph unicode=" "  horiz-adv-x="501" />
<glyph unicode="&#x09;" horiz-adv-x="501" />
<glyph unicode="&#xa0;" horiz-adv-x="501" />
<glyph unicode="!" horiz-adv-x="643" d="M221 78q0 41 30 70.5t71 29.5t70.5 -29.5t29.5 -70.5t-29.5 -71t-70.5 -30t-71 30t-30 71zM254 1483h135l-29 -1053h-77z" />
<glyph unicode="&#x22;" horiz-adv-x="700" d="M133 1520h119l-21 -535h-77zM449 1520h118l-20 -535h-78z" />
<glyph unicode="#" horiz-adv-x="1247" d="M33 477l24 88h273l102 353h-272l24 88h273l137 477h90l-137 -477h305l139 477h90l-137 -477h270l-24 -88h-270l-103 -353h270l-24 -88h-270l-138 -477h-92l139 477h-307l-137 -477h-92l139 477h-272zM420 565h305l104 353h-307z" />
<glyph unicode="$" horiz-adv-x="1150" d="M147 1044q0 150 101 239t270 101v254h100v-254q190 -12 340 -100v-133q-85 59 -188.5 91t-204.5 32q-134 0 -213.5 -57.5t-79.5 -165.5q0 -48 20 -85.5t41.5 -59t76 -42.5t79.5 -27.5t96 -22.5q19 -5 29 -7q56 -12 98 -24.5t92 -32t85 -45.5t65.5 -61.5t46 -84 t15.5 -108.5q0 -159 -108.5 -252.5t-289.5 -102.5v-252h-100v254q-199 13 -346 105v135q88 -63 197 -96t213 -33q143 0 227 60t84 175q0 51 -21.5 91t-45.5 62.5t-80 44.5t-84.5 29.5t-101.5 23.5q-14 3 -21 5q-67 15 -113.5 28.5t-103.5 41t-92 61.5t-59 89t-24 124z" />
<glyph unicode="%" horiz-adv-x="1908" d="M119 1122q0 163 100.5 273t249.5 110t249.5 -110t100.5 -273t-100.5 -273t-249.5 -110t-249.5 110t-100.5 273zM209 1122q0 -124 75.5 -209.5t184.5 -85.5t184.5 85.5t75.5 209.5t-75.5 209.5t-184.5 85.5t-184.5 -85.5t-75.5 -209.5zM422 0l964 1483h101l-965 -1483 h-100zM1090 360q0 163 100.5 273t249.5 110t249.5 -110t100.5 -273t-100.5 -273t-249.5 -110t-249.5 110t-100.5 273zM1180 360q0 -124 75.5 -209t184.5 -85t184.5 85t75.5 209t-75.5 209.5t-184.5 85.5t-184.5 -85.5t-75.5 -209.5z" />
<glyph unicode="&#x26;" horiz-adv-x="1425" d="M135 381q0 225 242 373l94 57l-65 66q-75 75 -113.5 146.5t-38.5 158.5q0 145 99.5 234t248.5 89q152 0 250 -90.5t98 -234.5q0 -185 -202 -318l-105 -67l379 -377l135 471h121l-166 -561l326 -324l-2 -4h-150l-219 219q-59 -110 -175 -176t-282 -66q-113 0 -204 32.5 t-149.5 88.5t-90 128.5t-31.5 154.5zM256 385q0 -128 96 -212.5t264 -84.5q131 0 223.5 57.5t139.5 159.5l-432 430l-105 -65q-186 -116 -186 -285zM373 1180q0 -59 27.5 -113.5t88.5 -118.5l78 -78l113 76q69 46 109 100.5t40 131.5q0 98 -65 157.5t-164 59.5 q-101 0 -164 -60.5t-63 -154.5z" />
<glyph unicode="'" horiz-adv-x="385" d="M133 1520h119l-21 -535h-77z" />
<glyph unicode="(" horiz-adv-x="665" d="M168 543q0 307 83 556t214 423h121q-138 -179 -222.5 -431.5t-84.5 -547.5t84.5 -547.5t222.5 -431.5h-121q-131 174 -214 423t-83 556z" />
<glyph unicode=")" horiz-adv-x="665" d="M80 -436q138 179 222.5 431.5t84.5 547.5t-84.5 547.5t-222.5 431.5h121q131 -174 214 -423t83 -556t-83 -556t-214 -423h-121z" />
<glyph unicode="*" horiz-adv-x="944" d="M72 1169l28 95l308 -119l-19 -60zM193 788l206 256l52 -34l-181 -277zM424 1493h96l-16 -326h-64zM494 1010l51 34l207 -256l-78 -55zM537 1145l307 119l28 -95l-317 -84z" />
<glyph unicode="+" horiz-adv-x="1193" d="M109 692v99h438v454h100v-454h438v-99h-438v-454h-100v454h-438z" />
<glyph unicode="," horiz-adv-x="612" d="M141 -301l119 559h125l-154 -559h-90z" />
<glyph unicode="-" horiz-adv-x="733" d="M129 514v107h477v-107h-477z" />
<glyph unicode="." horiz-adv-x="614" d="M205 80q0 43 29.5 72.5t72.5 29.5t73 -29.5t30 -72.5t-30 -73t-73 -30t-72.5 30t-29.5 73z" />
<glyph unicode="/" horiz-adv-x="894" d="M51 -78l690 1639h103l-690 -1639h-103z" />
<glyph unicode="0" horiz-adv-x="1241" d="M137 741q0 385 129 576q60 89 151 138.5t204 49.5t203.5 -49.5t150.5 -138.5q129 -191 129 -576q0 -384 -129 -575q-60 -89 -150.5 -139t-203.5 -50t-204 50t-151 139q-129 191 -129 575zM262 741q0 -355 107 -510q45 -65 110 -101t142 -36q157 0 251 137 q107 155 107 510t-107 510q-95 138 -251 138q-157 0 -252 -138q-107 -155 -107 -510z" />
<glyph unicode="1" horiz-adv-x="1026" d="M166 1190v121l485 194v-1505h-125v1333z" />
<glyph unicode="2" horiz-adv-x="1136" d="M63 4l502 586q133 153 196.5 266.5t63.5 228.5q0 145 -93 224.5t-238 79.5q-178 0 -320 -115v131q61 44 147.5 72t180.5 28q124 0 224 -46t162 -141.5t62 -227.5q0 -138 -70 -269t-214 -299l-349 -403l2 -4h693v-115h-946z" />
<glyph unicode="3" horiz-adv-x="1110" d="M113 121v151q84 -88 190 -133t215 -45q151 0 247.5 81.5t96.5 219.5q0 132 -91.5 213.5t-258.5 81.5h-137v111h127q149 0 237 82t88 213q0 134 -90.5 213.5t-234.5 79.5q-154 0 -289 -93v129q133 80 297 80q194 0 318 -111t124 -290q0 -121 -60.5 -215t-176.5 -131v-4 q138 -35 205 -132t67 -227q0 -187 -130.5 -302.5t-340.5 -115.5q-122 0 -228.5 40t-174.5 104z" />
<glyph unicode="4" horiz-adv-x="1286" d="M51 395l768 1088h117v-981h295v-111h-295v-391h-125v391h-758zM258 506l2 -4h551v442q0 231 2 346l-4 2q-155 -226 -217 -313z" />
<glyph unicode="5" horiz-adv-x="1097" d="M113 63l8 132q165 -101 344 -101q177 0 286 87t109 229q0 75 -32 134.5t-83 96t-120.5 61t-139 34t-143.5 9.5q-86 0 -166 -12l57 750h709l-10 -115h-588l-39 -514q23 2 64 2q90 0 174 -13.5t165.5 -46t142 -81t97.5 -125.5t37 -174q0 -196 -142.5 -317.5t-377.5 -121.5 q-200 0 -352 86z" />
<glyph unicode="6" horiz-adv-x="1191" d="M111 449q0 103 37 204t126 254l336 576h144l-355 -600q-49 -79 -71 -125l4 -2q114 108 293 108q190 0 318 -124t128 -312q0 -194 -136 -322.5t-345 -128.5q-210 0 -344.5 134.5t-134.5 337.5zM238 432q0 -136 99 -239t255 -103q147 0 250.5 92t103.5 242q0 142 -98 237 t-248 95q-151 0 -256.5 -93t-105.5 -231z" />
<glyph unicode="7" horiz-adv-x="1124" d="M106 1368v115h926l2 -4l-631 -1479h-131l584 1368h-750z" />
<glyph unicode="8" horiz-adv-x="1208" d="M127 406q0 143 77 242.5t193 131.5v4q-108 37 -169.5 124t-61.5 206q0 171 122 281t316 110t316 -110t122 -281q0 -119 -61.5 -206t-169.5 -124v-4q116 -32 193 -131.5t77 -242.5q0 -188 -131.5 -308.5t-345.5 -120.5t-345.5 120.5t-131.5 308.5zM252 403 q0 -140 101 -227.5t251 -87.5t251 87.5t101 227.5q0 142 -101.5 233t-250.5 91t-250.5 -91t-101.5 -233zM287 1112q0 -124 91.5 -202.5t225.5 -78.5q135 0 226.5 78.5t91.5 202.5q0 123 -91 203t-227 80t-226.5 -79.5t-90.5 -203.5z" />
<glyph unicode="9" horiz-adv-x="1163" d="M98 1055q0 194 138.5 322t343.5 128q203 0 338 -129.5t135 -331.5q0 -111 -42 -214.5t-126 -235.5l-377 -594h-146l410 641q30 48 35 57l-4 2q-102 -79 -260 -79q-187 0 -316 123.5t-129 310.5zM223 1059q0 -141 97.5 -235.5t250.5 -94.5t254 97t101 231q0 86 -44 163 t-125.5 125t-181.5 48q-93 0 -172.5 -40t-129.5 -117.5t-50 -176.5z" />
<glyph unicode=":" horiz-adv-x="614" d="M205 80q0 43 29.5 72.5t72.5 29.5t73 -29.5t30 -72.5t-30 -73t-73 -30t-72.5 30t-29.5 73zM205 928q0 43 29.5 72.5t72.5 29.5t73 -29.5t30 -72.5t-30 -73t-73 -30t-72.5 30t-29.5 73z" />
<glyph unicode=";" horiz-adv-x="614" d="M141 -301l119 559h125l-154 -559h-90zM205 928q0 43 29.5 72.5t72.5 29.5t73 -29.5t30 -72.5t-30 -73t-73 -30t-72.5 30t-29.5 73z" />
<glyph unicode="&#x3c;" horiz-adv-x="1376" d="M193 700v78l993 447v-105l-838 -379v-4l838 -379v-104z" />
<glyph unicode="=" horiz-adv-x="1193" d="M109 492v98h976v-98h-976zM109 893v98h976v-98h-976z" />
<glyph unicode="&#x3e;" horiz-adv-x="1376" d="M193 254v104l837 379v4l-837 379v105l993 -447v-78z" />
<glyph unicode="?" horiz-adv-x="954" d="M115 1432q126 73 282 73q194 0 325.5 -125t131.5 -309q0 -122 -61.5 -220t-163 -155t-226.5 -69l17 -242h-113l-39 338q203 0 332 91t129 251q0 139 -96.5 231.5t-241.5 92.5q-139 0 -264 -80zM293 78q0 41 29.5 70.5t70.5 29.5t71 -29.5t30 -70.5t-30 -71t-71 -30 t-70.5 30t-29.5 71z" />
<glyph unicode="@" horiz-adv-x="1667" d="M82 504q0 158 56.5 299t155.5 243t240 162t302 60q213 0 386 -102t269 -275.5t96 -380.5q0 -114 -31 -202t-100 -142.5t-168 -54.5q-80 0 -138.5 35t-88.5 98h-4q-54 -64 -128 -99.5t-153 -35.5q-139 0 -229 96.5t-90 251.5q0 113 47.5 213t141 164.5t212.5 64.5t227 -76 l82 15l-37 -420q-2 -20 -2 -43q0 -91 44 -141t126 -50q98 0 155.5 80.5t57.5 237.5q0 143 -50 270.5t-137.5 220.5t-214 147t-273.5 54q-195 0 -351 -93t-241.5 -250t-85.5 -347t86 -347.5t242 -250t350 -92.5q258 0 444 159l41 -63q-97 -82 -222.5 -126t-264.5 -44 q-160 0 -300 60t-239 162t-156 243t-57 299zM551 461q0 -120 64 -194t173 -74q72 0 138 35.5t112 103.5q-4 20 0 84l29 317q-97 82 -215 82q-88 0 -158 -51t-106.5 -131.5t-36.5 -171.5z" />
<glyph unicode="A" horiz-adv-x="1400" d="M23 0l616 1483h119l620 -1483h-135l-182 442h-727l-182 -442h-129zM381 557h633l-150 367q-116 285 -164 407h-4q-24 -62 -164 -405z" />
<glyph unicode="B" horiz-adv-x="1294" d="M184 0v1483h385q133 0 221 -17.5t154 -56.5q82 -49 126 -128.5t44 -176.5q0 -121 -67 -206.5t-185 -119.5v-4q143 -25 227.5 -120t84.5 -240q0 -100 -42 -181.5t-118 -136.5q-71 -51 -171.5 -73.5t-275.5 -22.5h-383zM309 115h266q146 0 228.5 18t136.5 57 q109 81 109 224q0 137 -104.5 216t-280.5 79h-355v-594zM309 813h342q147 0 242.5 72t95.5 205q0 147 -123 221q-52 31 -121 44t-188 13h-248v-555z" />
<glyph unicode="C" horiz-adv-x="1400" d="M98 739q0 157 55.5 297.5t154.5 244t245 164t317 60.5q208 0 398 -94v-139q-177 117 -398 117q-189 0 -338 -86.5t-229 -234t-80 -327.5q0 -135 47.5 -253.5t132 -205.5t208 -137.5t268.5 -50.5q231 0 415 129v-139q-179 -107 -422 -107q-168 0 -313 59t-246 160.5 t-158 242t-57 300.5z" />
<glyph unicode="D" horiz-adv-x="1509" d="M184 0v1483h379q352 0 565 -152q136 -98 213.5 -252t77.5 -334q0 -173 -70 -319.5t-186 -243.5q-110 -92 -262 -137t-364 -45h-353zM309 115h244q338 0 520 147q103 83 162 208t59 271q0 154 -63.5 282t-171.5 210q-178 135 -508 135h-242v-1253z" />
<glyph unicode="E" horiz-adv-x="1130" d="M184 0v1483h822v-115h-697v-541h617v-114h-617v-598h715v-115h-840z" />
<glyph unicode="F" horiz-adv-x="1136" d="M184 0v1483h842v-115h-717v-569h637v-115h-637v-684h-125z" />
<glyph unicode="G" horiz-adv-x="1507" d="M98 739q0 160 56.5 301t157 243.5t246.5 162t316 59.5q241 0 437 -114v-144q-194 142 -441 142q-143 0 -265 -51t-205 -138t-130 -206t-47 -253q0 -133 46 -251.5t129 -206.5t206 -139.5t268 -51.5q203 0 357 88v416h-377v115h502v-594q-99 -64 -228.5 -102t-263.5 -38 q-217 0 -392.5 100t-273.5 274t-98 388z" />
<glyph unicode="H" horiz-adv-x="1515" d="M184 0v1483h125v-656h897v656h125v-1483h-125v713h-897v-713h-125z" />
<glyph unicode="I" horiz-adv-x="493" d="M184 0v1483h125v-1483h-125z" />
<glyph unicode="J" horiz-adv-x="811" d="M78 23v120q113 -49 213 -49q54 0 92.5 15.5t61.5 40.5t36 66t17 83.5t4 101.5v1082h125v-1077q0 -126 -19 -201t-57 -123q-84 -105 -258 -105q-105 0 -215 46z" />
<glyph unicode="K" horiz-adv-x="1257" d="M184 0v1483h125v-676l4 -2l717 678h158l-729 -686l790 -797h-168l-768 776l-4 -2v-774h-125z" />
<glyph unicode="L" horiz-adv-x="1122" d="M184 0v1483h125v-1368h735v-115h-860z" />
<glyph unicode="M" horiz-adv-x="1761" d="M184 0v1483h121l576 -828l575 828h121v-1483h-125v891q0 260 2 379l-4 2q-220 -320 -221 -322l-350 -504l-351 504q-1 2 -221 322l-4 -2q2 -119 2 -379v-891h-121z" />
<glyph unicode="N" horiz-adv-x="1566" d="M184 0v1483h119l678 -903q165 -221 279 -377l4 2q-2 143 -2 444v834h120v-1483h-118l-678 903q-165 221 -279 377l-4 -2q2 -143 2 -444v-834h-121z" />
<glyph unicode="O" horiz-adv-x="1687" d="M96 741q0 211 97.5 386.5t269.5 276.5t381 101q157 0 296 -59.5t237.5 -161.5t156 -243.5t57.5 -299.5t-57.5 -299.5t-156 -243.5t-237.5 -161.5t-296 -59.5q-209 0 -381 101t-269.5 276.5t-97.5 386.5zM221 741q0 -178 80 -326t223 -234.5t320 -86.5q176 0 319.5 86.5 t223 234.5t79.5 326t-79.5 326.5t-223 235t-319.5 86.5t-319.5 -86.5t-223.5 -235t-80 -326.5z" />
<glyph unicode="P" horiz-adv-x="1263" d="M184 0v1483h387q149 0 252.5 -21t182.5 -73q180 -119 180 -336q0 -110 -46 -196t-128 -142q-79 -54 -190 -75.5t-273 -21.5h-240v-618h-125zM309 729h254q151 0 233.5 18.5t141.5 59.5q121 84 121 242q0 163 -131 247q-63 40 -147.5 56t-217.5 16h-254v-639z" />
<glyph unicode="Q" horiz-adv-x="1687" d="M96 741q0 211 97.5 386.5t269.5 276.5t381 101q157 0 296 -59.5t237.5 -161.5t156 -243.5t57.5 -299.5q0 -280 -165.5 -487t-426.5 -260v-4q235 -167 517 -260l-130 -76q-295 111 -559 323q-205 4 -372.5 105.5t-263 275.5t-95.5 383zM221 741q0 -178 80 -326t223 -234.5 t320 -86.5q176 0 319.5 86.5t223 234.5t79.5 326t-79.5 326.5t-223 235t-319.5 86.5t-319.5 -86.5t-223.5 -235t-80 -326.5z" />
<glyph unicode="R" horiz-adv-x="1308" d="M184 0v1483h398q137 0 236 -19.5t173 -68.5q172 -114 172 -320q0 -99 -41.5 -180t-113.5 -133q-91 -65 -240 -88l496 -674h-152l-483 664h-320v-664h-125zM309 770h312q218 0 323 86q94 79 94 213q0 152 -120 231q-58 39 -137 53.5t-208 14.5h-264v-598z" />
<glyph unicode="S" horiz-adv-x="1134" d="M115 1108q0 187 123.5 292t328.5 105q109 0 221 -30t195 -86v-136q-91 66 -203 101t-215 35q-149 0 -237 -70.5t-88 -202.5q0 -59 22 -105t47.5 -73.5t83 -53.5t89.5 -36t107 -31l21 -6q54 -15 91.5 -27t86.5 -32.5t82.5 -42t68.5 -53.5t56.5 -69t35 -88t13.5 -110 q0 -192 -128.5 -302t-340.5 -110q-113 0 -230 32t-204 91v140q93 -72 209 -109t225 -37q155 0 250 74.5t95 214.5q0 62 -24 111t-49 77t-89 56.5t-94 38t-114 32.5q-9 3 -13 4q-52 15 -91 27.5t-85.5 32t-79.5 40.5t-66.5 52t-54 66.5t-33 83.5t-12.5 104z" />
<glyph unicode="T" horiz-adv-x="1267" d="M61 1368v115h1145v-115h-510v-1368h-125v1368h-510z" />
<glyph unicode="U" horiz-adv-x="1480" d="M166 705v778h125v-768q0 -175 23 -288t79 -185q114 -148 352 -148q132 0 224.5 46t144.5 128q45 72 62.5 176.5t17.5 266.5v772h121v-766q0 -190 -22.5 -311.5t-82.5 -212.5q-70 -104 -189.5 -160t-281.5 -56q-296 0 -444 187q-73 92 -101 221t-28 320z" />
<glyph unicode="V" horiz-adv-x="1333" d="M27 1483h135l323 -832q164 -425 185 -481h4q27 73 184 485l320 828h129l-576 -1483h-125z" />
<glyph unicode="W" horiz-adv-x="2041" d="M35 1483h135l262 -840q88 -285 137 -450h4q10 34 142 454l264 836h92l270 -856q81 -254 136 -434h4q66 221 131 430l268 860h127l-465 -1483h-129l-270 856q-50 159 -117 379h-4q-66 -223 -115 -373l-272 -862h-133z" />
<glyph unicode="X" horiz-adv-x="1327" d="M25 0l559 786l-490 697h150l221 -318q62 -88 201 -293h4q16 23 84.5 124t109.5 159l230 328h141l-490 -697l560 -786h-150l-274 387q-94 132 -217 313h-5q-146 -210 -219 -313l-274 -387h-141z" />
<glyph unicode="Y" horiz-adv-x="1318" d="M25 1483h145l238 -338q95 -135 251 -363h5q124 182 251 363l238 338h141l-571 -811v-672h-125v670z" />
<glyph unicode="Z" horiz-adv-x="1267" d="M55 4l920 1360l-2 4h-867v115h1090l2 -4l-919 -1360l2 -4h901v-115h-1125z" />
<glyph unicode="[" horiz-adv-x="692" d="M197 -436v1958h415v-99h-305v-1761h305v-98h-415z" />
<glyph unicode="\" horiz-adv-x="894" d="M51 1561h105l688 -1639h-105z" />
<glyph unicode="]" horiz-adv-x="692" d="M80 -338h305v1761h-305v99h416v-1958h-416v98z" />
<glyph unicode="^" horiz-adv-x="1198" d="M168 741l385 764h92l385 -764h-106l-324 633h-2l-324 -633h-106z" />
<glyph unicode="_" horiz-adv-x="946" d="M0 -199h946v-75h-946v75z" />
<glyph unicode="`" horiz-adv-x="995" d="M293 1489h133l176 -336h-94z" />
<glyph unicode="a" horiz-adv-x="1083" d="M104 264q0 151 127 234q104 67 277 67q125 0 260 -37v117q0 75 -17 125t-57 86q-73 64 -207 64q-171 0 -309 -99v121q145 90 322 90q181 0 286 -88q103 -86 103 -270v-436q0 -72 22.5 -111t79.5 -39q37 0 66 16v-104q-37 -16 -88 -16q-66 0 -114 30t-69 88h-4 q-62 -54 -150.5 -89.5t-185.5 -35.5q-143 0 -237 70q-105 78 -105 217zM227 274q0 -93 68 -140.5t168 -47.5q83 0 163 32t142 87v227q-125 37 -250 37q-57 0 -106.5 -10t-92 -31t-67.5 -60.5t-25 -93.5z" />
<glyph unicode="b" horiz-adv-x="1208" d="M178 27v1538h121v-645l4 -2q147 112 320 112q207 0 346 -145t139 -371q0 -151 -65.5 -273.5t-185 -193t-271.5 -70.5q-144 0 -291 70zM299 160q145 -76 291 -76q179 0 288 121.5t109 302.5q0 179 -105.5 296.5t-273.5 117.5q-180 0 -309 -129v-633z" />
<glyph unicode="c" horiz-adv-x="1052" d="M102 500q0 229 154 379.5t389 150.5q148 0 275 -65v-127q-133 82 -279 82q-185 0 -301.5 -119.5t-116.5 -300.5t117.5 -296.5t300.5 -115.5q171 0 295 96v-131q-130 -76 -301 -76q-233 0 -383 148.5t-150 374.5z" />
<glyph unicode="d" d="M104 485q0 111 36.5 210.5t102.5 173.5t164.5 117.5t215.5 43.5q134 0 286 -72l4 3v604h121v-1565h-121v94l-4 2q-133 -119 -323 -119q-100 0 -188.5 36.5t-153.5 101.5t-102.5 161t-37.5 209zM225 494q0 -179 104 -293.5t275 -114.5q182 0 309 127v627q-140 82 -286 82 q-183 0 -292.5 -122t-109.5 -306z" />
<glyph unicode="e" horiz-adv-x="1159" d="M104 504q0 114 39.5 213t107 167t159 107t192.5 39q190 0 318.5 -128t128.5 -345q0 -23 -5 -86h-821q15 -177 131.5 -281t296.5 -104t338 117v-131q-70 -44 -162 -69.5t-184 -25.5q-153 0 -276 66t-193 186.5t-70 274.5zM227 571h703q-2 78 -24 140t-56 100.5t-78.5 64.5 t-87.5 36t-86 10q-134 0 -240.5 -92.5t-130.5 -258.5z" />
<glyph unicode="f" horiz-adv-x="671" d="M51 901v107h172v219q0 101 19.5 170t66.5 114q79 76 217 76q72 0 131 -18v-109q-59 17 -127 17q-107 0 -146.5 -59.5t-39.5 -174.5v-235h281v-107h-281v-901h-121v901h-172z" />
<glyph unicode="g" horiz-adv-x="1206" d="M104 500q0 85 21.5 164t65 145.5t104 116.5t142.5 78t177 28q151 0 297 -78l117 21v-975q0 -216 -129.5 -344.5t-355.5 -128.5q-169 0 -312 78v129q151 -96 312 -96q168 0 266 96t98 264v111l-4 2q-130 -113 -315 -113q-207 0 -345.5 141.5t-138.5 360.5zM227 508 q0 -175 105 -288.5t272 -113.5q86 0 166 32.5t137 90.5v607q-132 86 -295 86q-173 0 -279 -118.5t-106 -295.5z" />
<glyph unicode="h" horiz-adv-x="1210" d="M178 0v1565h121v-699l4 -2q177 166 387 166q162 0 258 -102q47 -51 68.5 -121t21.5 -180v-627h-120v604q0 95 -15 150t-51 92q-66 72 -182 72q-197 0 -371 -181v-737h-121z" />
<glyph unicode="i" horiz-adv-x="477" d="M145 1360q0 38 27.5 65t67.5 27q38 0 65 -27t27 -67q0 -38 -27 -65t-67 -27q-38 0 -65.5 27t-27.5 67zM178 0v1008h121v-1008h-121z" />
<glyph unicode="j" horiz-adv-x="481" d="M-88 -350q70 -12 108 -12q93 0 127.5 54t34.5 163v1153h121v-1147q0 -175 -65 -250q-73 -84 -215 -84q-53 0 -111 14v109zM150 1360q0 38 27 65t67 27q38 0 65 -27t27 -67q0 -38 -27 -65t-67 -27q-38 0 -65 27t-27 67z" />
<glyph unicode="k" horiz-adv-x="1034" d="M178 0v1565h121v-1002l2 -2l510 447h156l-516 -451l569 -557h-162l-557 549l-2 -2v-547h-121z" />
<glyph unicode="l" horiz-adv-x="477" d="M178 0v1565h121v-1565h-121z" />
<glyph unicode="m" horiz-adv-x="1914" d="M178 0v1008h121v-138l4 -2q176 162 373 162q104 0 188 -46.5t123 -139.5q195 186 408 186q166 0 258 -100q46 -50 67 -119t21 -178v-633h-121v612q0 167 -64 236q-64 70 -182 70q-96 0 -189.5 -48.5t-170.5 -128.5q6 -49 6 -108v-633h-121v612q0 91 -13.5 145t-47.5 91 q-67 70 -185 70q-181 0 -354 -173v-745h-121z" />
<glyph unicode="n" d="M178 0v1008h121v-142l4 -2q180 166 387 166q162 0 258 -102q47 -51 68.5 -121t21.5 -180v-627h-120v604q0 172 -64 242q-66 72 -188 72q-99 0 -194 -49.5t-173 -131.5v-737h-121z" />
<glyph unicode="o" horiz-adv-x="1249" d="M102 504q0 147 67.5 267.5t187.5 189.5t268 69q111 0 208.5 -40.5t166 -110.5t108 -167.5t39.5 -207.5q0 -147 -67 -267.5t-187 -190t-268 -69.5t-268 69.5t-187.5 190t-67.5 267.5zM223 504q0 -178 115 -297t287 -119t286.5 119t114.5 297t-114.5 297t-286.5 119 t-287 -119t-115 -297z" />
<glyph unicode="p" d="M178 -451v1459h121v-86l4 -2q148 110 318 110q211 0 349 -148t138 -376q0 -232 -143.5 -380.5t-362.5 -148.5q-161 0 -299 89l-4 -3v-514h-121zM299 188q60 -47 139.5 -75.5t163.5 -28.5q172 0 278.5 116.5t106.5 299.5q0 181 -106 301.5t-277 120.5q-84 0 -164 -31.5 t-141 -89.5v-613z" />
<glyph unicode="q" d="M104 496q0 150 64 271.5t183 192t270 70.5q145 0 297 -76l116 21v-1426h-121v537l-4 2q-141 -111 -315 -111q-209 0 -349.5 147t-140.5 372zM225 504q0 -179 107 -299.5t274 -120.5q84 0 164.5 32t142.5 89v633q-145 84 -295 84q-177 0 -285 -120t-108 -298z" />
<glyph unicode="r" horiz-adv-x="718" d="M178 0v1008h121v-164l4 -2q61 81 146 128.5t180 47.5q32 0 59 -6v-117q-27 6 -63 6q-195 0 -326 -196v-705h-121z" />
<glyph unicode="s" horiz-adv-x="993" d="M96 741q0 139 107 214t284 75q204 0 363 -86v-127q-161 103 -367 103q-123 0 -194.5 -43t-71.5 -127q0 -38 16.5 -66.5t41.5 -45.5t64.5 -30t75 -19.5t84.5 -14.5q22 -3 33 -5q64 -10 109.5 -20.5t98 -32.5t85 -51t54.5 -76.5t22 -109.5q0 -146 -109 -224t-296 -78 q-216 0 -375 89v129q167 -107 381 -107q131 0 204.5 45.5t73.5 134.5q0 41 -16.5 72t-44.5 49.5t-67 31.5t-80.5 21t-87.5 15q-19 2 -29 4q-49 8 -85.5 16t-81.5 22.5t-76.5 35t-59.5 48.5t-42 68t-14 90z" />
<glyph unicode="t" horiz-adv-x="761" d="M49 901v107h201v282l121 21v-303h325v-107h-325v-536q0 -51 3.5 -88t14.5 -74.5t30.5 -61t53 -38.5t80.5 -15q80 0 143 37v-115q-72 -33 -159 -33q-141 0 -215 86q-72 83 -72 281v557h-201z" />
<glyph unicode="u" d="M174 399v609h121v-586q0 -187 63 -258q67 -76 191 -76q189 0 364 186v734h121v-1008h-121v143l-4 2q-175 -168 -383 -168q-170 0 -264 107q-46 53 -67 127.5t-21 187.5z" />
<glyph unicode="v" horiz-adv-x="1101" d="M61 1008h132l210 -498q138 -329 148 -354h4q51 124 147 354l211 498h127l-430 -1008h-118z" />
<glyph unicode="w" horiz-adv-x="1658" d="M61 1008h129l179 -510q44 -127 114 -336h4q69 198 117 330l187 516h83l183 -504q45 -123 121 -340h4q70 212 112 332l179 512h124l-354 -1008h-121l-178 492q-34 94 -110 315h-5q-83 -240 -112 -320l-176 -487h-125z" />
<glyph unicode="x" horiz-adv-x="1005" d="M4 0l422 535l-373 473h144l157 -201q133 -173 150 -195h4q65 87 151 197l156 199h137l-370 -471l422 -537h-144l-178 227q-98 125 -178 232h-4q-46 -61 -183 -236l-176 -223h-137z" />
<glyph unicode="y" horiz-adv-x="1105" d="M61 1008h134l200 -426q113 -241 156 -336h4q45 97 156 334l202 428h127l-696 -1459h-129l272 560z" />
<glyph unicode="z" horiz-adv-x="964" d="M51 4l641 889l-2 4h-600v111h819l2 -4l-641 -889l2 -4h627v-111h-846z" />
<glyph unicode="{" horiz-adv-x="737" d="M66 494v98h49q60 0 96 10.5t53 37t22 56.5t5 84v449q0 165 64 240t210 75q67 0 115 -10v-98q-48 10 -105 10q-100 0 -137 -52.5t-37 -176.5v-433q0 -101 -25.5 -160t-96.5 -79v-4q71 -20 96.5 -79t25.5 -161v-432q0 -124 37 -176.5t137 -52.5q57 0 105 10v-99 q-48 -10 -115 -10q-146 0 -210 75.5t-64 240.5v448q0 43 -3 69t-12.5 51.5t-28.5 39t-51.5 21.5t-80.5 8h-49z" />
<glyph unicode="|" horiz-adv-x="653" d="M276 -451v2089h101v-2089h-101z" />
<glyph unicode="}" horiz-adv-x="737" d="M57 -350q48 -10 105 -10q100 0 137 52.5t37 176.5v432q0 101 26 160.5t97 79.5v4q-71 20 -97 79t-26 160v433q0 124 -37 176.5t-137 52.5q-57 0 -105 -10v98q48 10 115 10q146 0 210 -75t64 -240v-449q0 -54 5 -84t22.5 -56.5t53.5 -37t96 -10.5h49v-98h-49 q-60 0 -96 -10.5t-53.5 -37.5t-22.5 -57t-5 -84v-448q0 -165 -64 -240.5t-210 -75.5q-67 0 -115 10v99z" />
<glyph unicode="~" horiz-adv-x="1130" d="M152 631v135q30 50 81.5 77t112.5 27q55 0 110 -20.5t130 -61.5q45 -25 69 -37t60 -23t69 -11q68 0 112.5 37.5t78.5 99.5l4 -2v-135q-30 -50 -82 -77.5t-113 -27.5q-55 0 -109 20.5t-130 61.5q-46 25 -69.5 37t-60 23.5t-69.5 11.5q-68 0 -111.5 -37.5t-78.5 -99.5z" />
<glyph unicode="&#xa1;" horiz-adv-x="643" d="M221 930q0 41 30 70.5t71 29.5t70.5 -29.5t29.5 -70.5t-29.5 -71t-70.5 -30t-71 30t-30 71zM254 -475l29 1053h77l29 -1053h-135z" />
<glyph unicode="&#xa2;" horiz-adv-x="1069" d="M102 735q0 202 121.5 346.5t317.5 178.5v260h100v-252q154 0 279 -66v-127q-133 82 -277 82q-187 0 -303.5 -119.5t-116.5 -300.5t117.5 -296t300.5 -115q171 0 295 96v-131q-122 -73 -295 -76v-252h-100v258q-197 31 -318 173t-121 341z" />
<glyph unicode="&#xa3;" horiz-adv-x="1148" d="M162 0v98q82 70 138 173.5t56 222.5q0 79 -26 168h-168v102h133q-5 13 -23 62.5t-25 70t-18 60t-15.5 71.5t-4.5 64q0 131 61.5 226t162 141t226.5 46q92 0 179 -26t147 -68v-137q-145 115 -321 115q-143 0 -236.5 -79t-93.5 -220q0 -35 10 -80.5t18 -72t32 -91.5t30 -82 h401v-102h-370q22 -80 22 -158q0 -114 -47 -215.5t-119 -169.5l2 -4h736v-115h-887z" />
<glyph unicode="&#xa4;" horiz-adv-x="1245" d="M121 301l151 150q-86 116 -86 266t86 266l-151 150l80 79l149 -149q117 90 273 90q155 0 272 -90l149 149l80 -79l-151 -150q86 -116 86 -266t-86 -266l151 -150l-80 -80l-149 150q-117 -90 -272 -90q-156 0 -273 90l-149 -150zM287 717q0 -143 96 -240.5t240 -97.5 t239.5 97.5t95.5 240.5t-95.5 240.5t-239.5 97.5t-240 -97.5t-96 -240.5z" />
<glyph unicode="&#xa5;" horiz-adv-x="1347" d="M90 1483h146l184 -262q126 -179 252 -363h4q80 117 252 363l184 262h141l-372 -527h282v-98h-350l-78 -113v-172h428v-100h-428v-473h-125v473h-428v100h428v172l-80 113h-348v98h279z" />
<glyph unicode="&#xa6;" horiz-adv-x="653" d="M276 352h101v-803h-101v803zM276 836v802h101v-802h-101z" />
<glyph unicode="&#xa7;" horiz-adv-x="1136" d="M117 635q0 110 62 184.5t169 108.5v4q-131 93 -131 244q0 147 105.5 233t265.5 86q157 0 284 -76v-121q-134 88 -282 88q-112 0 -183 -54t-71 -152q0 -54 19 -93t72.5 -72t87 -47.5t122.5 -47.5l39 -15q54 -20 88.5 -35t81 -39t75.5 -50t57 -61t41 -79.5t13 -97.5 q0 -112 -61 -185t-166 -104v-4q129 -87 129 -248q0 -150 -105.5 -234.5t-273.5 -84.5q-86 0 -167.5 22t-139.5 57v125q150 -96 305 -96q116 0 189 54.5t73 156.5q0 54 -19 93t-72.5 72t-90.5 49t-128 50q-23 9 -34 13q-45 17 -74.5 29.5t-70.5 32.5t-67.5 39t-56 46.5 t-46 56.5t-28 68.5t-11.5 83.5zM236 645q0 -33 9 -61.5t21.5 -50t38 -42t47 -35t60 -31.5t65.5 -27.5t74 -28.5q90 -33 145 -60q217 48 217 226q0 46 -16.5 84t-40.5 63.5t-70 51.5t-85 42t-105 41q-89 32 -137 53q-223 -51 -223 -225z" />
<glyph unicode="&#xa8;" horiz-adv-x="995" d="M225 1321q0 35 24.5 59.5t59.5 24.5t59.5 -24.5t24.5 -59.5t-24.5 -59.5t-59.5 -24.5t-59.5 24.5t-24.5 59.5zM602 1321q0 35 24.5 59.5t59.5 24.5t59.5 -24.5t24.5 -59.5t-24.5 -59.5t-59.5 -24.5t-59.5 24.5t-24.5 59.5z" />
<glyph unicode="&#xa9;" horiz-adv-x="1669" d="M80 741q0 158 57.5 299.5t157 243.5t240.5 161.5t301 59.5q213 0 386.5 -101.5t271 -276t97.5 -386.5t-97.5 -386.5t-271 -276t-386.5 -101.5q-160 0 -301 59.5t-240.5 161.5t-157 243.5t-57.5 299.5zM154 741q0 -192 86 -350t243 -250t353 -92t353 92t243 250t86 350 t-86 350t-243 250.5t-353 92.5t-353 -92.5t-243 -250.5t-86 -350zM446 748q0 181 120 301t306 120q121 0 222 -53v-96q-100 65 -224 65q-147 0 -240 -95.5t-93 -239.5q0 -146 93.5 -239t241.5 -93q135 0 234 76v-99q-98 -61 -238 -61q-185 0 -303.5 118t-118.5 296z" />
<glyph unicode="&#xaa;" horiz-adv-x="765" d="M123 1010q0 99 80 153q62 43 182 43q79 0 162 -22v73q0 166 -174 166q-111 0 -201 -63v90q83 57 211 57q124 0 190 -57q68 -62 68 -176v-279q0 -90 61 -90q23 0 43 10v-77q-26 -13 -61 -13q-88 0 -123 74h-2q-93 -78 -215 -78q-89 0 -151 45q-70 57 -70 144zM215 1014 q0 -57 41.5 -86t101.5 -29q107 0 189 72v141q-77 23 -152 23q-77 0 -128.5 -28.5t-51.5 -92.5z" />
<glyph unicode="&#xab;" horiz-adv-x="1105" d="M119 504l344 448h110l-344 -448l344 -449h-110zM522 504l344 448h111l-344 -448l344 -449h-111z" />
<glyph unicode="&#xac;" horiz-adv-x="1196" d="M111 692v99h976v-553h-102v454h-874z" />
<glyph unicode="&#xad;" horiz-adv-x="733" d="M129 514v107h477v-107h-477z" />
<glyph unicode="&#xae;" horiz-adv-x="925" d="M80 1124q0 164 108.5 272.5t274.5 108.5t274.5 -108.5t108.5 -272.5t-108.5 -272.5t-274.5 -108.5t-274.5 108.5t-108.5 272.5zM129 1124q0 -145 94 -239t240 -94t240 94t94 239t-94 239.5t-240 94.5t-240 -94.5t-94 -239.5zM328 918v413h137q70 0 113 -34.5t43 -94.5 q0 -88 -97 -119l113 -165h-66l-104 157h-82v-157h-57zM385 1124h80q46 0 71 20.5t25 57.5q0 36 -25.5 57t-70.5 21h-80v-156z" />
<glyph unicode="&#xaf;" horiz-adv-x="995" d="M227 1274v94h541v-94h-541z" />
<glyph unicode="&#xb0;" horiz-adv-x="802" d="M96 1204q0 127 87 214t218 87t218.5 -87t87.5 -214t-87.5 -214t-218.5 -87t-218 87t-87 214zM168 1204q0 -98 66.5 -164.5t166.5 -66.5q101 0 167.5 66.5t66.5 164.5t-67 165t-167 67t-166.5 -67t-66.5 -165z" />
<glyph unicode="&#xb1;" horiz-adv-x="1193" d="M131 881v98h416v393h100v-393h416v-98h-416v-394h-100v394h-416zM133 178v98h930v-98h-930z" />
<glyph unicode="&#xb2;" horiz-adv-x="737" d="M51 868l305 342q154 170 154 293q0 83 -52.5 127.5t-135.5 44.5q-106 0 -205 -69v102q93 59 211 59q127 0 205.5 -69.5t78.5 -190.5q0 -78 -38 -156.5t-119 -170.5l-193 -219l2 -5h385v-92h-596z" />
<glyph unicode="&#xb3;" horiz-adv-x="716" d="M82 924v108q124 -90 252 -90q88 0 145.5 45.5t57.5 120.5q0 73 -54.5 116.5t-156.5 43.5h-88v84h79q88 0 140.5 46t52.5 118q0 73 -53 116t-140 43q-95 0 -180 -53v98q83 47 191 47q124 0 204 -67t80 -172q0 -68 -36.5 -125.5t-106.5 -79.5v-4q86 -23 127 -82.5 t41 -132.5q0 -112 -85 -183t-220 -71q-142 0 -250 74z" />
<glyph unicode="&#xb4;" horiz-adv-x="995" d="M393 1153l176 336h133l-215 -336h-94z" />
<glyph unicode="&#xb5;" horiz-adv-x="1226" d="M180 -451v1459h121v-586q0 -186 64 -258q67 -76 190 -76q190 0 365 186v734h120v-1008h-120v143l-5 2q-175 -168 -383 -168q-70 0 -132.5 21.5t-100.5 62.5l-4 -2l12 -510h-127z" />
<glyph unicode="&#xb6;" horiz-adv-x="1128" d="M131 1112q0 154 110 262.5t265 108.5h393v-1934h-102v1837h-189v-1837h-102v1192q-155 0 -265 108.5t-110 262.5z" />
<glyph unicode="&#xb7;" horiz-adv-x="612" d="M205 618q0 43 29.5 73t72.5 30t73 -30t30 -73t-30 -72.5t-73 -29.5t-72.5 29.5t-29.5 72.5z" />
<glyph unicode="&#xb8;" horiz-adv-x="995" d="M338 -416l22 74q72 -37 134 -37q48 0 80 25t32 67q0 106 -192 121l61 207l68 -14l-39 -129q188 -38 188 -179q0 -77 -54 -124.5t-144 -47.5q-80 0 -156 37z" />
<glyph unicode="&#xb9;" horiz-adv-x="661" d="M106 1552v95l320 120v-903h-98v772z" />
<glyph unicode="&#xba;" horiz-adv-x="843" d="M84 1163q0 149 94 245.5t244 96.5t244 -96.5t94 -245.5t-94 -245.5t-244 -96.5t-244 96.5t-94 245.5zM178 1163q0 -113 68.5 -184.5t175.5 -71.5t175.5 71.5t68.5 184.5t-68.5 184.5t-175.5 71.5t-175.5 -71.5t-68.5 -184.5z" />
<glyph unicode="&#xbb;" horiz-adv-x="1105" d="M129 55l344 449l-344 448h111l344 -448l-344 -449h-111zM532 55l345 449l-345 448h111l344 -448l-344 -449h-111z" />
<glyph unicode="&#xbc;" horiz-adv-x="1894" d="M123 1290v94l319 121v-903h-98v772zM375 -27l983 1510h115l-984 -1510h-114zM1032 229l484 660h94v-580h178v-84h-178v-225h-99v225h-477zM1196 313l2 -4h313v203q0 155 2 233l-4 3q-56 -82 -133 -189z" />
<glyph unicode="&#xbd;" horiz-adv-x="1949" d="M123 1290v94l319 121v-903h-98v772zM375 -27l983 1510h115l-984 -1510h-114zM1202 4l305 342q154 170 154 293q0 83 -52.5 127.5t-135.5 44.5q-104 0 -205 -70v103q93 59 211 59q127 0 205.5 -69.5t78.5 -190.5q0 -149 -157 -328l-193 -219l2 -4h385v-92h-596z" />
<glyph unicode="&#xbe;" horiz-adv-x="1957" d="M119 662v108q124 -90 252 -90q88 0 145 45.5t57 120.5q0 73 -54.5 116.5t-156.5 43.5h-88v84h80q88 0 140.5 45.5t52.5 117.5q0 73 -53 116.5t-140 43.5q-95 0 -180 -53v98q83 47 191 47q124 0 204 -67t80 -172q0 -68 -36.5 -125.5t-106.5 -79.5v-4q86 -23 127 -82.5 t41 -132.5q0 -112 -85 -183t-220 -71q-142 0 -250 74zM438 -27l983 1510h115l-983 -1510h-115zM1096 229l483 660h94v-580h178v-84h-178v-225h-98v225h-477zM1260 313l2 -4h313v203q0 155 2 233l-4 3q-56 -82 -133 -189z" />
<glyph unicode="&#xbf;" horiz-adv-x="954" d="M111 -63q0 122 61 220t162.5 155t226.5 69l-16 242h112l39 -338q-202 0 -331 -91t-129 -251q0 -139 96 -231.5t241 -92.5q140 0 265 80l12 -123q-127 -74 -283 -74q-194 0 -325 125.5t-131 309.5zM471 930q0 41 29.5 70.5t70.5 29.5t71 -29.5t30 -70.5t-30 -71t-71 -30 t-70.5 30t-29.5 71z" />
<glyph unicode="&#xc0;" horiz-adv-x="1400" d="M23 0l616 1483h119l620 -1483h-135l-182 442h-727l-182 -442h-129zM381 557h633l-150 367q-116 285 -164 407h-4q-24 -62 -164 -405zM496 1964h133l176 -336h-94z" />
<glyph unicode="&#xc1;" horiz-adv-x="1400" d="M23 0l616 1483h119l620 -1483h-135l-182 442h-727l-182 -442h-129zM381 557h633l-150 367q-116 285 -164 407h-4q-24 -62 -164 -405zM596 1628l176 336h133l-215 -336h-94z" />
<glyph unicode="&#xc2;" horiz-adv-x="1400" d="M23 0l616 1483h119l620 -1483h-135l-182 442h-727l-182 -442h-129zM381 557h633l-150 367q-116 285 -164 407h-4q-24 -62 -164 -405zM399 1628l238 336h127l237 -336h-102l-199 256l-198 -256h-103z" />
<glyph unicode="&#xc3;" horiz-adv-x="1400" d="M23 0l616 1483h119l620 -1483h-135l-182 442h-727l-182 -442h-129zM381 557h633l-150 367q-116 285 -164 407h-4q-24 -62 -164 -405zM389 1702v115q61 90 162 90q65 0 162 -56q32 -19 48.5 -28.5t40.5 -17t46 -7.5q89 0 160 107l4 -2v-115q-61 -90 -162 -90 q-72 0 -162 55q-32 19 -48.5 28.5t-40.5 17t-46 7.5q-90 0 -160 -106z" />
<glyph unicode="&#xc4;" horiz-adv-x="1400" d="M23 0l616 1483h119l620 -1483h-135l-182 442h-727l-182 -442h-129zM381 557h633l-150 367q-116 285 -164 407h-4q-24 -62 -164 -405zM428 1796q0 35 24.5 59.5t59.5 24.5t59.5 -24.5t24.5 -59.5t-24.5 -59.5t-59.5 -24.5t-59.5 24.5t-24.5 59.5zM805 1796q0 35 24.5 59.5 t59.5 24.5t59.5 -24.5t24.5 -59.5t-24.5 -59.5t-59.5 -24.5t-59.5 24.5t-24.5 59.5z" />
<glyph unicode="&#xc5;" horiz-adv-x="1400" d="M23 0l616 1483h119l620 -1483h-135l-182 442h-727l-182 -442h-129zM381 557h633l-150 367q-116 285 -164 407h-4q-24 -62 -164 -405zM471 1837q0 97 65.5 162t163.5 65t164 -65t66 -162t-66 -162t-164 -65t-163.5 65t-65.5 162zM549 1837q0 -65 42 -109.5t109 -44.5 t109.5 44.5t42.5 109.5t-42.5 109.5t-109.5 44.5t-109 -44.5t-42 -109.5z" />
<glyph unicode="&#xc6;" horiz-adv-x="1896" d="M16 0l883 1483h873v-115h-676v-541h596v-114h-596v-598h694v-115h-819v444h-553l-264 -444h-138zM483 555h488v453q0 245 2 368h-4q-102 -176 -201 -342z" />
<glyph unicode="&#xc7;" horiz-adv-x="1400" d="M98 739q0 157 55.5 297.5t154.5 244t245 164t317 60.5q208 0 398 -94v-139q-177 117 -398 117q-189 0 -338 -86.5t-229 -234t-80 -327.5q0 -135 47.5 -253.5t132 -205.5t208 -137.5t268.5 -50.5q231 0 415 129v-139q-179 -107 -422 -107q-22 0 -43 3l-24 -82 q188 -38 188 -179q0 -77 -54 -124.5t-144 -47.5q-80 0 -156 37l23 74q72 -37 133 -37q48 0 80 25t32 67q0 106 -192 121l45 152q-295 37 -478.5 246.5t-183.5 506.5z" />
<glyph unicode="&#xc8;" horiz-adv-x="1130" d="M184 0v1483h822v-115h-697v-541h617v-114h-617v-598h715v-115h-840zM389 1964h133l176 -336h-94z" />
<glyph unicode="&#xc9;" horiz-adv-x="1130" d="M184 0v1483h822v-115h-697v-541h617v-114h-617v-598h715v-115h-840zM489 1628l177 336h133l-215 -336h-95z" />
<glyph unicode="&#xca;" horiz-adv-x="1130" d="M184 0v1483h822v-115h-697v-541h617v-114h-617v-598h715v-115h-840zM293 1628l237 336h127l238 -336h-102l-199 256l-199 -256h-102z" />
<glyph unicode="&#xcb;" horiz-adv-x="1130" d="M184 0v1483h822v-115h-697v-541h617v-114h-617v-598h715v-115h-840zM322 1796q0 35 24.5 59.5t59.5 24.5t59 -24.5t24 -59.5t-24 -59.5t-59 -24.5t-59.5 24.5t-24.5 59.5zM698 1796q0 35 24.5 59.5t59.5 24.5t59.5 -24.5t24.5 -59.5t-24.5 -59.5t-59.5 -24.5t-59.5 24.5 t-24.5 59.5z" />
<glyph unicode="&#xcc;" horiz-adv-x="493" d="M41 1964h133l176 -336h-94zM184 0v1483h125v-1483h-125z" />
<glyph unicode="&#xcd;" horiz-adv-x="493" d="M141 1628l176 336h134l-215 -336h-95zM184 0v1483h125v-1483h-125z" />
<glyph unicode="&#xce;" horiz-adv-x="493" d="M-55 1628l237 336h127l238 -336h-103l-198 256l-199 -256h-102zM184 0v1483h125v-1483h-125z" />
<glyph unicode="&#xcf;" horiz-adv-x="493" d="M-27 1796q0 35 24.5 59.5t59.5 24.5t59.5 -24.5t24.5 -59.5t-24.5 -59.5t-59.5 -24.5t-59.5 24.5t-24.5 59.5zM184 0v1483h125v-1483h-125zM350 1796q0 35 24.5 59.5t59.5 24.5t59.5 -24.5t24.5 -59.5t-24.5 -59.5t-59.5 -24.5t-59.5 24.5t-24.5 59.5z" />
<glyph unicode="&#xd0;" horiz-adv-x="1527" d="M10 705v104h193v674h379q352 0 565 -152q136 -98 213.5 -252t77.5 -334q0 -173 -70 -319.5t-186 -243.5q-110 -92 -262.5 -137t-364.5 -45h-352v705h-193zM328 115h243q339 0 521 147q103 83 162 208t59 271q0 153 -64 281.5t-172 210.5q-178 135 -508 135h-241v-559h350 v-104h-350v-590z" />
<glyph unicode="&#xd1;" horiz-adv-x="1566" d="M184 0v1483h119l678 -903q165 -221 279 -377l4 2q-2 143 -2 444v834h120v-1483h-118l-678 903q-165 221 -279 377l-4 -2q2 -143 2 -444v-834h-121zM471 1702v115q61 90 162 90q65 0 162 -56q32 -19 48.5 -28.5t40.5 -17t46 -7.5q89 0 160 107l4 -2v-115q-61 -90 -162 -90 q-72 0 -162 55q-32 19 -48.5 28.5t-40.5 17t-46 7.5q-90 0 -160 -106z" />
<glyph unicode="&#xd2;" horiz-adv-x="1687" d="M96 741q0 211 97.5 386.5t269.5 276.5t381 101q157 0 296 -59.5t237.5 -161.5t156 -243.5t57.5 -299.5t-57.5 -299.5t-156 -243.5t-237.5 -161.5t-296 -59.5q-209 0 -381 101t-269.5 276.5t-97.5 386.5zM221 741q0 -178 80 -326t223 -234.5t320 -86.5q176 0 319.5 86.5 t223 234.5t79.5 326t-79.5 326.5t-223 235t-319.5 86.5t-319.5 -86.5t-223.5 -235t-80 -326.5zM639 1964h133l176 -336h-94z" />
<glyph unicode="&#xd3;" horiz-adv-x="1687" d="M96 741q0 211 97.5 386.5t269.5 276.5t381 101q157 0 296 -59.5t237.5 -161.5t156 -243.5t57.5 -299.5t-57.5 -299.5t-156 -243.5t-237.5 -161.5t-296 -59.5q-209 0 -381 101t-269.5 276.5t-97.5 386.5zM221 741q0 -178 80 -326t223 -234.5t320 -86.5q176 0 319.5 86.5 t223 234.5t79.5 326t-79.5 326.5t-223 235t-319.5 86.5t-319.5 -86.5t-223.5 -235t-80 -326.5zM739 1628l176 336h134l-215 -336h-95z" />
<glyph unicode="&#xd4;" horiz-adv-x="1687" d="M96 741q0 211 97.5 386.5t269.5 276.5t381 101q157 0 296 -59.5t237.5 -161.5t156 -243.5t57.5 -299.5t-57.5 -299.5t-156 -243.5t-237.5 -161.5t-296 -59.5q-209 0 -381 101t-269.5 276.5t-97.5 386.5zM221 741q0 -178 80 -326t223 -234.5t320 -86.5q176 0 319.5 86.5 t223 234.5t79.5 326t-79.5 326.5t-223 235t-319.5 86.5t-319.5 -86.5t-223.5 -235t-80 -326.5zM543 1628l237 336h127l238 -336h-103l-198 256l-199 -256h-102z" />
<glyph unicode="&#xd5;" horiz-adv-x="1687" d="M96 741q0 211 97.5 386.5t269.5 276.5t381 101q157 0 296 -59.5t237.5 -161.5t156 -243.5t57.5 -299.5t-57.5 -299.5t-156 -243.5t-237.5 -161.5t-296 -59.5q-209 0 -381 101t-269.5 276.5t-97.5 386.5zM221 741q0 -178 80 -326t223 -234.5t320 -86.5q176 0 319.5 86.5 t223 234.5t79.5 326t-79.5 326.5t-223 235t-319.5 86.5t-319.5 -86.5t-223.5 -235t-80 -326.5zM532 1702v115q61 90 162 90q65 0 162 -56q32 -19 48.5 -28.5t40.5 -17t46 -7.5q89 0 160 107l4 -2v-115q-61 -90 -162 -90q-72 0 -162 55q-32 19 -48.5 28.5t-40.5 17t-46 7.5 q-89 0 -159 -106z" />
<glyph unicode="&#xd6;" horiz-adv-x="1687" d="M96 741q0 211 97.5 386.5t269.5 276.5t381 101q157 0 296 -59.5t237.5 -161.5t156 -243.5t57.5 -299.5t-57.5 -299.5t-156 -243.5t-237.5 -161.5t-296 -59.5q-209 0 -381 101t-269.5 276.5t-97.5 386.5zM221 741q0 -178 80 -326t223 -234.5t320 -86.5q176 0 319.5 86.5 t223 234.5t79.5 326t-79.5 326.5t-223 235t-319.5 86.5t-319.5 -86.5t-223.5 -235t-80 -326.5zM571 1796q0 35 24.5 59.5t59.5 24.5t59.5 -24.5t24.5 -59.5t-24.5 -59.5t-59.5 -24.5t-59.5 24.5t-24.5 59.5zM948 1796q0 35 24.5 59.5t59.5 24.5t59.5 -24.5t24.5 -59.5 t-24.5 -59.5t-59.5 -24.5t-59.5 24.5t-24.5 59.5z" />
<glyph unicode="&#xd7;" horiz-adv-x="1193" d="M182 393l346 348l-346 349l68 67l346 -348l348 348l68 -67l-348 -349l348 -348l-68 -67l-348 348l-346 -348z" />
<glyph unicode="&#xd8;" horiz-adv-x="1687" d="M96 741q0 211 97.5 386.5t269.5 276.5t381 101q254 0 452 -149l129 153l80 -67l-131 -156q103 -104 160 -245t57 -300q0 -158 -57.5 -299.5t-156 -243.5t-237.5 -161.5t-296 -59.5q-254 0 -453 150l-129 -154l-80 68l131 156q-103 104 -160 244.5t-57 299.5zM221 741 q0 -130 44.5 -246.5t125.5 -205.5l828 977q-161 123 -375 123q-176 0 -319.5 -86.5t-223.5 -235t-80 -326.5zM469 217q161 -123 375 -123q176 0 319.5 86.5t223 234.5t79.5 326q0 130 -44.5 247t-125.5 206z" />
<glyph unicode="&#xd9;" horiz-adv-x="1480" d="M166 705v778h125v-768q0 -175 23 -288t79 -185q114 -148 352 -148q132 0 224.5 46t144.5 128q45 72 62.5 176.5t17.5 266.5v772h121v-766q0 -190 -22.5 -311.5t-82.5 -212.5q-70 -104 -189.5 -160t-281.5 -56q-296 0 -444 187q-73 92 -101 221t-28 320zM537 1964h133 l176 -336h-94z" />
<glyph unicode="&#xda;" horiz-adv-x="1480" d="M166 705v778h125v-768q0 -175 23 -288t79 -185q114 -148 352 -148q132 0 224.5 46t144.5 128q45 72 62.5 176.5t17.5 266.5v772h121v-766q0 -190 -22.5 -311.5t-82.5 -212.5q-70 -104 -189.5 -160t-281.5 -56q-296 0 -444 187q-73 92 -101 221t-28 320zM637 1628l176 336 h133l-215 -336h-94z" />
<glyph unicode="&#xdb;" horiz-adv-x="1480" d="M166 705v778h125v-768q0 -175 23 -288t79 -185q114 -148 352 -148q132 0 224.5 46t144.5 128q45 72 62.5 176.5t17.5 266.5v772h121v-766q0 -190 -22.5 -311.5t-82.5 -212.5q-70 -104 -189.5 -160t-281.5 -56q-296 0 -444 187q-73 92 -101 221t-28 320zM440 1628l238 336 h127l237 -336h-102l-199 256l-198 -256h-103z" />
<glyph unicode="&#xdc;" horiz-adv-x="1480" d="M166 705v778h125v-768q0 -175 23 -288t79 -185q114 -148 352 -148q132 0 224.5 46t144.5 128q45 72 62.5 176.5t17.5 266.5v772h121v-766q0 -190 -22.5 -311.5t-82.5 -212.5q-70 -104 -189.5 -160t-281.5 -56q-296 0 -444 187q-73 92 -101 221t-28 320zM469 1796 q0 35 24.5 59.5t59.5 24.5t59.5 -24.5t24.5 -59.5t-24.5 -59.5t-59.5 -24.5t-59.5 24.5t-24.5 59.5zM846 1796q0 35 24.5 59.5t59.5 24.5t59.5 -24.5t24.5 -59.5t-24.5 -59.5t-59.5 -24.5t-59.5 24.5t-24.5 59.5z" />
<glyph unicode="&#xdd;" horiz-adv-x="1318" d="M25 1483h145l238 -338q95 -135 251 -363h5q124 182 251 363l238 338h141l-571 -811v-672h-125v670zM559 1628l176 336h133l-215 -336h-94z" />
<glyph unicode="&#xde;" horiz-adv-x="1263" d="M184 0v1483h125v-305h262q147 0 251 -22t184 -73q180 -119 180 -338q0 -109 -46 -195t-128 -142q-79 -53 -190 -74t-273 -21h-240v-313h-125zM309 424h254q143 0 229.5 17t145.5 59q121 84 121 243q0 162 -131 246q-63 40 -148 57t-217 17h-254v-639z" />
<glyph unicode="&#xdf;" horiz-adv-x="1259" d="M178 0v1210q0 186 109 281q110 96 313 96q204 0 315 -94q107 -91 107 -268q0 -100 -33 -197q-153 -8 -248 -43q-70 -26 -107.5 -67t-37.5 -113q0 -34 10.5 -59.5t26 -43.5t51 -37t68.5 -32t96 -35q42 -15 68.5 -25t63.5 -27.5t60 -33.5t49 -40t40.5 -50.5t24 -62 t9.5 -76.5q0 -143 -100.5 -223t-261.5 -80q-87 0 -172 22.5t-142 58.5v140q68 -54 156 -83.5t168 -29.5q101 0 165 49.5t64 141.5q0 27 -6.5 49t-15.5 38.5t-30 33t-38 27.5t-51.5 25.5t-59.5 23.5t-73 26q-54 19 -91.5 35t-78 41.5t-65 54t-40.5 70t-16 92.5q0 89 44 156 t122 106q97 49 252 65q10 45 10 99q0 122 -74 190q-72 66 -229 66q-155 0 -229 -68q-72 -69 -72 -201v-1208h-121z" />
<glyph unicode="&#xe0;" horiz-adv-x="1083" d="M104 264q0 151 127 234q104 67 277 67q125 0 260 -37v117q0 75 -17 125t-57 86q-73 64 -207 64q-171 0 -309 -99v121q145 90 322 90q181 0 286 -88q103 -86 103 -270v-436q0 -72 22.5 -111t79.5 -39q37 0 66 16v-104q-37 -16 -88 -16q-66 0 -114 30t-69 88h-4 q-62 -54 -150.5 -89.5t-185.5 -35.5q-143 0 -237 70q-105 78 -105 217zM227 274q0 -93 68 -140.5t168 -47.5q83 0 163 32t142 87v227q-125 37 -250 37q-57 0 -106.5 -10t-92 -31t-67.5 -60.5t-25 -93.5zM330 1489h133l176 -336h-94z" />
<glyph unicode="&#xe1;" horiz-adv-x="1083" d="M104 264q0 151 127 234q104 67 277 67q125 0 260 -37v117q0 75 -17 125t-57 86q-73 64 -207 64q-171 0 -309 -99v121q145 90 322 90q181 0 286 -88q103 -86 103 -270v-436q0 -72 22.5 -111t79.5 -39q37 0 66 16v-104q-37 -16 -88 -16q-66 0 -114 30t-69 88h-4 q-62 -54 -150.5 -89.5t-185.5 -35.5q-143 0 -237 70q-105 78 -105 217zM227 274q0 -93 68 -140.5t168 -47.5q83 0 163 32t142 87v227q-125 37 -250 37q-57 0 -106.5 -10t-92 -31t-67.5 -60.5t-25 -93.5zM430 1153l176 336h133l-215 -336h-94z" />
<glyph unicode="&#xe2;" horiz-adv-x="1083" d="M104 264q0 151 127 234q104 67 277 67q125 0 260 -37v117q0 75 -17 125t-57 86q-73 64 -207 64q-171 0 -309 -99v121q145 90 322 90q181 0 286 -88q103 -86 103 -270v-436q0 -72 22.5 -111t79.5 -39q37 0 66 16v-104q-37 -16 -88 -16q-66 0 -114 30t-69 88h-4 q-62 -54 -150.5 -89.5t-185.5 -35.5q-143 0 -237 70q-105 78 -105 217zM227 274q0 -93 68 -140.5t168 -47.5q83 0 163 32t142 87v227q-125 37 -250 37q-57 0 -106.5 -10t-92 -31t-67.5 -60.5t-25 -93.5zM233 1153l238 336h127l238 -336h-103l-198 256l-199 -256h-103z" />
<glyph unicode="&#xe3;" horiz-adv-x="1083" d="M104 264q0 151 127 234q104 67 277 67q125 0 260 -37v117q0 75 -17 125t-57 86q-73 64 -207 64q-171 0 -309 -99v121q145 90 322 90q181 0 286 -88q103 -86 103 -270v-436q0 -72 22.5 -111t79.5 -39q37 0 66 16v-104q-37 -16 -88 -16q-66 0 -114 30t-69 88h-4 q-62 -54 -150.5 -89.5t-185.5 -35.5q-143 0 -237 70q-105 78 -105 217zM223 1227v114q27 40 69 65.5t93 25.5q65 0 162 -56q32 -19 48.5 -28.5t40.5 -17t46 -7.5q89 0 160 107l4 -3v-114q-61 -90 -162 -90q-72 0 -162 55q-32 19 -48.5 28.5t-40.5 17t-46 7.5 q-90 0 -160 -106zM227 274q0 -93 68 -140.5t168 -47.5q83 0 163 32t142 87v227q-125 37 -250 37q-57 0 -106.5 -10t-92 -31t-67.5 -60.5t-25 -93.5z" />
<glyph unicode="&#xe4;" horiz-adv-x="1083" d="M104 264q0 151 127 234q104 67 277 67q125 0 260 -37v117q0 75 -17 125t-57 86q-73 64 -207 64q-171 0 -309 -99v121q145 90 322 90q181 0 286 -88q103 -86 103 -270v-436q0 -72 22.5 -111t79.5 -39q37 0 66 16v-104q-37 -16 -88 -16q-66 0 -114 30t-69 88h-4 q-62 -54 -150.5 -89.5t-185.5 -35.5q-143 0 -237 70q-105 78 -105 217zM227 274q0 -93 68 -140.5t168 -47.5q83 0 163 32t142 87v227q-125 37 -250 37q-57 0 -106.5 -10t-92 -31t-67.5 -60.5t-25 -93.5zM262 1321q0 35 24.5 59.5t59.5 24.5t59.5 -24.5t24.5 -59.5 t-24.5 -59.5t-59.5 -24.5t-59.5 24.5t-24.5 59.5zM639 1321q0 35 24.5 59.5t59.5 24.5t59.5 -24.5t24.5 -59.5t-24.5 -59.5t-59.5 -24.5t-59.5 24.5t-24.5 59.5z" />
<glyph unicode="&#xe5;" horiz-adv-x="1083" d="M104 264q0 151 127 234q104 67 277 67q125 0 260 -37v117q0 75 -17 125t-57 86q-73 64 -207 64q-171 0 -309 -99v121q145 90 322 90q181 0 286 -88q103 -86 103 -270v-436q0 -72 22.5 -111t79.5 -39q37 0 66 16v-104q-37 -16 -88 -16q-66 0 -114 30t-69 88h-4 q-62 -54 -150.5 -89.5t-185.5 -35.5q-143 0 -237 70q-105 78 -105 217zM227 274q0 -93 68 -140.5t168 -47.5q83 0 163 32t142 87v227q-125 37 -250 37q-57 0 -106.5 -10t-92 -31t-67.5 -60.5t-25 -93.5zM305 1362q0 97 66 162t164 65t163.5 -65t65.5 -162t-65.5 -162 t-163.5 -65t-164 65t-66 162zM383 1362q0 -65 42.5 -109.5t109.5 -44.5t109 44.5t42 109.5t-42 109.5t-109 44.5t-109.5 -44.5t-42.5 -109.5z" />
<glyph unicode="&#xe6;" horiz-adv-x="1796" d="M104 264q0 153 125 234q102 67 279 67q114 0 246 -33v113q0 75 -16.5 125t-55.5 86q-73 64 -203 64q-167 0 -301 -99v119q141 90 314 90q126 0 224 -49.5t134 -159.5h4q62 97 166 153t227 56q187 0 313 -128t126 -345q0 -29 -5 -86h-807q13 -176 128.5 -280.5 t291.5 -104.5q177 0 332 117v-131q-69 -43 -160 -69t-182 -26q-117 0 -231 47.5t-191 145.5q-193 -193 -416 -193q-145 0 -235 70q-107 77 -107 217zM225 272q0 -92 68.5 -139t167.5 -47q101 0 192.5 43.5t161.5 116.5q-44 86 -55 186q-122 37 -242 37q-57 0 -106.5 -10 t-93 -32t-68.5 -61.5t-25 -93.5zM874 571h695q0 110 -48 191.5t-121 120.5t-157 39q-135 0 -243 -93.5t-126 -257.5z" />
<glyph unicode="&#xe7;" horiz-adv-x="1052" d="M102 500q0 229 154 379.5t389 150.5q148 0 275 -65v-127q-133 82 -279 82q-185 0 -301.5 -119.5t-116.5 -300.5t117.5 -296.5t300.5 -115.5q171 0 295 96v-131q-130 -76 -299 -76l-25 -79q189 -38 189 -179q0 -77 -54.5 -124.5t-144.5 -47.5q-80 0 -156 37l23 74 q72 -37 133 -37q49 0 81 25t32 67q0 106 -193 121l43 148q-205 22 -334 166.5t-129 351.5z" />
<glyph unicode="&#xe8;" horiz-adv-x="1159" d="M104 504q0 114 39.5 213t107 167t159 107t192.5 39q190 0 318.5 -128t128.5 -345q0 -23 -5 -86h-821q15 -177 131.5 -281t296.5 -104t338 117v-131q-70 -44 -162 -69.5t-184 -25.5q-153 0 -276 66t-193 186.5t-70 274.5zM227 571h703q-2 78 -24 140t-56 100.5t-78.5 64.5 t-87.5 36t-86 10q-134 0 -240.5 -92.5t-130.5 -258.5zM385 1489h133l176 -336h-94z" />
<glyph unicode="&#xe9;" horiz-adv-x="1159" d="M104 504q0 114 39.5 213t107 167t159 107t192.5 39q190 0 318.5 -128t128.5 -345q0 -23 -5 -86h-821q15 -177 131.5 -281t296.5 -104t338 117v-131q-70 -44 -162 -69.5t-184 -25.5q-153 0 -276 66t-193 186.5t-70 274.5zM227 571h703q-2 78 -24 140t-56 100.5t-78.5 64.5 t-87.5 36t-86 10q-134 0 -240.5 -92.5t-130.5 -258.5zM485 1153l177 336h133l-215 -336h-95z" />
<glyph unicode="&#xea;" horiz-adv-x="1159" d="M104 504q0 114 39.5 213t107 167t159 107t192.5 39q190 0 318.5 -128t128.5 -345q0 -23 -5 -86h-821q15 -177 131.5 -281t296.5 -104t338 117v-131q-70 -44 -162 -69.5t-184 -25.5q-153 0 -276 66t-193 186.5t-70 274.5zM227 571h703q-2 78 -24 140t-56 100.5t-78.5 64.5 t-87.5 36t-86 10q-134 0 -240.5 -92.5t-130.5 -258.5zM289 1153l237 336h127l238 -336h-103l-198 256l-199 -256h-102z" />
<glyph unicode="&#xeb;" horiz-adv-x="1159" d="M104 504q0 114 39.5 213t107 167t159 107t192.5 39q190 0 318.5 -128t128.5 -345q0 -23 -5 -86h-821q15 -177 131.5 -281t296.5 -104t338 117v-131q-70 -44 -162 -69.5t-184 -25.5q-153 0 -276 66t-193 186.5t-70 274.5zM227 571h703q-2 78 -24 140t-56 100.5t-78.5 64.5 t-87.5 36t-86 10q-134 0 -240.5 -92.5t-130.5 -258.5zM317 1321q0 35 24.5 59.5t59.5 24.5t59.5 -24.5t24.5 -59.5t-24.5 -59.5t-59.5 -24.5t-59.5 24.5t-24.5 59.5zM694 1321q0 35 24.5 59.5t59.5 24.5t59.5 -24.5t24.5 -59.5t-24.5 -59.5t-59.5 -24.5t-59.5 24.5 t-24.5 59.5z" />
<glyph unicode="&#xec;" horiz-adv-x="477" d="M33 1489h133l176 -336h-94zM178 0v1008h121v-1008h-121z" />
<glyph unicode="&#xed;" horiz-adv-x="477" d="M133 1153l176 336h133l-215 -336h-94zM178 0v1008h121v-1008h-121z" />
<glyph unicode="&#xee;" horiz-adv-x="477" d="M-63 1153l237 336h127l238 -336h-103l-198 256l-199 -256h-102zM178 0v1008h121v-1008h-121z" />
<glyph unicode="&#xef;" horiz-adv-x="477" d="M-35 1321q0 35 24.5 59.5t59.5 24.5t59.5 -24.5t24.5 -59.5t-24.5 -59.5t-59.5 -24.5t-59.5 24.5t-24.5 59.5zM178 0v1008h121v-1008h-121zM342 1321q0 35 24.5 59.5t59.5 24.5t59.5 -24.5t24.5 -59.5t-24.5 -59.5t-59.5 -24.5t-59.5 24.5t-24.5 59.5z" />
<glyph unicode="&#xf0;" horiz-adv-x="1193" d="M88 485q0 220 139.5 363t360.5 143q193 0 323 -123l4 2q-88 205 -258 367l-315 -119l-23 94l254 97q-105 83 -239 145l72 82q162 -78 284 -182l205 78l25 -95l-150 -57q163 -165 248.5 -367t85.5 -393q0 -133 -41.5 -238.5t-113 -171t-162.5 -99.5t-195 -34 q-222 0 -363 144t-141 364zM209 489q0 -174 107.5 -287.5t279.5 -113.5q176 0 282.5 119t106.5 291q0 91 -32 166t-87 123t-125.5 74t-148.5 26q-169 0 -276 -112.5t-107 -285.5z" />
<glyph unicode="&#xf1;" d="M178 0v1008h121v-142l4 -2q180 166 387 166q162 0 258 -102q47 -51 68.5 -121t21.5 -180v-627h-120v604q0 172 -64 242q-66 72 -188 72q-99 0 -194 -49.5t-173 -131.5v-737h-121zM295 1227v114q27 40 69 65.5t93 25.5q64 0 161 -56q46 -28 75 -40.5t61 -12.5 q88 0 159 107l5 -3v-114q-61 -90 -162 -90q-72 0 -162 55q-32 19 -48.5 28.5t-40.5 17t-46 7.5q-90 0 -160 -106z" />
<glyph unicode="&#xf2;" horiz-adv-x="1249" d="M102 504q0 147 67.5 267.5t187.5 189.5t268 69q111 0 208.5 -40.5t166 -110.5t108 -167.5t39.5 -207.5q0 -147 -67 -267.5t-187 -190t-268 -69.5t-268 69.5t-187.5 190t-67.5 267.5zM223 504q0 -178 115 -297t287 -119t286.5 119t114.5 297t-114.5 297t-286.5 119 t-287 -119t-115 -297zM420 1489h133l176 -336h-94z" />
<glyph unicode="&#xf3;" horiz-adv-x="1249" d="M102 504q0 147 67.5 267.5t187.5 189.5t268 69q111 0 208.5 -40.5t166 -110.5t108 -167.5t39.5 -207.5q0 -147 -67 -267.5t-187 -190t-268 -69.5t-268 69.5t-187.5 190t-67.5 267.5zM223 504q0 -178 115 -297t287 -119t286.5 119t114.5 297t-114.5 297t-286.5 119 t-287 -119t-115 -297zM520 1153l176 336h133l-215 -336h-94z" />
<glyph unicode="&#xf4;" horiz-adv-x="1249" d="M102 504q0 147 67.5 267.5t187.5 189.5t268 69q111 0 208.5 -40.5t166 -110.5t108 -167.5t39.5 -207.5q0 -147 -67 -267.5t-187 -190t-268 -69.5t-268 69.5t-187.5 190t-67.5 267.5zM223 504q0 -178 115 -297t287 -119t286.5 119t114.5 297t-114.5 297t-286.5 119 t-287 -119t-115 -297zM324 1153l237 336h127l238 -336h-103l-198 256l-199 -256h-102z" />
<glyph unicode="&#xf5;" horiz-adv-x="1249" d="M102 504q0 147 67.5 267.5t187.5 189.5t268 69q111 0 208.5 -40.5t166 -110.5t108 -167.5t39.5 -207.5q0 -147 -67 -267.5t-187 -190t-268 -69.5t-268 69.5t-187.5 190t-67.5 267.5zM223 504q0 -178 115 -297t287 -119t286.5 119t114.5 297t-114.5 297t-286.5 119 t-287 -119t-115 -297zM313 1227v114q27 40 69 65.5t93 25.5q65 0 162 -56q32 -19 48.5 -28.5t40.5 -17t46 -7.5q89 0 160 107l4 -3v-114q-61 -90 -162 -90q-72 0 -162 55q-32 19 -48.5 28.5t-40.5 17t-46 7.5q-90 0 -160 -106z" />
<glyph unicode="&#xf6;" horiz-adv-x="1249" d="M102 504q0 147 67.5 267.5t187.5 189.5t268 69q111 0 208.5 -40.5t166 -110.5t108 -167.5t39.5 -207.5q0 -147 -67 -267.5t-187 -190t-268 -69.5t-268 69.5t-187.5 190t-67.5 267.5zM223 504q0 -178 115 -297t287 -119t286.5 119t114.5 297t-114.5 297t-286.5 119 t-287 -119t-115 -297zM352 1321q0 35 24.5 59.5t59.5 24.5t59.5 -24.5t24.5 -59.5t-24.5 -59.5t-59.5 -24.5t-59.5 24.5t-24.5 59.5zM729 1321q0 35 24.5 59.5t59.5 24.5t59.5 -24.5t24.5 -59.5t-24.5 -59.5t-59.5 -24.5t-59.5 24.5t-24.5 59.5z" />
<glyph unicode="&#xf7;" horiz-adv-x="1193" d="M111 692v99h974v-99h-974zM506 295q0 38 27 65t65 27t65 -27t27 -65t-27 -65t-65 -27t-65 27t-27 65zM506 1190q0 38 27 65t65 27t65 -27t27 -65t-27 -65t-65 -27t-65 27t-27 65z" />
<glyph unicode="&#xf8;" horiz-adv-x="1249" d="M102 504q0 147 67.5 267.5t187.5 189.5t268 69q175 0 307 -96l94 110l70 -57l-95 -110q69 -72 107.5 -169t38.5 -204q0 -147 -67 -267.5t-187 -190t-268 -69.5q-174 0 -308 97l-94 -111l-69 57l94 111q-69 72 -107.5 169t-38.5 204zM223 504q0 -162 103 -283l532 627 q-101 72 -233 72q-172 0 -287 -119t-115 -297zM391 160q101 -72 234 -72q172 0 286.5 119t114.5 297q0 162 -102 282z" />
<glyph unicode="&#xf9;" d="M174 399v609h121v-586q0 -187 63 -258q67 -76 191 -76q189 0 364 186v734h121v-1008h-121v143l-4 2q-175 -168 -383 -168q-170 0 -264 107q-46 53 -67 127.5t-21 187.5zM401 1489h134l176 -336h-95z" />
<glyph unicode="&#xfa;" d="M174 399v609h121v-586q0 -187 63 -258q67 -76 191 -76q189 0 364 186v734h121v-1008h-121v143l-4 2q-175 -168 -383 -168q-170 0 -264 107q-46 53 -67 127.5t-21 187.5zM502 1153l176 336h133l-215 -336h-94z" />
<glyph unicode="&#xfb;" d="M174 399v609h121v-586q0 -187 63 -258q67 -76 191 -76q189 0 364 186v734h121v-1008h-121v143l-4 2q-175 -168 -383 -168q-170 0 -264 107q-46 53 -67 127.5t-21 187.5zM305 1153l238 336h127l237 -336h-102l-199 256l-198 -256h-103z" />
<glyph unicode="&#xfc;" d="M174 399v609h121v-586q0 -187 63 -258q67 -76 191 -76q189 0 364 186v734h121v-1008h-121v143l-4 2q-175 -168 -383 -168q-170 0 -264 107q-46 53 -67 127.5t-21 187.5zM334 1321q0 35 24.5 59.5t59.5 24.5t59.5 -24.5t24.5 -59.5t-24.5 -59.5t-59.5 -24.5t-59.5 24.5 t-24.5 59.5zM711 1321q0 35 24.5 59.5t59.5 24.5t59.5 -24.5t24.5 -59.5t-24.5 -59.5t-59.5 -24.5t-59.5 24.5t-24.5 59.5z" />
<glyph unicode="&#xfd;" horiz-adv-x="1105" d="M61 1008h134l200 -426q113 -241 156 -336h4q45 97 156 334l202 428h127l-696 -1459h-129l272 560zM449 1153l176 336h133l-215 -336h-94z" />
<glyph unicode="&#xfe;" d="M178 -451v2016h121v-645l4 -2q148 112 320 112q208 0 346.5 -146.5t138.5 -373.5q0 -232 -145 -382.5t-369 -150.5q-146 0 -291 76l-4 -2v-502h-121zM299 174q138 -90 297 -90q176 0 283.5 118.5t107.5 301.5q0 180 -105.5 299t-275.5 119q-174 0 -307 -123v-625z" />
<glyph unicode="&#xff;" horiz-adv-x="1105" d="M61 1008h134l200 -426q113 -241 156 -336h4q45 97 156 334l202 428h127l-696 -1459h-129l272 560zM281 1321q0 35 24.5 59.5t59.5 24.5t59.5 -24.5t24.5 -59.5t-24.5 -59.5t-59.5 -24.5t-59.5 24.5t-24.5 59.5zM657 1321q0 35 24.5 59.5t59.5 24.5t59.5 -24.5t24.5 -59.5 t-24.5 -59.5t-59.5 -24.5t-59.5 24.5t-24.5 59.5z" />
<glyph unicode="&#x152;" horiz-adv-x="1923" d="M96 739q0 172 67.5 317t186.5 244q111 92 262.5 137.5t372.5 45.5h813v-115h-676v-541h596v-114h-596v-598h695v-115h-838q-204 0 -343.5 36.5t-246.5 115.5q-139 102 -216 253t-77 334zM221 739q0 -152 62 -276.5t176 -212.5q96 -73 216 -104t322 -31v1253 q-203 0 -330 -35.5t-225 -113.5q-109 -90 -165 -213.5t-56 -266.5z" />
<glyph unicode="&#x153;" horiz-adv-x="2058" d="M102 502q0 148 67 268.5t186.5 190t267.5 69.5q153 0 270.5 -74t179.5 -200h4q60 125 174 199.5t256 74.5q188 0 314.5 -127.5t126.5 -343.5q0 -53 -6 -88h-805q13 -176 128 -280.5t289 -104.5q179 0 334 117v-131q-69 -44 -160 -69.5t-184 -25.5q-160 0 -284 73 t-183 200h-4q-66 -129 -182 -201t-268 -72q-226 0 -373.5 150.5t-147.5 374.5zM223 506q0 -180 113.5 -299t284.5 -119t284 118.5t113 295.5q0 180 -114 299t-286 119q-170 0 -282.5 -118.5t-112.5 -295.5zM1137 571h694q0 163 -97.5 257t-230.5 94q-136 0 -242.5 -95.5 t-123.5 -255.5z" />
<glyph unicode="&#x178;" horiz-adv-x="1318" d="M25 1483h145l238 -338q95 -135 251 -363h5q124 182 251 363l238 338h141l-571 -811v-672h-125v670zM391 1796q0 35 24.5 59.5t59.5 24.5t59.5 -24.5t24.5 -59.5t-24.5 -59.5t-59.5 -24.5t-59.5 24.5t-24.5 59.5zM768 1796q0 35 24.5 59.5t59.5 24.5t59.5 -24.5 t24.5 -59.5t-24.5 -59.5t-59.5 -24.5t-59.5 24.5t-24.5 59.5z" />
<glyph unicode="&#x2c6;" horiz-adv-x="995" d="M197 1153l237 336h127l238 -336h-103l-198 256l-199 -256h-102z" />
<glyph unicode="&#x2dc;" horiz-adv-x="995" d="M186 1227v114q27 40 69 65.5t93 25.5q65 0 162 -56q32 -19 48.5 -28.5t40.5 -17t46 -7.5q89 0 160 107l4 -3v-114q-61 -90 -162 -90q-72 0 -162 55q-32 19 -48.5 28.5t-40.5 17t-46 7.5q-90 0 -160 -106z" />
<glyph unicode="&#x2000;" horiz-adv-x="1032" />
<glyph unicode="&#x2001;" horiz-adv-x="2064" />
<glyph unicode="&#x2002;" horiz-adv-x="1032" />
<glyph unicode="&#x2003;" horiz-adv-x="2064" />
<glyph unicode="&#x2004;" horiz-adv-x="688" />
<glyph unicode="&#x2005;" horiz-adv-x="516" />
<glyph unicode="&#x2006;" horiz-adv-x="344" />
<glyph unicode="&#x2007;" horiz-adv-x="344" />
<glyph unicode="&#x2008;" horiz-adv-x="258" />
<glyph unicode="&#x2009;" horiz-adv-x="412" />
<glyph unicode="&#x200a;" horiz-adv-x="114" />
<glyph unicode="&#x2010;" horiz-adv-x="733" d="M129 514v107h477v-107h-477z" />
<glyph unicode="&#x2011;" horiz-adv-x="733" d="M129 514v107h477v-107h-477z" />
<glyph unicode="&#x2012;" horiz-adv-x="733" d="M129 514v107h477v-107h-477z" />
<glyph unicode="&#x2013;" horiz-adv-x="1019" d="M109 518v98h802v-98h-802z" />
<glyph unicode="&#x2014;" horiz-adv-x="1617" d="M78 524v88h1462v-88h-1462z" />
<glyph unicode="&#x2018;" horiz-adv-x="548" d="M152 985l153 535h84l-117 -535h-120z" />
<glyph unicode="&#x2019;" horiz-adv-x="548" d="M160 985l116 535h121l-153 -535h-84z" />
<glyph unicode="&#x201a;" horiz-adv-x="548" d="M152 -199l116 535h121l-153 -535h-84z" />
<glyph unicode="&#x201c;" horiz-adv-x="856" d="M152 985l153 535h84l-117 -535h-120zM457 985l153 535h84l-116 -535h-121z" />
<glyph unicode="&#x201d;" horiz-adv-x="856" d="M160 985l116 535h121l-153 -535h-84zM465 985l117 535h120l-153 -535h-84z" />
<glyph unicode="&#x201e;" horiz-adv-x="856" d="M160 -199l116 535h121l-153 -535h-84zM465 -199l117 535h120l-153 -535h-84z" />
<glyph unicode="&#x2022;" horiz-adv-x="796" d="M193 608q0 85 59.5 145t144.5 60t145 -60t60 -145t-60 -145t-145 -60t-144.5 60t-59.5 145z" />
<glyph unicode="&#x2026;" horiz-adv-x="1708" d="M205 80q0 43 29.5 72.5t72.5 29.5t73 -29.5t30 -72.5t-30 -73t-73 -30t-72.5 30t-29.5 73zM752 80q0 43 29.5 72.5t72.5 29.5t72.5 -29.5t29.5 -72.5t-29.5 -73t-72.5 -30t-72.5 30t-29.5 73zM1298 80q0 43 30 72.5t73 29.5t72.5 -29.5t29.5 -72.5t-29.5 -73t-72.5 -30 t-73 30t-30 73z" />
<glyph unicode="&#x202f;" horiz-adv-x="412" />
<glyph unicode="&#x2039;" horiz-adv-x="702" d="M119 504l344 448h110l-344 -448l344 -449h-110z" />
<glyph unicode="&#x203a;" horiz-adv-x="702" d="M129 55l344 449l-344 448h111l344 -448l-344 -449h-111z" />
<glyph unicode="&#x205f;" horiz-adv-x="516" />
<glyph unicode="&#x20ac;" horiz-adv-x="1232" d="M29 532v101h166q-7 61 -7 110q0 65 9 127h-168v99h186q60 245 241.5 390.5t454.5 145.5q112 0 217 -30v-125q-109 39 -223 39q-212 0 -359 -114t-202 -306h463v-99h-485q-9 -61 -9 -127q0 -57 6 -110h488v-101h-467q54 -201 202 -319.5t363 -118.5q139 0 248 45v-125 q-109 -37 -252 -37q-274 0 -454 151.5t-236 403.5h-182z" />
<glyph unicode="&#x2122;" horiz-adv-x="1318" d="M63 1413v70h453v-70h-188v-524h-76v524h-189zM618 889v594h76l207 -299l211 299h76v-594h-76v461l-4 2l-207 -293l-205 297l-4 -2v-465h-74z" />
<glyph unicode="&#x25fc;" horiz-adv-x="1003" d="M0 0v1004h1004v-1004h-1004z" />
</font>
</defs>
</svg>
