<?xml version="1.0" standalone="no"?>
<!DOCTYPE svg PUBLIC "-//W3C//DTD SVG 1.1//EN" "http://www.w3.org/Graphics/SVG/1.1/DTD/svg11.dtd" >
<svg xmlns="http://www.w3.org/2000/svg">
<metadata></metadata>
<defs>
<font id="alright_sanslight" horiz-adv-x="423" >
<font-face units-per-em="2048" ascent="1556" descent="-492" />
<missing-glyph horiz-adv-x="522" />
<glyph unicode="&#xfb01;" horiz-adv-x="1177" d="M51 950v90h195v113q0 214 103.5 308.5t295.5 94.5q199 0 367 -114l-49 -78q-148 100 -314 100q-143 0 -217 -72t-74 -239v-113h301v-90h-301v-950h-112v950h-195zM885 0v1042h112v-1042h-112z" />
<glyph unicode="&#xfb02;" horiz-adv-x="1214" d="M51 950v90h195v121q0 200 106 299t289 99t288 -99t105 -301v-1159h-112v1159q0 154 -74 229.5t-209 75.5q-133 0 -207 -75.5t-74 -229.5v-119h301v-90h-301v-950h-112v950h-195z" />
<glyph unicode="&#xfb03;" horiz-adv-x="1779" d="M51 950v90h195v107q0 399 391 399q164 0 309 -90q97 100 301 100q199 0 367 -114l-49 -78q-70 48 -153.5 74t-160.5 26q-143 0 -216.5 -72t-73.5 -239v-113h301v-90h-301v-950h-113v950h-490v-950h-112v950h-195zM358 1040h490v113q0 144 47 233q-119 68 -252 68 q-139 0 -212 -72t-73 -235v-107zM1487 0v1042h112v-1042h-112z" />
<glyph unicode="&#xfb04;" horiz-adv-x="1816" d="M51 950v90h195v107q0 399 391 399q168 0 311 -92q102 105 295 105q183 0 288 -99t105 -301v-1159h-114v1159q0 154 -73.5 229.5t-207.5 75.5q-133 0 -206.5 -75.5t-73.5 -229.5v-119h301v-90h-301v-950h-113v950h-490v-950h-112v950h-195zM358 1040h490v121q0 133 49 223 q-117 70 -254 70q-139 0 -212 -72t-73 -235v-107z" />
<glyph horiz-adv-x="0" />
<glyph horiz-adv-x="682" />
<glyph unicode=" "  horiz-adv-x="522" />
<glyph unicode="&#x09;" horiz-adv-x="522" />
<glyph unicode="&#xa0;" horiz-adv-x="522" />
<glyph unicode="!" horiz-adv-x="495" d="M184 977v457h125v-457l-30 -563h-64zM186 0v203h123v-203h-123z" />
<glyph unicode="&#x22;" horiz-adv-x="798" d="M147 950v484h132l-60 -488zM524 950v484h131l-59 -488z" />
<glyph unicode="#" horiz-adv-x="1323" d="M76 293v88h284l60 350h-277v88h291l47 279h97l-48 -279h332l47 279h99l-47 -279h284v-88h-299l-59 -350h289v-88h-304l-47 -293h-98l47 293h-330l-47 -293h-98l47 293h-270zM459 381h329l60 350h-332z" />
<glyph unicode="$" horiz-adv-x="1075" d="M111 86l55 84q62 -41 155.5 -69t194.5 -31v442q-39 8 -63.5 14t-61 16t-60 19.5t-53.5 24t-49.5 30t-39.5 37t-31.5 46t-19 56.5t-7.5 68q0 127 100.5 209.5t280.5 89.5v211h76v-213q190 -8 336 -78l-45 -86q-134 62 -295 70v-428q50 -11 81 -18.5t76.5 -22.5t74 -30 t60.5 -39t50 -52t30.5 -68t12.5 -87q0 -130 -97 -212.5t-284 -91.5v-249h-76v247q-236 9 -401 111zM240 827q0 -41 15 -73.5t38 -53.5t62 -38.5t74 -28t87 -21.5v416q-131 -6 -203.5 -61.5t-72.5 -139.5zM584 70q139 7 207.5 62t68.5 144q0 51 -21 89t-63.5 63t-85 39.5 t-106.5 28.5v-426z" />
<glyph unicode="%" horiz-adv-x="1482" d="M115 846q0 115 80.5 194.5t197.5 79.5q118 0 199.5 -79t81.5 -195q0 -118 -81 -197.5t-200 -79.5q-117 0 -197.5 79.5t-80.5 197.5zM197 846q0 -85 57 -143t141 -58q83 0 140 58t57 143q0 83 -57 140.5t-140 57.5q-84 0 -141 -57t-57 -141zM281 0l813 1098h98l-815 -1098 h-96zM809 252q0 117 81 196.5t200 79.5q117 0 197.5 -79.5t80.5 -196.5t-80.5 -196t-197.5 -79q-119 0 -200 79t-81 196zM893 252q0 -83 57 -141t140 -58q84 0 140 57.5t56 141.5q0 85 -56 142t-140 57q-83 0 -140 -57t-57 -142z" />
<glyph unicode="&#x26;" horiz-adv-x="1519" d="M96 393q0 140 85.5 254.5t224.5 190.5q-111 146 -111 288q0 137 100.5 234.5t257.5 97.5q214 0 342 -149l-73 -66q-105 121 -271 121q-110 0 -176.5 -69.5t-66.5 -166.5q0 -131 133 -288q213 -236 551 -492q110 157 110 354h105q0 -227 -133 -415q90 -67 290 -207 l-65 -84q-182 129 -291 209q-101 -107 -237 -168.5t-289 -61.5q-116 0 -210 35t-153.5 93.5t-91 133t-31.5 156.5zM205 399q0 -136 100.5 -230.5t280.5 -94.5q127 0 240.5 50.5t199.5 141.5q-346 267 -563 504q-118 -66 -188 -160t-70 -211z" />
<glyph unicode="'" horiz-adv-x="421" d="M147 950v484h132l-60 -488z" />
<glyph unicode="(" horiz-adv-x="749" d="M129 567q0 543 391 979h131q-83 -84 -152.5 -181.5t-130 -219.5t-94.5 -271t-34 -307t34 -305.5t94.5 -269.5t129.5 -219t153 -183h-131q-391 436 -391 977z" />
<glyph unicode=")" horiz-adv-x="749" d="M98 -410q84 86 153 183t129.5 219t95 269.5t34.5 305.5t-34.5 307t-95 271t-130 219.5t-152.5 181.5h131q392 -437 392 -979q0 -540 -392 -977h-131z" />
<glyph unicode="*" horiz-adv-x="858" d="M100 1075v105l291 -17l2 4l-114 265l94 28l78 -274l4 -2l219 186l59 -80l-241 -153v-4l249 -150l-61 -82l-223 180l-4 -2l-72 -284l-92 30l106 277l-4 4z" />
<glyph unicode="+" horiz-adv-x="1255" d="M104 473v102h469v472h109v-472h469v-102h-469v-473h-109v473h-469z" />
<glyph unicode="," d="M72 -221q64 34 91 86.5t27 134.5h-40v213h124v-190q0 -120 -40.5 -189.5t-129.5 -109.5z" />
<glyph unicode="-" horiz-adv-x="763" d="M96 479v103h574v-103h-574z" />
<glyph unicode="." d="M150 0v213h124v-213h-124z" />
<glyph unicode="/" horiz-adv-x="987" d="M-20 -410l913 1956h117l-914 -1956h-116z" />
<glyph unicode="0" horiz-adv-x="1329" d="M115 549q0 166 74.5 297.5t199.5 202.5t275 71q151 0 275.5 -71t198.5 -202.5t74 -297.5q0 -125 -43 -233t-117 -182t-174.5 -116.5t-213.5 -42.5q-112 0 -212.5 42.5t-175 116.5t-118 182t-43.5 233zM231 549q0 -205 123.5 -340t309.5 -135q188 0 311 135t123 340 t-123 339t-311 134q-186 0 -309.5 -134t-123.5 -339z" />
<glyph unicode="1" horiz-adv-x="839" d="M137 963l324 141h94v-1104h-115v987l-262 -113z" />
<glyph unicode="2" horiz-adv-x="1212" d="M145 0v45q-1 92 33 166.5t91.5 122t131.5 88.5t151 68t151.5 59t132.5 63t93.5 78.5t35.5 106.5q0 109 -94 168t-236 59q-117 0 -229 -46.5t-187 -121.5l-69 76q87 84 218.5 136t264.5 52q193 0 319.5 -85.5t126.5 -235.5q0 -65 -27 -118.5t-73.5 -91t-106.5 -69.5 t-126.5 -57.5l-133 -51t-127.5 -55t-109 -64.5t-77.5 -84.5t-32.5 -109.5h819v-98h-940z" />
<glyph unicode="3" horiz-adv-x="1177" d="M88 938q91 85 213 135.5t250 50.5q219 0 353 -103t134 -263q0 -131 -75.5 -217t-206.5 -119q70 -12 130 -39t108 -68.5t75 -102t27 -134.5q0 -136 -80 -236.5t-212.5 -150t-299.5 -49.5q-230 0 -410 88l43 92q176 -84 365 -84q210 0 344.5 92.5t134.5 251.5 q0 73 -33.5 129.5t-90.5 89.5t-126.5 49.5t-148.5 16.5h-185v94h181q145 0 245.5 76t100.5 217q0 118 -103 195t-274 77q-107 0 -212 -46t-179 -120z" />
<glyph unicode="4" horiz-adv-x="1277" d="M72 100l770 1000h133v-1004h244v-96h-244v-334h-113v334h-753zM195 96h667v881z" />
<glyph unicode="5" horiz-adv-x="1159" d="M104 -268l43 92q168 -86 349 -86q200 0 327 103.5t127 275.5q0 154 -112 249t-297 95q-115 0 -293 -62l-74 47l23 652h782v-94h-680l-16 -508q153 61 282 61q221 0 360.5 -121t139.5 -319q0 -220 -160.5 -348.5t-408.5 -128.5q-225 0 -392 92z" />
<glyph unicode="6" horiz-adv-x="1273" d="M127 670q0 167 34.5 302t93 224.5t138.5 149.5t167 86t183 26q184 0 334 -67l-47 -91q-139 62 -287 62q-78 0 -148.5 -22.5t-135 -74t-112 -128t-75.5 -193t-28 -260.5q76 89 200 147t254 58q204 0 333.5 -123t129.5 -326q0 -92 -33.5 -175.5t-95 -148.5t-156 -103 t-208.5 -38q-141 0 -247 54.5t-169 151.5t-94 219.5t-31 269.5zM246 586q7 -113 35 -204.5t78.5 -162t129.5 -109t181 -38.5q173 0 276 108t103 260q0 160 -102 258.5t-263 98.5q-128 0 -251.5 -61t-186.5 -150z" />
<glyph unicode="7" horiz-adv-x="1169" d="M94 999v99h975v-82l-616 -1352h-125l620 1335h-854z" />
<glyph unicode="8" horiz-adv-x="1329" d="M117 367q0 76 31 140.5t85.5 110.5t124 78t152.5 49q-144 31 -235 119t-91 217q0 170 136.5 273.5t345.5 103.5t344 -103t135 -274q0 -129 -90.5 -217t-233.5 -119q172 -36 281.5 -133t109.5 -245q0 -182 -152 -287t-394 -105q-243 0 -396 105t-153 287zM231 369 q0 -137 122 -218t313 -81q190 0 311 81t121 218q0 71 -35.5 129.5t-96.5 97.5t-137 63.5t-163 34.5q-88 -10 -164 -34.5t-138 -63.5t-97.5 -97.5t-35.5 -129.5zM301 1081q0 -124 100 -201t265 -92q164 16 264 92.5t100 200.5q0 126 -103.5 204.5t-260.5 78.5t-261 -78.5 t-104 -204.5z" />
<glyph unicode="9" horiz-adv-x="1267" d="M106 655q0 93 33.5 176.5t95.5 148t156.5 102.5t208.5 38q115 0 207.5 -36t155.5 -98.5t105.5 -151t61.5 -190t19 -218.5q0 -167 -35 -302t-93.5 -224.5t-139 -149.5t-168.5 -86t-185 -26q-198 3 -356 94l53 86q133 -84 303 -84q79 0 150 22.5t136 74t112.5 128t76 192 t29.5 259.5q-78 -88 -201 -145.5t-251 -57.5q-207 0 -340.5 123.5t-133.5 324.5zM219 655q0 -158 105 -257t268 -99q129 0 252 61t186 150q-8 112 -37 203.5t-80.5 162t-131 109.5t-181.5 39q-118 0 -206 -52t-131.5 -135t-43.5 -182z" />
<glyph unicode=":" d="M150 0v213h124v-213h-124zM150 834v213h124v-213h-124z" />
<glyph unicode=";" d="M72 -221q64 34 91 86.5t27 134.5h-40v213h124v-190q0 -120 -40.5 -189.5t-129.5 -109.5zM150 834v213h124v-213h-124z" />
<glyph unicode="&#x3c;" horiz-adv-x="1306" d="M88 469v109l1086 469v-121l-955 -402l955 -405v-119z" />
<glyph unicode="=" horiz-adv-x="1255" d="M104 227v103h1047v-103h-1047zM104 719v102h1047v-102h-1047z" />
<glyph unicode="&#x3e;" horiz-adv-x="1306" d="M133 0v119l954 405l-954 402v121l1086 -469v-109z" />
<glyph unicode="?" horiz-adv-x="1044" d="M86 1280q171 178 408 178q198 0 318 -100t120 -258q0 -75 -24.5 -136.5t-64 -103t-87 -78t-95 -70.5t-87 -71t-64.5 -89t-25 -116v-22h-92q-2 2 -2 32q0 76 23.5 138t61 103t83 76t91 67.5t83 67.5t61 85.5t23.5 112.5q0 114 -89.5 189t-233.5 75q-185 0 -332 -150z M379 0v203h123v-203h-123z" />
<glyph unicode="@" horiz-adv-x="1716" d="M141 571q0 202 99.5 373t271.5 271t375 100q151 0 280 -50.5t219 -138.5t140.5 -211.5t50.5 -265.5q0 -114 -34 -210t-90 -156.5t-124.5 -93.5t-140.5 -33q-90 0 -141 49t-54 125q-46 -66 -115 -106t-149 -40q-105 0 -170 74t-65 199q0 87 29 176t80.5 164.5t133.5 123.5 t178 48q125 0 205 -105l27 84h82l-144 -506q-30 -97 -0.5 -157t113.5 -60q120 0 213.5 117t93.5 307q0 172 -77.5 307t-218.5 210t-322 75q-137 0 -262 -53t-215 -142.5t-143.5 -213.5t-53.5 -261q0 -135 53.5 -259t143.5 -213.5t215 -143t262 -53.5q184 0 348 98l41 -61 q-179 -109 -389 -109q-153 0 -291 58.5t-237.5 157.5t-158.5 236.5t-59 288.5zM586 461q0 -92 42.5 -146.5t119.5 -54.5q85 0 157 58t103 167l90 314q-67 92 -180 92q-74 0 -138.5 -41.5t-105.5 -105.5t-64.5 -138.5t-23.5 -144.5z" />
<glyph unicode="A" horiz-adv-x="1388" d="M72 0l551 1434h145l549 -1434h-127l-146 387h-702l-143 -387h-127zM379 483h631l-314 840h-4z" />
<glyph unicode="B" horiz-adv-x="1376" d="M184 0v1434h549q225 0 342 -103t117 -262q0 -126 -68.5 -211t-181.5 -119q141 -32 224 -120t83 -224q0 -188 -123 -291.5t-344 -103.5h-598zM299 100h483q168 0 258 77t90 224q0 132 -97 206.5t-253 74.5h-481v-582zM299 778h430q170 0 257 80.5t87 204.5q0 118 -87 194 t-257 76h-430v-555z" />
<glyph unicode="C" horiz-adv-x="1458" d="M123 735q0 212 90 377t252 255.5t371 90.5q128 0 246 -37t210 -106l-63 -88q-171 129 -391 129q-267 0 -432.5 -171.5t-165.5 -449.5q0 -297 163.5 -477t434.5 -180q121 0 228 39.5t185 113.5l74 -77q-93 -87 -219.5 -133t-271.5 -46q-319 0 -515 209.5t-196 550.5z" />
<glyph unicode="D" horiz-adv-x="1449" d="M184 0v1434h389q366 0 561 -186t195 -517q0 -350 -190 -540.5t-566 -190.5h-389zM299 100h281q313 0 472.5 165.5t159.5 465.5q0 282 -163.5 442t-468.5 160h-281v-1233z" />
<glyph unicode="E" horiz-adv-x="1298" d="M184 0v1434h957v-105h-842v-549h760v-98h-760v-578h854v-104h-969z" />
<glyph unicode="F" horiz-adv-x="1259" d="M184 0v1434h940v-105h-825v-557h733v-100h-733v-672h-115z" />
<glyph unicode="G" horiz-adv-x="1482" d="M123 735q0 212 89 376.5t251.5 255.5t372.5 91q263 0 460 -125l-59 -86q-173 109 -399 109q-267 0 -431.5 -172t-164.5 -449q0 -302 159.5 -479.5t436.5 -177.5q226 0 374 94v467h-432v92h541v-618q-98 -65 -224 -101.5t-261 -36.5q-328 0 -520.5 206t-192.5 554z" />
<glyph unicode="H" horiz-adv-x="1427" d="M184 0v1434h115v-652h829v652h117v-1434h-117v678h-829v-678h-115z" />
<glyph unicode="I" horiz-adv-x="481" d="M184 0v1434h115v-1434h-115z" />
<glyph unicode="J" horiz-adv-x="1159" d="M111 276l98 48q37 -104 118 -174t208 -70q166 0 248.5 104.5t82.5 282.5v967h117v-967q0 -229 -112.5 -360.5t-331.5 -131.5q-85 0 -157.5 24.5t-124 68t-87.5 95t-59 113.5z" />
<glyph unicode="K" horiz-adv-x="1357" d="M184 0v1434h115v-867l764 867h141l-471 -533l529 -901h-140l-465 815l-358 -403v-412h-115z" />
<glyph unicode="L" horiz-adv-x="1236" d="M184 0v1434h115v-1330h840v-104h-955z" />
<glyph unicode="M" horiz-adv-x="1730" d="M184 0v1434h138l544 -803l545 803h137v-1434h-112v1282l-570 -831l-569 835v-1286h-113z" />
<glyph unicode="N" horiz-adv-x="1470" d="M184 0v1434h127l863 -1268v1268h112v-1434h-129l-860 1266v-1266h-113z" />
<glyph unicode="O" horiz-adv-x="1654" d="M123 727q0 163 55 301t150 231.5t224 146t275 52.5t275 -52.5t224 -146t150.5 -231.5t55.5 -301q0 -171 -54.5 -313t-149 -238t-224 -148.5t-277.5 -52.5t-277 52.5t-224 148.5t-149 238t-54 313zM242 727q0 -149 45.5 -272t124 -205t185.5 -127t230 -45t230 45t186 127 t124.5 205t45.5 272q0 140 -46 259t-125.5 199.5t-186.5 125.5t-228 45q-162 0 -294.5 -76.5t-211.5 -221t-79 -331.5z" />
<glyph unicode="P" horiz-adv-x="1341" d="M184 0v1434h555q102 0 184 -24t135 -63.5t88.5 -94t50.5 -112.5t15 -122q0 -78 -25.5 -149.5t-79 -134.5t-149 -100.5t-221.5 -37.5h-438v-596h-115zM299 694h438q95 0 167 28t113 75.5t61 102.5t20 116q0 62 -19.5 116.5t-60 100.5t-112.5 73t-167 27h-440v-639z" />
<glyph unicode="Q" horiz-adv-x="1673" d="M123 727q0 163 55 301t150 231.5t224 146t275 52.5t275 -52.5t224 -146t150.5 -231.5t55.5 -301q0 -312 -174 -518l194 -166l-67 -72l-193 170q-193 -166 -465 -166q-148 0 -277 52.5t-224 148.5t-149 238t-54 313zM242 727q0 -149 45.5 -272t124 -205t185.5 -127 t230 -45q225 0 383 139l-278 240l65 73l275 -247q141 178 141 444q0 140 -46 259t-125.5 199.5t-186.5 125.5t-228 45q-162 0 -294.5 -76.5t-211.5 -221t-79 -331.5z" />
<glyph unicode="R" horiz-adv-x="1378" d="M184 0v1434h582q125 0 219.5 -35.5t148 -96t79.5 -132t26 -152.5q0 -89 -33 -169t-109 -146t-184 -91l320 -612h-129l-301 598h-35h-469v-598h-115zM299 694h463q94 0 166 28t113 75.5t61 102.5t20 116q0 63 -19.5 117.5t-60 100.5t-111.5 72.5t-165 26.5h-467v-639z" />
<glyph unicode="S" horiz-adv-x="1243" d="M117 119l59 92q83 -57 202 -94t249 -37q186 0 282.5 77.5t96.5 204.5q0 51 -13 91.5t-46.5 71t-60.5 50.5t-85 39.5t-89.5 28t-102.5 26.5q-65 16 -99 25t-92.5 29t-90.5 38.5t-73.5 50t-62.5 67.5t-36.5 87.5t-15.5 112.5q0 164 128 271.5t347 107.5q245 0 455 -102 l-47 -99q-194 97 -404 97q-165 0 -261.5 -76.5t-96.5 -196.5q0 -65 24 -114t66 -79t97 -54t117.5 -38t128.5 -32t128.5 -35t117.5 -48t97 -71t66 -103.5t24 -144.5q0 -172 -127.5 -279.5t-371.5 -107.5q-149 0 -284.5 41t-225.5 103z" />
<glyph unicode="T" horiz-adv-x="1318" d="M63 1329v105h1192v-105h-538v-1329h-115v1329h-539z" />
<glyph unicode="U" horiz-adv-x="1458" d="M178 524v910h117v-910q0 -211 122.5 -328.5t311.5 -117.5t312.5 117.5t123.5 328.5v910h117v-910q0 -133 -42.5 -239t-118 -173t-175.5 -102t-217 -35q-116 0 -215.5 35t-175 102t-118 173t-42.5 239z" />
<glyph unicode="V" horiz-adv-x="1357" d="M72 1434h127l477 -1309h4l479 1309h129l-540 -1434h-140z" />
<glyph unicode="W" horiz-adv-x="2095" d="M74 1434h125l401 -1284h4l383 1284h123l383 -1284h4l401 1284h125l-460 -1434h-133l-381 1272h-5l-378 -1272h-134z" />
<glyph unicode="X" horiz-adv-x="1380" d="M88 0l528 733l-503 701h143l436 -613l434 613h144l-506 -701l528 -733h-145l-457 643l-459 -643h-143z" />
<glyph unicode="Y" horiz-adv-x="1333" d="M70 1434h137l459 -738h4l456 738h138l-539 -846v-588h-117v588z" />
<glyph unicode="Z" horiz-adv-x="1318" d="M123 0v106l915 1223h-913v105h1053v-107l-912 -1221h934v-106h-1077z" />
<glyph unicode="[" horiz-adv-x="749" d="M178 -410v1956h434v-90h-319v-1775h319v-91h-434z" />
<glyph unicode="\" horiz-adv-x="987" d="M-23 1546h117l914 -1956h-117z" />
<glyph unicode="]" horiz-adv-x="749" d="M137 -319h320v1775h-320v90h434v-1956h-434v91z" />
<glyph unicode="^" horiz-adv-x="1073" d="M199 1151l286 354h105l287 -354h-103l-235 244l-242 -244h-98z" />
<glyph unicode="_" horiz-adv-x="1116" d="M0 -25h1116v-104h-1116v104z" />
<glyph unicode="`" horiz-adv-x="1323" d="M477 1440l84 65l285 -346h-80z" />
<glyph unicode="a" horiz-adv-x="1052" d="M106 231q0 325 646 351v186q0 93 -58.5 150t-175.5 57q-146 0 -330 -94l-47 92q83 42 183.5 70t195.5 28q175 0 260.5 -83.5t85.5 -221.5v-561q0 -59 29 -90t82 -31v-86q-175 0 -213 141q-62 -74 -155 -119t-203 -45q-134 0 -217 70t-83 186zM219 238q0 -78 56.5 -125 t150.5 -47q104 0 191.5 45.5t134.5 113.5v279q-533 -23 -533 -266z" />
<glyph unicode="b" horiz-adv-x="1187" d="M180 0v1546h113v-645q163 170 346 170q195 0 312.5 -142.5t117.5 -389.5q0 -263 -113.5 -413.5t-316.5 -150.5q-192 0 -350 175l-13 -150h-96zM293 246q145 -176 328 -176q160 0 246.5 125.5t86.5 343.5q0 203 -90 320.5t-246 117.5q-170 0 -325 -176v-555z" />
<glyph unicode="c" horiz-adv-x="1040" d="M117 537q0 243 134 388.5t347 145.5q187 0 324 -102l-62 -82q-115 86 -260 86q-163 0 -266 -118.5t-103 -317.5q0 -214 100.5 -339.5t268.5 -125.5q87 0 152 26.5t127 77.5l67 -74q-75 -63 -157 -95t-191 -32q-217 0 -349 151.5t-132 410.5z" />
<glyph unicode="d" horiz-adv-x="1185" d="M119 539q0 247 116.5 389.5t313.5 142.5q183 0 346 -170v645h113v-1546h-95l-14 150q-161 -175 -352 -175q-201 0 -314.5 151t-113.5 413zM231 539q0 -217 88 -343t248 -126q179 0 328 176v555q-159 176 -326 176q-157 0 -247.5 -117.5t-90.5 -320.5z" />
<glyph unicode="e" horiz-adv-x="1144" d="M119 537q0 241 136.5 387.5t350.5 146.5q207 0 310.5 -125.5t103.5 -331.5q0 -35 -4 -75h-785v-4q0 -222 96 -342.5t285 -120.5q85 0 168.5 28t147.5 72l55 -80q-75 -53 -174.5 -85t-200.5 -32q-237 0 -363 148t-126 414zM238 623h671v16q-1 67 -15 123 q-16 64 -50.5 113.5t-95 77.5t-140.5 28q-147 0 -247.5 -96t-122.5 -262z" />
<glyph unicode="f" horiz-adv-x="737" d="M51 950v90h195v115q0 404 387 404q70 0 135 -21l-27 -88q-54 14 -106 14q-134 0 -205.5 -72t-71.5 -235v-117h301v-90h-301v-950h-112v950h-195z" />
<glyph unicode="g" horiz-adv-x="1155" d="M80 -156q0 154 192 232q-90 53 -90 149q0 45 26 85.5t68 66.5q-78 52 -122.5 133t-44.5 180q0 165 120.5 273t300.5 108q159 0 275 -86q119 88 274 88h17v-92h-19q-140 0 -221 -41q100 -105 100 -250q0 -168 -125 -276.5t-301 -108.5q-99 0 -188 39q-68 -41 -68 -102 q0 -24 9 -42.5t22.5 -31.5t40 -22.5t49.5 -15.5t64 -10t70.5 -6t80.5 -5q461 -26 461 -263q0 -133 -129.5 -204.5t-376.5 -71.5q-233 0 -359 71.5t-126 202.5zM188 -154q0 -91 96.5 -140.5t276.5 -49.5q194 0 298 46t104 136q0 46 -28 79.5t-81 53t-117.5 29.5t-150.5 14 q-128 3 -217 27q-81 -25 -131 -75.5t-50 -119.5zM219 690q0 -129 89 -214t222 -85q134 0 225 85.5t91 213.5q0 125 -91 209t-225 84q-132 0 -221.5 -83.5t-89.5 -209.5z" />
<glyph unicode="h" horiz-adv-x="1167" d="M180 0v1546h113v-657q168 182 381 182q325 0 325 -350v-721h-112v723q0 254 -232 254q-204 0 -362 -186v-791h-113z" />
<glyph unicode="i" horiz-adv-x="473" d="M180 0v1042h113v-1042h-113zM180 1348v165h113v-165h-113z" />
<glyph unicode="j" horiz-adv-x="489" d="M-90 -416l22 92q38 -10 72 -10q193 0 193 264v1112h112v-1108q0 -189 -78.5 -276.5t-216.5 -87.5q-41 0 -104 14zM197 1348v165h112v-165h-112z" />
<glyph unicode="k" horiz-adv-x="1054" d="M180 0v1546h113v-1077l520 578h133l-315 -342l373 -705h-130l-317 623l-264 -289v-334h-113z" />
<glyph unicode="l" horiz-adv-x="473" d="M180 0v1546h113v-1546h-113z" />
<glyph unicode="m" horiz-adv-x="1804" d="M172 0v1047h102l11 -146q166 170 366 170q221 0 287 -180q173 180 385 180q161 0 237 -92.5t76 -255.5v-723h-114v723q0 254 -219 254q-194 0 -345 -174q7 -51 7 -86v-717h-115v723q0 122 -51 188t-168 66q-196 0 -346 -178v-799h-113z" />
<glyph unicode="n" horiz-adv-x="1159" d="M172 0v1047h102l11 -156q169 180 383 180q325 0 325 -350v-721h-114v723q0 254 -232 254q-208 0 -362 -191v-786h-113z" />
<glyph unicode="o" horiz-adv-x="1216" d="M119 537q0 240 138 387t353 147t352.5 -147t137.5 -387q0 -256 -135 -409t-355 -153q-222 0 -356.5 152.5t-134.5 409.5zM233 537q0 -214 102.5 -341.5t274.5 -127.5q169 0 271 128t102 341q0 198 -104.5 319t-268.5 121q-166 0 -271.5 -121t-105.5 -319z" />
<glyph unicode="p" horiz-adv-x="1185" d="M178 -410v1457h98l13 -150q159 174 348 174q197 0 313.5 -142.5t116.5 -389.5q0 -262 -113.5 -413t-314.5 -151q-193 0 -348 172v-557h-113zM291 246q145 -176 327 -176q160 0 248 126t88 343q0 203 -90.5 320.5t-247.5 117.5q-170 0 -325 -176v-555z" />
<glyph unicode="q" horiz-adv-x="1185" d="M119 539q0 247 116.5 389.5t313.5 142.5q187 0 346 -174l14 150h99v-1457h-113v557q-159 -172 -348 -172q-201 0 -314.5 151t-113.5 413zM231 539q0 -217 88 -343t248 -126q179 0 328 176v555q-159 176 -326 176q-157 0 -247.5 -117.5t-90.5 -320.5z" />
<glyph unicode="r" horiz-adv-x="788" d="M172 0v1047h100l13 -183q122 207 329 207q74 0 127 -16l-22 -109q-63 19 -117 19q-190 0 -317 -220v-745h-113z" />
<glyph unicode="s" horiz-adv-x="931" d="M86 76l53 86q60 -40 147.5 -66t180.5 -26q128 0 196 51t68 141q0 62 -35 104t-90.5 63.5t-123 38.5t-134.5 37t-122.5 50t-90.5 87t-35 138q0 130 100 210.5t261 80.5q175 0 338 -78l-45 -88q-144 72 -293 72q-113 0 -180.5 -53.5t-67.5 -139.5q0 -62 35 -103.5 t90.5 -62.5t122.5 -37t134.5 -36t123 -50t90.5 -88t35 -141q0 -135 -99 -213t-278 -78q-109 0 -208.5 28t-172.5 73z" />
<glyph unicode="t" horiz-adv-x="757" d="M51 954v93h193v327h112v-327h308v-93h-308v-688q0 -98 38 -147t126 -49q81 0 152 49l47 -78q-98 -66 -209 -66q-138 0 -202 73.5t-64 217.5v688h-193z" />
<glyph unicode="u" horiz-adv-x="1161" d="M168 326v721h113v-723q0 -122 53.5 -189t177.5 -67q209 0 365 190v789h112v-1047h-98l-14 154q-172 -179 -383 -179q-326 0 -326 351z" />
<glyph unicode="v" horiz-adv-x="995" d="M53 1047h121l324 -920h4l323 920h117l-383 -1047h-125z" />
<glyph unicode="w" horiz-adv-x="1632" d="M53 1047h119l303 -912h4l283 912h108l285 -912h4l303 912h117l-358 -1047h-123l-281 891h-4l-278 -891h-123z" />
<glyph unicode="x" horiz-adv-x="1013" d="M68 0l370 528l-352 519h127l295 -439l293 439h127l-350 -519l368 -528h-127l-313 451l-311 -451h-127z" />
<glyph unicode="y" horiz-adv-x="997" d="M41 -401l33 94q68 -27 114 -27q65 0 108.5 30.5t72.5 108.5l77 203l-393 1039h121l328 -891h4l319 891h119l-465 -1256q-45 -122 -116 -171.5t-173 -49.5q-75 0 -149 29z" />
<glyph unicode="z" horiz-adv-x="1003" d="M111 0v86l637 864h-621v97h760v-89l-635 -864h657v-94h-798z" />
<glyph unicode="{" horiz-adv-x="886" d="M70 504v104h80q106 0 149 48t43 155v455q0 280 303 280h113v-88h-109q-102 0 -148 -46t-46 -148v-447q0 -219 -166 -260v-2q166 -41 166 -260v-422q0 -102 46 -148.5t148 -46.5h109v-88h-113q-303 0 -303 281v430q0 107 -43 155t-149 48h-80z" />
<glyph unicode="|" horiz-adv-x="544" d="M219 -410v1956h109v-1956h-109z" />
<glyph unicode="}" horiz-adv-x="886" d="M129 -322h109q102 0 148 46.5t46 148.5v422q0 219 166 260v2q-166 41 -166 260v447q0 102 -46 148t-148 46h-109v88h113q303 0 303 -280v-455q0 -107 43 -155t149 -48h80v-104h-80q-106 0 -149 -48t-43 -155v-430q0 -281 -303 -281h-113v88z" />
<glyph unicode="~" horiz-adv-x="1163" d="M156 446q0 120 58 189.5t157 69.5q46 0 94 -23.5t88.5 -57.5t79.5 -68t81 -57.5t79 -23.5q62 0 97 47.5t28 143.5h88q2 -16 2 -39q0 -121 -57 -189.5t-156 -68.5q-46 0 -94.5 23.5t-89 57.5t-80 67.5t-81 57t-77.5 23.5q-62 0 -97.5 -47t-29.5 -143h-88q-2 16 -2 38z" />
<glyph unicode="&#xa1;" horiz-adv-x="495" d="M184 70l31 563h64l30 -563v-457h-125v457zM186 844v203h123v-203h-123z" />
<glyph unicode="&#xa2;" horiz-adv-x="1193" d="M100 563q0 248 163 403.5t425 155.5q31 0 45 -2l49 215h82l-51 -225q143 -24 256 -102l-59 -80q-101 69 -224 90l-213 -936q62 -10 117 -10q209 0 340 116l68 -71q-161 -142 -410 -142q-64 0 -131 13l-59 -260h-82l67 276q-179 57 -281 205t-102 354zM213 563 q0 -169 78 -291t217 -172l209 924q-4 0 -13.5 1t-13.5 1q-214 0 -345.5 -128t-131.5 -335z" />
<glyph unicode="&#xa3;" horiz-adv-x="1163" d="M84 162q0 80 59 133t148 53q99 0 235 -94q0 5 1 15.5t1 15.5q0 67 -22 121t-68 126q-4 4 -4 7h-235v77h184q-86 132 -86 246q0 113 81 186.5t224 73.5q119 0 196.5 -50t114.5 -120l-90 -41q-27 48 -80.5 83.5t-136.5 35.5q-94 0 -146 -47.5t-52 -124.5q0 -61 24 -116 t70 -126h274v-77h-223q80 -128 80 -246q0 -42 -19 -105q77 -57 139.5 -88.5t129.5 -31.5q155 0 149 182h105q9 -131 -53 -203t-183 -72q-89 0 -164 37.5t-162 106.5q-49 -68 -127 -106t-155 -38q-95 0 -152 54t-57 133zM164 162q0 -47 34 -80t93 -33q58 0 118.5 34t92.5 95 q-62 47 -111 71.5t-100 24.5q-55 0 -91 -32.5t-36 -79.5z" />
<glyph unicode="&#xa4;" horiz-adv-x="1335" d="M133 543q0 100 35.5 192t99.5 164l-114 123l63 61l115 -125q148 119 336 119t336 -119l116 125l64 -61l-119 -123q137 -150 137 -356q0 -204 -135 -355l117 -122l-64 -60l-116 123q-148 -119 -336 -119q-191 0 -336 117l-115 -121l-63 60l114 122q-135 151 -135 355z M240 543q0 -177 125.5 -302.5t302.5 -125.5q178 0 304 125.5t126 302.5q0 179 -126 304.5t-304 125.5q-177 0 -302.5 -126t-125.5 -304z" />
<glyph unicode="&#xa5;" horiz-adv-x="1153" d="M68 1098h137l368 -512h2l373 512h135l-452 -613h383v-77h-383v-142h383v-76h-383v-190h-115v190h-385v76h385v142h-385v77h385z" />
<glyph unicode="&#xa6;" horiz-adv-x="544" d="M219 344h109v-754h-109v754zM219 705v841h109v-841h-109z" />
<glyph unicode="&#xa7;" horiz-adv-x="1079" d="M145 444q0 66 36.5 123.5t94.5 96.5q-88 71 -88 184q0 126 98 196t267 70q104 0 199 -42.5t163 -113.5l-79 -65q-50 57 -126 93t-161 36q-117 0 -184.5 -43.5t-67.5 -128.5q0 -49 27.5 -86.5t72.5 -61t102.5 -46t117 -40.5t117 -46t102.5 -61t72.5 -87t27.5 -123 q0 -66 -37.5 -123t-95.5 -96q88 -71 88 -184q0 -126 -98 -196.5t-267 -70.5q-104 0 -198.5 43t-161.5 113l78 65q53 -58 127.5 -94.5t158.5 -36.5q116 0 184 45t68 130q0 55 -35 96t-91.5 66t-124 47.5t-135.5 49t-124.5 61.5t-91.5 93.5t-35 136.5zM248 457q0 -62 31 -108 t87.5 -76t113.5 -51t132.5 -47.5t122.5 -51.5q40 28 68 71t28 93q0 62 -31 107.5t-87.5 76t-113.5 51.5t-132.5 47.5t-122.5 51.5q-41 -29 -68.5 -72t-27.5 -92z" />
<glyph unicode="&#xa8;" horiz-adv-x="1333" d="M424 1253v133h115v-133h-115zM795 1253v133h114v-133h-114z" />
<glyph unicode="&#xa9;" horiz-adv-x="1779" d="M143 571q0 202 99.5 373t271.5 271t375 100q152 0 290.5 -59t238.5 -159t159 -237.5t59 -288.5t-59 -288.5t-159 -236.5t-238 -157.5t-291 -58.5t-291 58.5t-237.5 157.5t-158.5 236.5t-59 288.5zM217 571q0 -135 53.5 -259t143.5 -213.5t215 -143t262 -53.5t261.5 53.5 t214 143t143 213.5t53.5 259q0 182 -90 336.5t-244.5 244t-337.5 89.5q-137 0 -262 -53t-215 -142.5t-143.5 -213.5t-53.5 -261zM483 569q0 179 120.5 297.5t301.5 118.5q152 0 271 -84l-54 -70q-95 70 -215 70q-143 0 -237.5 -94t-94.5 -238q0 -153 92.5 -244.5 t239.5 -91.5q140 0 228 82l57 -59q-109 -106 -287 -106q-188 0 -305 114.5t-117 304.5z" />
<glyph unicode="&#xaa;" horiz-adv-x="753" d="M82 868q0 67 39 115.5t108 74.5t140.5 38.5t158.5 15.5v121q0 61 -38.5 98t-118.5 37q-100 0 -230 -65l-35 73q129 68 267 68q122 0 181.5 -57.5t59.5 -153.5v-379q0 -40 21 -61t57 -21v-67q-125 0 -155 92q-41 -48 -104 -78.5t-138 -30.5q-96 0 -154.5 49.5t-58.5 130.5 zM170 872q0 -51 37.5 -81.5t99.5 -30.5q69 0 127.5 28.5t93.5 71.5v189q-358 -14 -358 -177z" />
<glyph unicode="&#xab;" horiz-adv-x="1214" d="M106 524l412 523l80 -64l-369 -459l369 -463l-80 -61zM598 524l412 523l80 -64l-369 -459l369 -463l-80 -61z" />
<glyph unicode="&#xac;" horiz-adv-x="1232" d="M129 997v101h975v-508h-119v407h-856z" />
<glyph unicode="&#xad;" horiz-adv-x="763" d="M96 479v103h574v-103h-574z" />
<glyph unicode="&#xae;" horiz-adv-x="1779" d="M143 571q0 202 99.5 373t271.5 271t375 100q152 0 290.5 -59t238.5 -159t159 -237.5t59 -288.5t-59 -288.5t-159 -236.5t-238 -157.5t-291 -58.5t-291 58.5t-237.5 157.5t-158.5 236.5t-59 288.5zM217 571q0 -135 53 -258.5t142.5 -213t214.5 -142.5t262 -53 q182 0 337.5 89.5t246 243.5t90.5 334q0 182 -90.5 336.5t-245.5 244t-338 89.5q-137 0 -261.5 -53t-214.5 -142.5t-143 -213.5t-53 -261zM590 172v797h364q149 0 220 -69.5t71 -172.5q0 -77 -48.5 -140t-147.5 -85l194 -330h-104l-181 320h-276v-320h-92zM682 565h262 q107 0 158 48.5t51 113.5q0 70 -48.5 117t-156.5 47h-266v-326z" />
<glyph unicode="&#xaf;" horiz-adv-x="1331" d="M381 1276v86h575v-86h-575z" />
<glyph unicode="&#xb0;" horiz-adv-x="845" d="M102 1141q0 134 95 225.5t227 91.5q131 0 225 -92t94 -225q0 -136 -93.5 -227t-225.5 -91q-133 0 -227.5 91t-94.5 227zM186 1141q0 -100 70 -169t168 -69t166.5 68.5t68.5 169.5q0 99 -69 168t-166 69q-98 0 -168 -69t-70 -168z" />
<glyph unicode="&#xb1;" horiz-adv-x="1255" d="M104 0v90h469v414h-469v100h469v443h109v-443h469v-100h-469v-414h469v-90h-1047z" />
<glyph unicode="&#xb2;" horiz-adv-x="671" d="M84 1024v43q-1 71 22 126t60.5 88.5t83.5 59.5t92 46t84 41.5t62 53.5t24 74q0 57 -46 93.5t-130 36.5q-54 0 -105.5 -25t-89.5 -64l-57 52q46 48 115 78t141 30q123 0 190.5 -56.5t67.5 -144.5q0 -53 -23.5 -94t-61 -67t-82.5 -48t-90.5 -43.5t-83 -47t-61.5 -65.5 t-24 -93h426v-74h-514z" />
<glyph unicode="&#xb3;" horiz-adv-x="667" d="M76 1657q47 45 113.5 72.5t134.5 27.5q113 0 183.5 -52t70.5 -134q0 -122 -125 -166q70 -16 111.5 -59t41.5 -111q0 -104 -86 -163.5t-217 -59.5q-125 0 -221 49l31 69q85 -47 190 -47q95 0 156 42t61 112q0 63 -50.5 96t-129.5 33h-100v70h96q71 0 114.5 34t43.5 95 q0 52 -46 86.5t-124 34.5q-55 0 -107.5 -22.5t-91.5 -61.5z" />
<glyph unicode="&#xb4;" horiz-adv-x="1323" d="M477 1159l285 346l84 -65l-289 -281h-80z" />
<glyph unicode="&#xb5;" horiz-adv-x="1083" d="M129 -410v1508h115v-795q5 -111 59 -172t172 -61q208 0 365 188v840h114v-1098h-102l-10 152q-161 -175 -359 -175q-102 0 -159.5 34t-83.5 100l-11 -521h-100z" />
<glyph unicode="&#xb6;" horiz-adv-x="1361" d="M135 1012q0 80 26 152.5t79.5 134t147 98.5t216.5 37h563v-1434h-104v1343h-258v-1343h-105v600h-92q-98 0 -179 25t-134.5 66t-90.5 95.5t-53 111t-16 114.5z" />
<glyph unicode="&#xb7;" d="M150 418v213h124v-213h-124z" />
<glyph unicode="&#xb8;" horiz-adv-x="1323" d="M508 -391q221 178 256 401h78q-13 -127 -75.5 -242t-164.5 -206z" />
<glyph unicode="&#xb9;" horiz-adv-x="559" d="M94 1638l213 107h68v-721h-82v637l-164 -86z" />
<glyph unicode="&#xba;" horiz-adv-x="864" d="M86 1075q0 166 96.5 267.5t247.5 101.5t246.5 -101.5t95.5 -267.5q0 -177 -93.5 -282t-248.5 -105q-156 0 -250 104.5t-94 282.5zM172 1075q0 -143 70 -228t188 -85q116 0 185 85.5t69 227.5q0 132 -70.5 213.5t-183.5 81.5t-185.5 -82t-72.5 -213z" />
<glyph unicode="&#xbb;" horiz-adv-x="1214" d="M125 61l369 463l-369 459l80 64l411 -523l-411 -524zM618 61l369 463l-369 459l80 64l412 -523l-412 -524z" />
<glyph unicode="&#xbc;" horiz-adv-x="1468" d="M104 1331l213 107h68v-721h-82v637l-164 -86zM141 0l1192 1434h101l-1190 -1434h-103zM856 225l381 496h98v-492h117v-69h-117v-160h-82v160h-370zM946 229h307v402z" />
<glyph unicode="&#xbd;" horiz-adv-x="1568" d="M104 1331l213 107h68v-721h-82v637l-164 -86zM141 0l1192 1434h101l-1190 -1434h-103zM1038 0v43q-1 71 22 126t60.5 88.5t83.5 59.5t92 46t84 41.5t62 53.5t24 74q0 57 -46 93.5t-130 36.5q-54 0 -105 -25t-89 -64l-58 52q46 48 115 78t141 30q123 0 190.5 -56.5 t67.5 -144.5q0 -53 -23.5 -94t-61 -67t-82.5 -48t-90.5 -43.5t-83 -47t-61.5 -65.5t-24 -93h426v-74h-514z" />
<glyph unicode="&#xbe;" horiz-adv-x="1484" d="M37 1350q47 45 113.5 72.5t134.5 27.5q113 0 183.5 -52t70.5 -134q0 -122 -125 -166q70 -16 111.5 -59t41.5 -111q0 -104 -86 -163.5t-217 -59.5q-125 0 -221 49l31 69q85 -47 190 -47q95 0 156 42t61 112q0 63 -50.5 96t-129.5 33h-100v69h96q71 0 114.5 34t43.5 95 q0 52 -46 86.5t-124 34.5q-55 0 -107.5 -22.5t-91.5 -61.5zM156 0l1192 1434h100l-1190 -1434h-102zM877 225l380 496h99v-492h117v-69h-117v-160h-82v160h-371zM967 229h307v402z" />
<glyph unicode="&#xbf;" horiz-adv-x="1005" d="M113 -53q0 75 24.5 136.5t63.5 103t86.5 77.5t95 70t87 71t64.5 89t25 116v23h92q2 -2 2 -33q0 -76 -23.5 -137.5t-61 -102.5t-83 -76.5t-91 -67.5t-83 -67.5t-61 -85.5t-23.5 -112q0 -114 90 -189t234 -75q186 0 332 149l75 -69q-172 -179 -407 -179q-198 0 -318 100.5 t-120 258.5zM543 844v203h123v-203h-123z" />
<glyph unicode="&#xc0;" horiz-adv-x="1388" d="M72 0l551 1434h145l549 -1434h-127l-146 387h-702l-143 -387h-127zM379 483h631l-314 840h-4zM438 1733l92 69l228 -256h-92z" />
<glyph unicode="&#xc1;" horiz-adv-x="1388" d="M72 0l551 1434h145l549 -1434h-127l-146 387h-702l-143 -387h-127zM379 483h631l-314 840h-4zM631 1546l227 256l92 -69l-229 -187h-90z" />
<glyph unicode="&#xc2;" horiz-adv-x="1388" d="M72 0l551 1434h145l549 -1434h-127l-146 387h-702l-143 -387h-127zM371 1546l262 221h123l262 -221h-84l-238 150h-2l-239 -150h-84zM379 483h631l-314 840h-4z" />
<glyph unicode="&#xc3;" horiz-adv-x="1388" d="M72 0l551 1434h145l549 -1434h-127l-146 387h-702l-143 -387h-127zM379 483h631l-314 840h-4zM412 1565q-12 96 30.5 151.5t116.5 55.5q41 0 80.5 -22.5t65.5 -49.5t59 -49.5t61 -22.5q39 0 60.5 32.5t15.5 88.5h78q10 -96 -33 -151.5t-117 -55.5q-41 0 -80.5 22 t-65 48.5t-58.5 48.5t-62 22q-40 0 -61.5 -31.5t-14.5 -86.5h-75z" />
<glyph unicode="&#xc4;" horiz-adv-x="1388" d="M72 0l551 1434h145l549 -1434h-127l-146 387h-702l-143 -387h-127zM379 483h631l-314 840h-4zM442 1591v133h115v-133h-115zM831 1591v133h115v-133h-115z" />
<glyph unicode="&#xc5;" horiz-adv-x="1388" d="M72 0l536 1397q-52 24 -83 71t-31 107q0 83 58 140t142 57t142.5 -57t58.5 -140q0 -60 -31 -107t-82 -71l535 -1397h-127l-146 387h-702l-143 -387h-127zM379 483h631l-314 840h-4zM555 1575q0 -59 40.5 -100t98.5 -41t99 41t41 100q0 58 -40.5 98.5t-99.5 40.5 q-58 0 -98.5 -40t-40.5 -99z" />
<glyph unicode="&#xc6;" horiz-adv-x="2078" d="M68 0l659 1434h1194v-107h-997l161 -545h754v-102h-723l168 -574h651v-106h-745l-111 387h-706l-172 -387h-133zM418 485h633l-242 842h-14z" />
<glyph unicode="&#xc7;" horiz-adv-x="1458" d="M123 735q0 212 90 377t252 255.5t371 90.5q128 0 246 -37t210 -106l-63 -88q-171 129 -391 129q-267 0 -432.5 -171.5t-165.5 -449.5q0 -297 163.5 -477t434.5 -180q121 0 228 39.5t185 113.5l74 -77q-93 -87 -219.5 -133t-271.5 -46q-3 0 -9.5 1t-9.5 1 q-41 -243 -235 -415l-95 47q207 167 250 373q-279 32 -445.5 235.5t-166.5 517.5z" />
<glyph unicode="&#xc8;" horiz-adv-x="1298" d="M184 0v1434h957v-105h-842v-549h760v-98h-760v-578h854v-104h-969zM414 1733l92 69l227 -256h-92z" />
<glyph unicode="&#xc9;" horiz-adv-x="1298" d="M184 0v1434h957v-105h-842v-549h760v-98h-760v-578h854v-104h-969zM604 1546l227 256l93 -69l-230 -187h-90z" />
<glyph unicode="&#xca;" horiz-adv-x="1298" d="M184 0v1434h957v-105h-842v-549h760v-98h-760v-578h854v-104h-969zM344 1546l262 221h123l262 -221h-84l-237 150h-2l-240 -150h-84z" />
<glyph unicode="&#xcb;" horiz-adv-x="1298" d="M184 0v1434h957v-105h-842v-549h760v-98h-760v-578h854v-104h-969zM418 1591v133h114v-133h-114zM807 1591v133h115v-133h-115z" />
<glyph unicode="&#xcc;" horiz-adv-x="481" d="M-14 1733l92 69l227 -256h-92zM184 0v1434h115v-1434h-115z" />
<glyph unicode="&#xcd;" horiz-adv-x="481" d="M178 1546l228 256l92 -69l-230 -187h-90zM184 0v1434h115v-1434h-115z" />
<glyph unicode="&#xce;" horiz-adv-x="481" d="M-82 1546l262 221h123l262 -221h-84l-237 150h-2l-240 -150h-84zM184 0v1434h115v-1434h-115z" />
<glyph unicode="&#xcf;" horiz-adv-x="481" d="M-10 1591v133h114v-133h-114zM184 0v1434h115v-1434h-115zM379 1591v133h115v-133h-115z" />
<glyph unicode="&#xd0;" horiz-adv-x="1519" d="M31 678v84h223v672h389q366 0 561 -186t195 -517q0 -350 -190 -540.5t-566 -190.5h-389v678h-223zM369 100h280q313 0 473 165.5t160 465.5q0 282 -164 442t-469 160h-280v-571h469v-84h-469v-578z" />
<glyph unicode="&#xd1;" horiz-adv-x="1470" d="M184 0v1434h127l863 -1268v1268h112v-1434h-129l-860 1266v-1266h-113zM453 1565q-12 96 30.5 151.5t116.5 55.5q41 0 80.5 -22.5t65.5 -49.5t59 -49.5t61 -22.5q39 0 60.5 32.5t15.5 88.5h78q10 -96 -33 -151.5t-117 -55.5q-41 0 -80.5 22t-65 48.5t-58.5 48.5t-62 22 q-40 0 -61.5 -31.5t-14.5 -86.5h-75z" />
<glyph unicode="&#xd2;" horiz-adv-x="1654" d="M123 727q0 163 55 301t150 231.5t224 146t275 52.5t275 -52.5t224 -146t150.5 -231.5t55.5 -301q0 -171 -54.5 -313t-149 -238t-224 -148.5t-277.5 -52.5t-277 52.5t-224 148.5t-149 238t-54 313zM242 727q0 -149 45.5 -272t124 -205t185.5 -127t230 -45t230 45t186 127 t124.5 205t45.5 272q0 140 -46 259t-125.5 199.5t-186.5 125.5t-228 45q-162 0 -294.5 -76.5t-211.5 -221t-79 -331.5zM573 1733l93 69l227 -256h-92z" />
<glyph unicode="&#xd3;" horiz-adv-x="1654" d="M123 727q0 163 55 301t150 231.5t224 146t275 52.5t275 -52.5t224 -146t150.5 -231.5t55.5 -301q0 -171 -54.5 -313t-149 -238t-224 -148.5t-277.5 -52.5t-277 52.5t-224 148.5t-149 238t-54 313zM242 727q0 -149 45.5 -272t124 -205t185.5 -127t230 -45t230 45t186 127 t124.5 205t45.5 272q0 140 -46 259t-125.5 199.5t-186.5 125.5t-228 45q-162 0 -294.5 -76.5t-211.5 -221t-79 -331.5zM764 1546l227 256l92 -69l-229 -187h-90z" />
<glyph unicode="&#xd4;" horiz-adv-x="1654" d="M123 727q0 163 55 301t150 231.5t224 146t275 52.5t275 -52.5t224 -146t150.5 -231.5t55.5 -301q0 -171 -54.5 -313t-149 -238t-224 -148.5t-277.5 -52.5t-277 52.5t-224 148.5t-149 238t-54 313zM242 727q0 -149 45.5 -272t124 -205t185.5 -127t230 -45t230 45t186 127 t124.5 205t45.5 272q0 140 -46 259t-125.5 199.5t-186.5 125.5t-228 45q-162 0 -294.5 -76.5t-211.5 -221t-79 -331.5zM504 1546l262 221h123l262 -221h-84l-238 150h-2l-239 -150h-84z" />
<glyph unicode="&#xd5;" horiz-adv-x="1654" d="M123 727q0 163 55 301t150 231.5t224 146t275 52.5t275 -52.5t224 -146t150.5 -231.5t55.5 -301q0 -171 -54.5 -313t-149 -238t-224 -148.5t-277.5 -52.5t-277 52.5t-224 148.5t-149 238t-54 313zM242 727q0 -149 45.5 -272t124 -205t185.5 -127t230 -45t230 45t186 127 t124.5 205t45.5 272q0 140 -46 259t-125.5 199.5t-186.5 125.5t-228 45q-162 0 -294.5 -76.5t-211.5 -221t-79 -331.5zM545 1565q-12 96 30.5 151.5t116.5 55.5q41 0 80.5 -22.5t65.5 -49.5t59 -49.5t61 -22.5q39 0 60.5 32.5t15.5 88.5h78q10 -96 -32.5 -151.5 t-116.5 -55.5q-41 0 -80.5 22t-65.5 48.5t-59 48.5t-62 22q-40 0 -61 -31.5t-14 -86.5h-76z" />
<glyph unicode="&#xd6;" horiz-adv-x="1654" d="M123 727q0 163 55 301t150 231.5t224 146t275 52.5t275 -52.5t224 -146t150.5 -231.5t55.5 -301q0 -171 -54.5 -313t-149 -238t-224 -148.5t-277.5 -52.5t-277 52.5t-224 148.5t-149 238t-54 313zM242 727q0 -149 45.5 -272t124 -205t185.5 -127t230 -45t230 45t186 127 t124.5 205t45.5 272q0 140 -46 259t-125.5 199.5t-186.5 125.5t-228 45q-162 0 -294.5 -76.5t-211.5 -221t-79 -331.5zM575 1591v133h115v-133h-115zM965 1591v133h114v-133h-114z" />
<glyph unicode="&#xd7;" horiz-adv-x="1183" d="M145 125l375 399l-375 400l74 71l371 -397l375 397l73 -71l-374 -400l374 -399l-73 -70l-375 396l-371 -396z" />
<glyph unicode="&#xd8;" horiz-adv-x="1654" d="M123 727q0 163 55 301t150 231.5t224 146t275 52.5q231 0 412 -127l133 176l66 -51l-135 -176q109 -98 169 -239t60 -314q0 -171 -54.5 -313t-149 -238t-224 -148.5t-277.5 -52.5q-236 0 -411 125l-131 -174l-66 49l133 175q-229 210 -229 577zM242 727q0 -307 180 -487 l752 1003q-147 113 -347 113q-162 0 -294.5 -76.5t-211.5 -221t-79 -331.5zM479 188q147 -110 348 -110q123 0 230 45t186 127t124.5 205t45.5 272q0 287 -180 467z" />
<glyph unicode="&#xd9;" horiz-adv-x="1458" d="M178 524v910h117v-910q0 -211 122.5 -328.5t311.5 -117.5t312.5 117.5t123.5 328.5v910h117v-910q0 -133 -42.5 -239t-118 -173t-175.5 -102t-217 -35q-116 0 -215.5 35t-175 102t-118 173t-42.5 239zM473 1733l92 69l228 -256h-93z" />
<glyph unicode="&#xda;" horiz-adv-x="1458" d="M178 524v910h117v-910q0 -211 122.5 -328.5t311.5 -117.5t312.5 117.5t123.5 328.5v910h117v-910q0 -133 -42.5 -239t-118 -173t-175.5 -102t-217 -35q-116 0 -215.5 35t-175 102t-118 173t-42.5 239zM666 1546l227 256l92 -69l-229 -187h-90z" />
<glyph unicode="&#xdb;" horiz-adv-x="1458" d="M178 524v910h117v-910q0 -211 122.5 -328.5t311.5 -117.5t312.5 117.5t123.5 328.5v910h117v-910q0 -133 -42.5 -239t-118 -173t-175.5 -102t-217 -35q-116 0 -215.5 35t-175 102t-118 173t-42.5 239zM406 1546l262 221h123l262 -221h-84l-238 150h-2l-240 -150h-83z" />
<glyph unicode="&#xdc;" horiz-adv-x="1458" d="M178 524v910h117v-910q0 -211 122.5 -328.5t311.5 -117.5t312.5 117.5t123.5 328.5v910h117v-910q0 -133 -42.5 -239t-118 -173t-175.5 -102t-217 -35q-116 0 -215.5 35t-175 102t-118 173t-42.5 239zM477 1591v133h115v-133h-115zM866 1591v133h115v-133h-115z" />
<glyph unicode="&#xdd;" horiz-adv-x="1333" d="M70 1434h137l459 -738h4l456 738h138l-539 -846v-588h-117v588zM602 1546l227 256l93 -69l-230 -187h-90z" />
<glyph unicode="&#xde;" horiz-adv-x="1337" d="M184 0v1434h115v-281h428q129 0 226.5 -34.5t154.5 -95.5t85 -135.5t28 -162.5q0 -86 -28 -161t-85 -137t-155.5 -98t-227.5 -36h-426v-293h-115zM299 391h426q98 0 172.5 28t118.5 75.5t66 106t22 124.5q0 67 -22 124.5t-65.5 104t-118 73t-171.5 26.5h-428v-662z" />
<glyph unicode="&#xdf;" horiz-adv-x="1282" d="M178 0v1130q0 200 123 314.5t320 114.5q198 0 325 -109t127 -295q0 -127 -76.5 -223t-218.5 -129v-2q186 -23 291 -132.5t105 -265.5q0 -195 -133 -310.5t-336 -115.5q-120 0 -216 29l23 98q80 -26 182 -26q158 0 261.5 89.5t103.5 240.5t-113 244t-307 93h-88v99h67 q87 0 154 26t106.5 70t59.5 97.5t20 113.5q0 149 -92 232t-245 83q-149 0 -239.5 -88t-90.5 -248v-1130h-113z" />
<glyph unicode="&#xe0;" horiz-adv-x="1052" d="M106 231q0 325 646 351v186q0 93 -58.5 150t-175.5 57q-146 0 -330 -94l-47 92q83 42 183.5 70t195.5 28q175 0 260.5 -83.5t85.5 -221.5v-561q0 -59 29 -90t82 -31v-86q-175 0 -213 141q-62 -74 -155 -119t-203 -45q-134 0 -217 70t-83 186zM219 238q0 -78 56.5 -125 t150.5 -47q104 0 191.5 45.5t134.5 113.5v279q-533 -23 -533 -266zM242 1440l84 65l284 -346h-80z" />
<glyph unicode="&#xe1;" horiz-adv-x="1052" d="M106 231q0 325 646 351v186q0 93 -58.5 150t-175.5 57q-146 0 -330 -94l-47 92q83 42 183.5 70t195.5 28q175 0 260.5 -83.5t85.5 -221.5v-561q0 -59 29 -90t82 -31v-86q-175 0 -213 141q-62 -74 -155 -119t-203 -45q-134 0 -217 70t-83 186zM219 238q0 -78 56.5 -125 t150.5 -47q104 0 191.5 45.5t134.5 113.5v279q-533 -23 -533 -266zM471 1159l285 346l84 -65l-289 -281h-80z" />
<glyph unicode="&#xe2;" horiz-adv-x="1052" d="M106 231q0 325 646 351v186q0 93 -58.5 150t-175.5 57q-146 0 -330 -94l-47 92q83 42 183.5 70t195.5 28q175 0 260.5 -83.5t85.5 -221.5v-561q0 -59 29 -90t82 -31v-86q-175 0 -213 141q-62 -74 -155 -119t-203 -45q-134 0 -217 70t-83 186zM219 238q0 -78 56.5 -125 t150.5 -47q104 0 191.5 45.5t134.5 113.5v279q-533 -23 -533 -266zM219 1159l258 322h127l258 -322h-86l-233 246h-4l-236 -246h-84z" />
<glyph unicode="&#xe3;" horiz-adv-x="1052" d="M106 231q0 325 646 351v186q0 93 -58.5 150t-175.5 57q-146 0 -330 -94l-47 92q83 42 183.5 70t195.5 28q175 0 260.5 -83.5t85.5 -221.5v-561q0 -59 29 -90t82 -31v-86q-175 0 -213 141q-62 -74 -155 -119t-203 -45q-134 0 -217 70t-83 186zM219 238q0 -78 56.5 -125 t150.5 -47q104 0 191.5 45.5t134.5 113.5v279q-533 -23 -533 -266zM258 1227q-10 96 32.5 151.5t117.5 55.5q33 0 64.5 -14.5t56 -35.5t47.5 -42t48 -35.5t48 -14.5q39 0 60.5 32t15.5 89h75q12 -97 -30.5 -153t-116.5 -56q-33 0 -64.5 14.5t-56 35.5t-47.5 42t-48 35.5 t-48 14.5q-41 0 -62 -31.5t-14 -87.5h-78z" />
<glyph unicode="&#xe4;" horiz-adv-x="1052" d="M106 231q0 325 646 351v186q0 93 -58.5 150t-175.5 57q-146 0 -330 -94l-47 92q83 42 183.5 70t195.5 28q175 0 260.5 -83.5t85.5 -221.5v-561q0 -59 29 -90t82 -31v-86q-175 0 -213 141q-62 -74 -155 -119t-203 -45q-134 0 -217 70t-83 186zM219 238q0 -78 56.5 -125 t150.5 -47q104 0 191.5 45.5t134.5 113.5v279q-533 -23 -533 -266zM299 1253v133h115v-133h-115zM670 1253v133h114v-133h-114z" />
<glyph unicode="&#xe5;" horiz-adv-x="1052" d="M106 231q0 325 646 351v186q0 93 -58.5 150t-175.5 57q-146 0 -330 -94l-47 92q83 42 183.5 70t195.5 28q175 0 260.5 -83.5t85.5 -221.5v-561q0 -59 29 -90t82 -31v-86q-175 0 -213 141q-62 -74 -155 -119t-203 -45q-134 0 -217 70t-83 186zM219 238q0 -78 56.5 -125 t150.5 -47q104 0 191.5 45.5t134.5 113.5v279q-533 -23 -533 -266zM340 1350q0 83 58.5 139.5t142.5 56.5q82 0 140 -56.5t58 -139.5t-58 -140t-140 -57q-84 0 -142.5 57t-58.5 140zM399 1350q0 -58 41.5 -100t100.5 -42q58 0 98.5 41.5t40.5 100.5q0 60 -40 100.5t-99 40.5 t-100.5 -40.5t-41.5 -100.5z" />
<glyph unicode="&#xe6;" horiz-adv-x="1777" d="M106 229q-1 78 38 139t100.5 98t150 62.5t174 36.5t185.5 15v188q0 93 -58.5 150t-175.5 57q-152 0 -332 -94l-47 92q196 98 379 98q146 0 224 -63t94 -174q60 113 164.5 175t238.5 62q206 0 310 -125.5t104 -331.5q0 -15 -6 -75h-783q0 -234 99 -350.5t282 -116.5 q84 0 167 28t147 72l55 -80q-74 -54 -172.5 -85.5t-200.5 -31.5q-295 0 -416 228q-61 -98 -170.5 -163t-248.5 -65q-136 0 -219 69.5t-83 184.5zM219 238q0 -78 57 -125t150 -47q117 0 217 59.5t143 161.5q-32 101 -32 215q-78 -3 -146 -10.5t-142 -26t-126.5 -46.5 t-86.5 -74.5t-34 -106.5zM872 623h672q2 75 -14.5 138.5t-51 113.5t-95 78t-140.5 28q-148 0 -248.5 -96.5t-122.5 -261.5z" />
<glyph unicode="&#xe7;" horiz-adv-x="1040" d="M117 537q0 243 134 388.5t347 145.5q187 0 324 -102l-62 -82q-115 86 -260 86q-163 0 -266 -118.5t-103 -317.5q0 -214 100.5 -339.5t268.5 -125.5q87 0 152 26.5t127 77.5l67 -74q-74 -63 -156 -95t-190 -32q-41 -238 -235 -413l-95 47q207 167 250 373 q-185 25 -294 172.5t-109 382.5z" />
<glyph unicode="&#xe8;" horiz-adv-x="1144" d="M119 537q0 241 136.5 387.5t350.5 146.5q207 0 310.5 -125.5t103.5 -331.5q0 -35 -4 -75h-785v-4q0 -222 96 -342.5t285 -120.5q85 0 168.5 28t147.5 72l55 -80q-75 -53 -174.5 -85t-200.5 -32q-237 0 -363 148t-126 414zM238 623h671q2 75 -14.5 138.5t-51 113.5t-95 78 t-140.5 28q-147 0 -247.5 -96t-122.5 -262zM301 1440l84 65l285 -346h-80z" />
<glyph unicode="&#xe9;" horiz-adv-x="1144" d="M119 537q0 241 136.5 387.5t350.5 146.5q207 0 310.5 -125.5t103.5 -331.5q0 -35 -4 -75h-785v-4q0 -222 96 -342.5t285 -120.5q85 0 168.5 28t147.5 72l55 -80q-75 -53 -174.5 -85t-200.5 -32q-237 0 -363 148t-126 414zM238 623h671q2 75 -14.5 138.5t-51 113.5t-95 78 t-140.5 28q-147 0 -247.5 -96t-122.5 -262zM530 1159l285 346l84 -65l-289 -281h-80z" />
<glyph unicode="&#xea;" horiz-adv-x="1144" d="M119 537q0 241 136.5 387.5t350.5 146.5q207 0 310.5 -125.5t103.5 -331.5q0 -35 -4 -75h-785v-4q0 -222 96 -342.5t285 -120.5q85 0 168.5 28t147.5 72l55 -80q-75 -53 -174.5 -85t-200.5 -32q-237 0 -363 148t-126 414zM238 623h671q2 75 -14.5 138.5t-51 113.5t-95 78 t-140.5 28q-147 0 -247.5 -96t-122.5 -262zM281 1159l258 322h127l258 -322h-86l-234 246h-4l-235 -246h-84z" />
<glyph unicode="&#xeb;" horiz-adv-x="1144" d="M119 537q0 241 136.5 387.5t350.5 146.5q207 0 310.5 -125.5t103.5 -331.5q0 -35 -4 -75h-785v-4q0 -222 96 -342.5t285 -120.5q85 0 168.5 28t147.5 72l55 -80q-75 -53 -174.5 -85t-200.5 -32q-237 0 -363 148t-126 414zM238 623h671q2 75 -14.5 138.5t-51 113.5t-95 78 t-140.5 28q-147 0 -247.5 -96t-122.5 -262zM360 1253v133h115v-133h-115zM731 1253v133h115v-133h-115z" />
<glyph unicode="&#xec;" horiz-adv-x="473" d="M-63 1440l83 65l285 -346h-80zM180 0v1042h113v-1042h-113z" />
<glyph unicode="&#xed;" horiz-adv-x="473" d="M168 1159l285 346l84 -65l-289 -281h-80zM180 0v1042h113v-1042h-113z" />
<glyph unicode="&#xee;" horiz-adv-x="473" d="M-84 1159l258 322h127l258 -322h-86l-233 246h-4l-236 -246h-84zM180 0v1042h113v-1042h-113z" />
<glyph unicode="&#xef;" horiz-adv-x="473" d="M-4 1253v133h115v-133h-115zM180 0v1042h113v-1042h-113zM367 1253v133h114v-133h-114z" />
<glyph unicode="&#xf0;" horiz-adv-x="1183" d="M119 469q0 207 119.5 335t316.5 128q206 0 354 -139q-83 237 -286 458q-36 -21 -91 -50t-92 -47l-37 -19l-36 71q122 60 200 105q-100 103 -248 235h142q89 -78 196 -188l197 104l37 -71q-102 -52 -178 -93q352 -390 352 -784q0 -253 -129 -396t-344 -143 q-217 0 -345 135t-128 359zM233 469q0 -182 98 -290.5t261 -108.5q164 0 262 118t98 322q0 67 -18 170q-149 162 -363 162q-155 0 -246.5 -101t-91.5 -272z" />
<glyph unicode="&#xf1;" horiz-adv-x="1159" d="M172 0v1047h102l11 -156q169 180 383 180q325 0 325 -350v-721h-114v723q0 254 -232 254q-208 0 -362 -191v-786h-113zM299 1227q-10 96 32.5 151.5t117.5 55.5q40 0 79 -22t65.5 -49t59 -49t60.5 -22q39 0 60 32t15 89h76q12 -97 -30.5 -153t-116.5 -56q-40 0 -79 22 t-65.5 49t-59 49t-60.5 22q-41 0 -62 -31.5t-14 -87.5h-78z" />
<glyph unicode="&#xf2;" horiz-adv-x="1216" d="M119 537q0 240 138 387t353 147t352.5 -147t137.5 -387q0 -256 -135 -409t-355 -153q-222 0 -356.5 152.5t-134.5 409.5zM233 537q0 -214 102.5 -341.5t274.5 -127.5q169 0 271 128t102 341q0 198 -104.5 319t-268.5 121q-166 0 -271.5 -121t-105.5 -319zM307 1440l84 65 l285 -346h-80z" />
<glyph unicode="&#xf3;" horiz-adv-x="1216" d="M119 537q0 240 138 387t353 147t352.5 -147t137.5 -387q0 -256 -135 -409t-355 -153q-222 0 -356.5 152.5t-134.5 409.5zM233 537q0 -214 102.5 -341.5t274.5 -127.5q169 0 271 128t102 341q0 198 -104.5 319t-268.5 121q-166 0 -271.5 -121t-105.5 -319zM539 1159 l284 346l84 -65l-289 -281h-79z" />
<glyph unicode="&#xf4;" horiz-adv-x="1216" d="M119 537q0 240 138 387t353 147t352.5 -147t137.5 -387q0 -256 -135 -409t-355 -153q-222 0 -356.5 152.5t-134.5 409.5zM233 537q0 -214 102.5 -341.5t274.5 -127.5q169 0 271 128t102 341q0 198 -104.5 319t-268.5 121q-166 0 -271.5 -121t-105.5 -319zM287 1159 l258 322h127l258 -322h-86l-234 246h-4l-235 -246h-84z" />
<glyph unicode="&#xf5;" horiz-adv-x="1216" d="M119 537q0 240 138 387t353 147t352.5 -147t137.5 -387q0 -256 -135 -409t-355 -153q-222 0 -356.5 152.5t-134.5 409.5zM233 537q0 -214 102.5 -341.5t274.5 -127.5q169 0 271 128t102 341q0 198 -104.5 319t-268.5 121q-166 0 -271.5 -121t-105.5 -319zM326 1227 q-10 96 32 151.5t117 55.5q40 0 79 -22t65.5 -49t59 -49t60.5 -22q39 0 60.5 32t15.5 89h76q12 -97 -30.5 -153t-117.5 -56q-40 0 -79 22t-65.5 49t-59 49t-60.5 22q-41 0 -62 -31.5t-14 -87.5h-77z" />
<glyph unicode="&#xf6;" horiz-adv-x="1216" d="M119 537q0 240 138 387t353 147t352.5 -147t137.5 -387q0 -256 -135 -409t-355 -153q-222 0 -356.5 152.5t-134.5 409.5zM233 537q0 -214 102.5 -341.5t274.5 -127.5q169 0 271 128t102 341q0 198 -104.5 319t-268.5 121q-166 0 -271.5 -121t-105.5 -319zM367 1253v133 h114v-133h-114zM737 1253v133h115v-133h-115z" />
<glyph unicode="&#xf7;" horiz-adv-x="1255" d="M104 473v102h1047v-102h-1047zM571 51v185h111v-185h-111zM571 811v186h111v-186h-111z" />
<glyph unicode="&#xf8;" horiz-adv-x="1216" d="M113 -59l141 186q-135 151 -135 410q0 240 138 387t353 147q164 0 289 -92l129 174l66 -51l-136 -174q142 -152 142 -391q0 -256 -135 -409t-355 -153q-172 0 -297 95l-135 -179zM233 537q0 -195 91 -326l514 684q-94 82 -228 82q-166 0 -271.5 -121t-105.5 -319z M373 156q97 -88 237 -88q169 0 271 128t102 341q0 184 -94 305z" />
<glyph unicode="&#xf9;" horiz-adv-x="1161" d="M168 326v721h113v-723q0 -122 53.5 -189t177.5 -67q209 0 365 190v789h112v-1047h-98l-14 154q-172 -179 -383 -179q-326 0 -326 351zM274 1440l84 65l285 -346h-80z" />
<glyph unicode="&#xfa;" horiz-adv-x="1161" d="M168 326v721h113v-723q0 -122 53.5 -189t177.5 -67q209 0 365 190v789h112v-1047h-98l-14 154q-172 -179 -383 -179q-326 0 -326 351zM512 1159l285 346l84 -65l-289 -281h-80z" />
<glyph unicode="&#xfb;" horiz-adv-x="1161" d="M168 326v721h113v-723q0 -122 53.5 -189t177.5 -67q209 0 365 190v789h112v-1047h-98l-14 154q-172 -179 -383 -179q-326 0 -326 351zM258 1159l258 322h127l258 -322h-86l-233 246h-4l-236 -246h-84z" />
<glyph unicode="&#xfc;" horiz-adv-x="1161" d="M168 326v721h113v-723q0 -122 53.5 -189t177.5 -67q209 0 365 190v789h112v-1047h-98l-14 154q-172 -179 -383 -179q-326 0 -326 351zM338 1253v133h115v-133h-115zM709 1253v133h114v-133h-114z" />
<glyph unicode="&#xfd;" horiz-adv-x="997" d="M41 -401l33 94q68 -27 114 -27q65 0 108.5 30.5t72.5 108.5l77 203l-393 1039h121l328 -891h4l319 891h119l-465 -1256q-45 -122 -116 -171.5t-173 -49.5q-75 0 -149 29zM432 1159l285 346l84 -65l-289 -281h-80z" />
<glyph unicode="&#xfe;" horiz-adv-x="1187" d="M180 -410v1956h113v-647q161 172 346 172q195 0 312.5 -142.5t117.5 -389.5q0 -262 -113.5 -413t-314.5 -151q-193 0 -348 172v-557h-113zM293 246q147 -178 328 -178q160 0 247.5 127t87.5 344q0 203 -90.5 320.5t-247.5 117.5q-170 0 -325 -176v-555z" />
<glyph unicode="&#xff;" horiz-adv-x="997" d="M41 -401l33 94q68 -27 114 -27q65 0 108.5 30.5t72.5 108.5l77 203l-393 1039h121l328 -891h4l319 891h119l-465 -1256q-45 -122 -116 -171.5t-173 -49.5q-75 0 -149 29zM260 1253v133h115v-133h-115zM631 1253v133h114v-133h-114z" />
<glyph unicode="&#x152;" horiz-adv-x="2523" d="M123 731q0 156 54.5 292t148 231t222.5 149.5t273 54.5q196 0 354.5 -105.5t233.5 -285.5v367h956v-105h-841v-549h760v-100h-760v-576h856v-104h-971v369q-73 -184 -230 -289t-358 -105q-148 0 -276.5 55t-221.5 152.5t-146.5 239.5t-53.5 309zM240 731 q0 -193 76.5 -342.5t209.5 -230t299 -80.5q164 0 297 80.5t210 230.5t77 342q0 134 -46.5 251t-125.5 198.5t-186.5 128.5t-225.5 47q-162 0 -295.5 -79.5t-211.5 -223t-78 -322.5z" />
<glyph unicode="&#x153;" horiz-adv-x="2011" d="M119 537q0 240 138 387t353 147q158 0 272 -86t158 -237q46 152 161 237.5t272 85.5q106 0 186.5 -34.5t130 -97t74 -144t24.5 -181.5q0 -15 -6 -75h-782q0 -228 96 -347.5t285 -119.5q83 0 166 28t147 72l55 -80q-74 -54 -172 -85.5t-200 -31.5q-176 0 -286 84.5 t-153 243.5q-44 -155 -156.5 -241.5t-271.5 -86.5q-222 0 -356.5 152.5t-134.5 409.5zM233 537q0 -214 102.5 -341.5t274.5 -127.5q169 0 272 128t103 341q0 198 -104.5 319t-270.5 121t-271.5 -121t-105.5 -319zM1104 623h672q2 75 -14.5 138.5t-51 113.5t-95 78t-140.5 28 q-147 0 -248 -96.5t-123 -261.5z" />
<glyph unicode="&#x178;" horiz-adv-x="1333" d="M70 1434h137l459 -738h4l456 738h138l-539 -846v-588h-117v588zM416 1591v133h114v-133h-114zM805 1591v133h115v-133h-115z" />
<glyph unicode="&#x2c6;" horiz-adv-x="1337" d="M350 1159l258 322h127l258 -322h-86l-233 246h-4l-236 -246h-84z" />
<glyph unicode="&#x2dc;" horiz-adv-x="1333" d="M385 1227q-10 96 32.5 151.5t117.5 55.5q40 0 79 -22t65.5 -49t59 -49t60.5 -22q39 0 60 32t15 89h76q12 -97 -30.5 -153t-116.5 -56q-40 0 -79 22t-65.5 49t-59 49t-60.5 22q-41 0 -62 -31.5t-14 -87.5h-78z" />
<glyph unicode="&#x2000;" horiz-adv-x="901" />
<glyph unicode="&#x2001;" horiz-adv-x="1802" />
<glyph unicode="&#x2002;" horiz-adv-x="901" />
<glyph unicode="&#x2003;" horiz-adv-x="1802" />
<glyph unicode="&#x2004;" horiz-adv-x="600" />
<glyph unicode="&#x2005;" horiz-adv-x="450" />
<glyph unicode="&#x2006;" horiz-adv-x="300" />
<glyph unicode="&#x2007;" horiz-adv-x="300" />
<glyph unicode="&#x2008;" horiz-adv-x="225" />
<glyph unicode="&#x2009;" horiz-adv-x="360" />
<glyph unicode="&#x200a;" horiz-adv-x="100" />
<glyph unicode="&#x2010;" horiz-adv-x="763" d="M96 479v103h574v-103h-574z" />
<glyph unicode="&#x2011;" horiz-adv-x="763" d="M96 479v103h574v-103h-574z" />
<glyph unicode="&#x2012;" horiz-adv-x="763" d="M96 479v103h574v-103h-574z" />
<glyph unicode="&#x2013;" horiz-adv-x="1173" d="M98 479v103h977v-103h-977z" />
<glyph unicode="&#x2014;" horiz-adv-x="1875" d="M98 479v103h1678v-103h-1678z" />
<glyph unicode="&#x2018;" d="M150 948v191q0 120 40 189.5t129 109.5l33 -56q-65 -34 -92 -86.5t-27 -134.5h41v-213h-124z" />
<glyph unicode="&#x2019;" d="M72 999q64 34 91 87t27 135h-40v213h124v-191q0 -120 -40.5 -189.5t-129.5 -109.5z" />
<glyph unicode="&#x201a;" d="M72 -221q64 34 91 86.5t27 134.5h-40v213h124v-190q0 -120 -40.5 -189.5t-129.5 -109.5z" />
<glyph unicode="&#x201c;" horiz-adv-x="813" d="M150 948v191q0 120 40 189.5t129 109.5l33 -56q-65 -34 -92 -86.5t-27 -134.5h41v-213h-124zM539 948v191q0 120 40.5 189.5t129.5 109.5l32 -56q-64 -34 -91 -86.5t-27 -134.5h41v-213h-125z" />
<glyph unicode="&#x201d;" horiz-adv-x="813" d="M72 999q64 34 91 87t27 135h-40v213h124v-191q0 -120 -40.5 -189.5t-129.5 -109.5zM461 999q64 34 91.5 87t27.5 135h-41v213h125v-191q0 -120 -40.5 -189.5t-129.5 -109.5z" />
<glyph unicode="&#x201e;" horiz-adv-x="813" d="M72 -221q64 34 91 86.5t27 134.5h-40v213h124v-190q0 -120 -40.5 -189.5t-129.5 -109.5zM461 -221q65 34 92 86.5t27 134.5h-41v213h125v-190q0 -120 -40.5 -189.5t-129.5 -109.5z" />
<glyph unicode="&#x2022;" horiz-adv-x="1120" d="M297 524q0 109 77.5 185.5t186.5 76.5t185.5 -76.5t76.5 -185.5t-76.5 -185.5t-185.5 -76.5t-186.5 76.5t-77.5 185.5z" />
<glyph unicode="&#x2026;" horiz-adv-x="1347" d="M150 0v213h124v-213h-124zM612 0v213h125v-213h-125zM1075 0v213h125v-213h-125z" />
<glyph unicode="&#x202f;" horiz-adv-x="360" />
<glyph unicode="&#x2039;" horiz-adv-x="722" d="M106 524l412 523l80 -64l-369 -459l369 -463l-80 -61z" />
<glyph unicode="&#x203a;" horiz-adv-x="722" d="M125 61l369 463l-369 459l80 64l411 -523l-411 -524z" />
<glyph unicode="&#x205f;" horiz-adv-x="450" />
<glyph unicode="&#x20ac;" horiz-adv-x="1275" d="M66 350v80h184q-10 65 -10 127q0 58 8 105h-182v79h200q54 174 199 277.5t336 103.5q222 0 379 -133l-66 -74q-134 111 -309 111q-150 0 -263 -77.5t-163 -211.5h434v-75h-453q-10 -55 -10 -105q0 -69 12 -127h451v-76h-428q51 -131 162.5 -205.5t259.5 -74.5 q90 0 172 30.5t143 85.5l78 -65q-161 -148 -397 -148q-191 0 -333.5 100t-199.5 273h-204z" />
<glyph unicode="&#x2122;" horiz-adv-x="1792" d="M76 1352v82h702v-82h-309v-676h-92v676h-301zM915 676v758h105l268 -361l268 361h105v-758h-90v629l-281 -373l-282 375v-631h-93z" />
<glyph unicode="&#x25fc;" horiz-adv-x="1044" d="M0 0v1044h1044v-1044h-1044z" />
</font>
</defs>
</svg>
