<?xml version="1.0" standalone="no"?>
<!DOCTYPE svg PUBLIC "-//W3C//DTD SVG 1.1//EN" "http://www.w3.org/Graphics/SVG/1.1/DTD/svg11.dtd" >
<svg xmlns="http://www.w3.org/2000/svg">
<metadata></metadata>
<defs>
<font id="freightregular" horiz-adv-x="806" >
<font-face units-per-em="2048" ascent="1638" descent="-410" />
<missing-glyph horiz-adv-x="315" />
<glyph horiz-adv-x="0" />
<glyph horiz-adv-x="682" />
<glyph unicode=" "  horiz-adv-x="315" />
<glyph unicode="&#x09;" horiz-adv-x="315" />
<glyph unicode="&#xa0;" horiz-adv-x="315" />
<glyph unicode="!" horiz-adv-x="563" d="M150 102q0 55 38 92t97 37q56 0 92.5 -37t36.5 -92t-36.5 -94t-92.5 -39q-59 0 -97 39t-38 94zM182 1335h203l-51 -938h-98z" />
<glyph unicode="&#x22;" horiz-adv-x="622" d="M-10 815l235 506l154 -74l-320 -432h-69zM297 815l235 506l154 -74l-319 -432h-70z" />
<glyph unicode="#" horiz-adv-x="1146" d="M37 328v118h213l82 299h-254v119h284l121 451h123l-121 -451h328l121 451h123l-121 -451h182v-119h-215l-80 -299h254v-118h-284l-129 -480h-123l129 480h-328l-129 -480h-123l129 480h-182zM373 446h327l82 299h-329z" />
<glyph unicode="$" horiz-adv-x="1034" d="M63 90l58 158q131 -84 254 -113l61 449q-59 17 -104 34.5t-94 47.5t-81 67t-52.5 93t-20.5 124q0 161 118 261t308 100h35l24 184h99l-27 -195q157 -26 274 -102l-61 -151q-102 70 -233 96l-56 -410q62 -16 111 -35t100.5 -50.5t85.5 -70.5t56 -97t22 -128 q0 -167 -125.5 -275t-325.5 -108h-38q1 0 0.5 -5.5t-2.5 -17.5t-3.5 -24t-4.5 -31t-5 -32q-7 -38 -14 -111h-98l30 234q-159 23 -291 108zM254 963q0 -77 52 -123t165 -80l53 393h-12q-132 0 -195 -52t-63 -138zM473 125h21q124 0 201 59.5t77 155.5q0 84 -56 131t-186 86z " />
<glyph unicode="%" horiz-adv-x="1515" d="M29 987q0 144 93.5 243t246.5 99q154 0 247 -99t93 -243q0 -140 -93.5 -239t-246.5 -99q-152 0 -246 99t-94 239zM139 987q0 -96 63 -163.5t167 -67.5t166.5 67.5t62.5 163.5q0 102 -61.5 169t-167.5 67t-168 -67.5t-62 -168.5zM184 -31l1020 1340h129l-1020 -1340h-129z M807 291q0 140 93.5 239t246.5 99q152 0 246 -99t94 -239q0 -144 -93.5 -243t-246.5 -99q-154 0 -247 99t-93 243zM918 291q0 -102 61.5 -169t167.5 -67t167.5 67t61.5 169q0 96 -62.5 163.5t-166.5 67.5t-166.5 -67.5t-62.5 -163.5z" />
<glyph unicode="&#x26;" horiz-adv-x="1273" d="M47 330q0 124 87.5 215.5t223.5 130.5q-211 114 -211 301q0 62 26 121t72.5 106.5t120.5 76t162 28.5q164 0 257.5 -92.5t93.5 -221.5q0 -100 -67 -178t-177 -123q56 -29 129 -91.5t137 -135.5l197 307h196l-313 -399l311 -375l-182 -31l-225 289q-204 -289 -449 -289 q-180 0 -284.5 103.5t-104.5 257.5zM219 344q0 -97 63.5 -162t176.5 -65q191 0 352 231q-195 222 -352 277q-240 -114 -240 -281zM319 989q0 -85 50.5 -141.5t158.5 -102.5q185 80 185 236q0 81 -54 132.5t-145 51.5q-89 0 -142 -52t-53 -124z" />
<glyph unicode="'" horiz-adv-x="315" d="M-10 815l235 506l154 -74l-320 -432h-69z" />
<glyph unicode="(" horiz-adv-x="745" d="M137 449q0 146 36.5 284.5t95.5 244.5t135.5 197t152.5 151.5t152 98.5l73 -106q-87 -48 -171.5 -128t-159 -188.5t-120.5 -254t-46 -299.5t46 -298.5t120.5 -253.5t159 -189t171.5 -128l-71 -106q-77 37 -154 97.5t-153.5 151t-135 196.5t-95 244.5t-36.5 285.5z" />
<glyph unicode=")" horiz-adv-x="745" d="M-37 -420q69 38 137.5 95.5t134 139.5t115.5 176.5t80.5 214t30.5 243.5q0 125 -30.5 244.5t-80.5 214t-115.5 177t-134 139.5t-137.5 95l74 106q76 -38 152.5 -98.5t153 -151.5t134.5 -197.5t94.5 -244.5t36.5 -284q0 -147 -36.5 -285.5t-95 -244.5t-135 -196.5 t-153 -151t-153.5 -97.5z" />
<glyph unicode="*" horiz-adv-x="702" d="M20 846l289 125v10l-280 129l102 145l209 -237l8 2l39 307l166 -53l-160 -270l6 -7l295 60v-172l-295 61l-6 -6l154 -272l-166 -50l-35 310l-6 2l-207 -228z" />
<glyph unicode="+" horiz-adv-x="991" d="M82 408l6 145h340v346h143v-346h336l6 -145h-342v-349h-143v349h-346z" />
<glyph unicode="," horiz-adv-x="450" d="M23 -266q208 150 208 260q0 39 -31.5 68t-115.5 67q6 53 41 87t98 34q66 0 120 -55t54 -134q0 -60 -25 -117.5t-71 -108t-94.5 -90.5t-112.5 -83z" />
<glyph unicode="-" horiz-adv-x="634" d="M68 418v157h503v-157h-503z" />
<glyph unicode="." horiz-adv-x="450" d="M96 102q0 55 37 92t96 37q56 0 92.5 -37t36.5 -92t-36.5 -94t-92.5 -39q-59 0 -96 39t-37 94z" />
<glyph unicode="/" horiz-adv-x="444" d="M-106 -408l497 1846h123l-498 -1846h-122z" />
<glyph unicode="0" horiz-adv-x="1181" d="M96 483q0 227 138 370.5t356 143.5q217 0 356 -143.5t139 -370.5t-139 -370.5t-356 -143.5q-218 0 -356 143.5t-138 370.5zM264 483q0 -155 90.5 -254.5t235.5 -99.5q147 0 237.5 99.5t90.5 254.5t-91 255t-237 100q-145 0 -235.5 -100t-90.5 -255z" />
<glyph unicode="1" horiz-adv-x="702" d="M86 864l410 135v-999h-166v786l-238 -75z" />
<glyph unicode="2" horiz-adv-x="935" d="M94 0v145q39 29 105 76.5t102.5 74t90.5 68t84.5 68t66.5 62.5t54 64t31 59.5t13 60.5q0 73 -52 117.5t-143 44.5q-134 0 -290 -117l-60 143q165 131 369 131q157 0 255.5 -82.5t98.5 -216.5q0 -74 -24.5 -135t-93.5 -128t-117 -104.5t-166 -121.5q-45 -32 -68 -49h514 v-160h-770z" />
<glyph unicode="3" horiz-adv-x="894" d="M37 -305l31 158q122 -82 317 -82q134 0 213.5 61.5t79.5 179.5q0 102 -75.5 156t-203.5 59q-90 3 -188 -16v145q414 96 414 293q0 92 -60.5 141.5t-171.5 49.5q-136 0 -295 -119l-59 143q168 133 373 133q185 0 291 -90t106 -233q0 -109 -73.5 -195t-182.5 -131 q145 -24 223 -115.5t78 -207.5q0 -125 -63.5 -218.5t-169.5 -141.5t-238 -48q-97 0 -191 20.5t-155 57.5z" />
<glyph unicode="4" horiz-adv-x="1071" d="M37 119l661 880h150v-819h194l7 -160h-201v-397h-164v397h-631zM272 180h412v557z" />
<glyph unicode="5" horiz-adv-x="878" d="M37 -295l31 166q175 -94 327 -94q123 0 200 74.5t77 197.5q0 108 -77 182t-212 74q-85 0 -137 -8t-115 -27l-45 41l84 658h639l6 -166h-508l-49 -363q75 11 145 11q201 0 321 -108t120 -286q0 -129 -61.5 -230.5t-164 -155.5t-225.5 -54q-99 0 -194.5 24.5t-161.5 63.5z " />
<glyph unicode="6" horiz-adv-x="1056" d="M88 502q0 107 27.5 209t85 196t140 171.5t197.5 137t253 91.5l51 -160q-475 -118 -572 -479l4 -2q67 63 143.5 95t182.5 32q157 0 266 -111.5t109 -286.5q0 -184 -119.5 -305t-316.5 -121q-140 0 -244 73t-155.5 192.5t-51.5 267.5zM266 449q0 -134 77.5 -229t203.5 -95 q118 0 188 72t70 190q0 116 -69.5 186t-180.5 70q-81 0 -156.5 -32.5t-122.5 -75.5q-10 -42 -10 -86z" />
<glyph unicode="7" horiz-adv-x="933" d="M35 803l6 166h850v-146l-578 -1200h-172l568 1180h-674z" />
<glyph unicode="8" horiz-adv-x="1038" d="M90 315q0 114 78.5 204.5t167.5 113.5q-51 28 -87 53.5t-70 60.5t-51 80t-17 99q0 159 113.5 260.5t307.5 101.5q99 0 176.5 -28.5t124.5 -77.5t71 -110t24 -130q0 -107 -64.5 -189t-150.5 -118q109 -53 172 -125t63 -178q0 -154 -114 -258.5t-316 -104.5 q-104 0 -187 27.5t-135 75.5t-79 110t-27 133zM260 334q0 -97 74 -156t192 -59q122 0 186 49.5t64 142.5q0 29 -10 55t-23.5 46t-41 41.5t-48 34.5t-60.5 32.5t-62 29t-68 28.5q-94 -31 -148.5 -94.5t-54.5 -149.5zM281 944q0 -26 9.5 -50t22.5 -42.5t39.5 -38.5t46.5 -33 t58.5 -31.5t61 -28l67.5 -28.5q80 33 126 92.5t46 139.5q0 100 -66 157.5t-168 57.5q-114 0 -178.5 -56t-64.5 -139z" />
<glyph unicode="9" horiz-adv-x="1056" d="M82 571q0 184 120 305t316 121q140 0 244 -73t155.5 -192t51.5 -267q0 -135 -44.5 -260t-129.5 -233t-221 -189.5t-308 -122.5l-51 160q474 118 571 479l-4 2q-67 -64 -143.5 -95.5t-181.5 -31.5q-157 0 -266 111t-109 286zM252 580q0 -116 69.5 -186t180.5 -70 q81 0 156 32t122 76q11 46 11 86q0 134 -77.5 229t-203.5 95q-118 0 -188 -72t-70 -190z" />
<glyph unicode=":" horiz-adv-x="450" d="M96 102q0 55 37 92t96 37q56 0 92.5 -37t36.5 -92t-36.5 -94t-92.5 -39q-59 0 -96 39t-37 94zM96 733q0 55 37 92t96 37q56 0 92.5 -37t36.5 -92t-36.5 -94t-92.5 -39q-59 0 -96 39t-37 94z" />
<glyph unicode=";" horiz-adv-x="450" d="M23 -266q208 150 208 260q0 39 -31.5 68t-115.5 67q6 53 41 87t98 34q66 0 120 -55t54 -134q0 -60 -25 -117.5t-71 -108t-94.5 -90.5t-112.5 -83zM96 733q0 55 37 92t96 37q56 0 92.5 -37t36.5 -92t-36.5 -94t-92.5 -39q-59 0 -96 39t-37 94z" />
<glyph unicode="&#x3c;" horiz-adv-x="970" d="M68 422v121l821 387v-162l-608 -276v-21l610 -274v-162z" />
<glyph unicode="=" horiz-adv-x="950" d="M70 221l10 146h794l11 -146h-815zM70 739h815l-11 -145h-794z" />
<glyph unicode="&#x3e;" horiz-adv-x="970" d="M59 35v162l611 274v21l-609 276v162l822 -387v-121z" />
<glyph unicode="?" horiz-adv-x="729" d="M104 1133v157q74 19 156 19q167 0 278 -97.5t111 -232.5q0 -64 -18 -112t-53 -78t-66 -46.5t-78 -33.5q-38 -14 -52 -19.5t-40.5 -19t-36.5 -24.5t-19.5 -28.5t-9.5 -39.5q0 -29 18 -62t38.5 -55.5t56.5 -57.5l-80 -24q-65 37 -112 98t-47 133q0 49 16.5 86.5t49.5 63.5 t62.5 41t75.5 33q36 14 52 20.5t43 20.5t39 26.5t22 32t10 43.5q0 73 -71 122.5t-201 49.5q-40 0 -144 -16zM176 102q0 54 38 91.5t95 37.5q59 0 95 -37t36 -92q0 -56 -36.5 -94.5t-94.5 -38.5q-56 0 -94.5 39t-38.5 94z" />
<glyph unicode="@" horiz-adv-x="1695" d="M76 496q0 163 62 312.5t167.5 259t254 174.5t314.5 65q150 0 287 -48t240.5 -134.5t165 -215.5t61.5 -282q0 -126 -33.5 -229.5t-90.5 -169.5t-129.5 -102t-151.5 -36q-85 0 -146 39t-90 111q-106 -121 -242 -121q-129 0 -212.5 96.5t-83.5 239.5q0 125 57 232t157 170 t220 63q88 0 194 -48l142 48l-99 -498q-43 -219 125 -219q125 0 209 112.5t84 311.5q0 133 -56 247.5t-149 190.5t-212.5 119t-246.5 43q-145 0 -277 -59.5t-226 -158t-149.5 -233t-55.5 -278.5q0 -185 82 -338.5t231.5 -244.5t335.5 -91q118 0 252 41l23 -76 q-146 -47 -279 -47q-157 0 -294.5 59t-234 159.5t-151.5 240t-55 295.5zM590 471q0 -104 56 -167.5t142 -63.5q51 0 91.5 18.5t85.5 56.5l82 410q-32 34 -80 55t-101 21q-119 0 -197.5 -101t-78.5 -229z" />
<glyph unicode="A" horiz-adv-x="1175" d="M10 0l482 1280h198l475 -1280h-178l-121 336h-555l-121 -336h-180zM369 494h440l-219 606z" />
<glyph unicode="B" horiz-adv-x="1159" d="M162 0v1280h424q224 0 335 -91t111 -249q0 -198 -219 -281q127 -32 193.5 -109.5t66.5 -187.5q0 -169 -118 -265.5t-357 -96.5h-436zM336 160h278q285 0 285 200q0 105 -83.5 153t-227.5 48h-252v-401zM336 719h237q137 0 211 55.5t74 151.5q0 93 -66 143.5t-192 50.5 h-264v-401z" />
<glyph unicode="C" horiz-adv-x="1230" d="M94 637q0 150 48 277t133 213.5t203.5 135t256.5 48.5q110 0 219 -28.5t187 -78.5l-56 -157q-88 56 -170 82t-180 26q-211 0 -338 -137t-127 -373q0 -237 128.5 -378.5t340.5 -141.5q101 0 197 34.5t166 90.5l28 -174q-79 -50 -183 -78.5t-212 -28.5q-285 0 -463 182.5 t-178 485.5z" />
<glyph unicode="D" horiz-adv-x="1318" d="M162 0v1280h385q315 0 496.5 -171.5t181.5 -459.5q0 -300 -180 -474.5t-506 -174.5h-377zM336 162h211q234 0 369 122.5t135 352.5q0 236 -132.5 358.5t-379.5 122.5h-203v-956z" />
<glyph unicode="E" horiz-adv-x="1071" d="M162 0v1280h811v-162h-637v-395h530v-162h-530v-399h637v-162h-811z" />
<glyph unicode="F" horiz-adv-x="1013" d="M162 0v1280h790v-164h-616v-416h510v-161h-510v-539h-174z" />
<glyph unicode="G" horiz-adv-x="1310" d="M94 637q0 150 48 277t133 213.5t203.5 135t256.5 48.5q113 0 230 -30t196 -81l-57 -160q-181 115 -369 115q-211 0 -338 -137t-127 -373q0 -237 128.5 -378.5t340.5 -141.5q152 0 279 65v304h-359v161h527v-563q-96 -59 -218.5 -91t-232.5 -32q-285 0 -463 182.5 t-178 485.5z" />
<glyph unicode="H" horiz-adv-x="1372" d="M162 0v1280h174v-557h702v557h172v-1280h-172v565h-702v-565h-174z" />
<glyph unicode="I" horiz-adv-x="505" d="M166 0v1280h172v-1280h-172z" />
<glyph unicode="J" horiz-adv-x="856" d="M29 49l26 168q131 -90 254 -90q110 0 162.5 67t52.5 203v883h172v-891q0 -196 -95.5 -308t-289.5 -112q-155 0 -282 80z" />
<glyph unicode="K" horiz-adv-x="1122" d="M162 0v1280h174v-610h2l543 610h219l-592 -633l598 -647h-223l-545 608h-2v-608h-174z" />
<glyph unicode="L" horiz-adv-x="1011" d="M162 0v1280h174v-1116h618v-164h-792z" />
<glyph unicode="M" horiz-adv-x="1581" d="M127 0l43 1280h231l394 -1053l391 1053h227l41 -1280h-176l-12 1065l-389 -1047h-175l-391 1049l-14 -1067h-170z" />
<glyph unicode="N" horiz-adv-x="1368" d="M162 0v1280h192l682 -1032v1032h170v-1292h-188l-686 1044v-1032h-170z" />
<glyph unicode="O" horiz-adv-x="1474" d="M94 637q0 190 81.5 343.5t229 242t332.5 88.5q139 0 258 -48t204 -133.5t133 -210.5t48 -274q0 -190 -81.5 -344t-229 -243t-332.5 -89q-140 0 -258.5 47.5t-203.5 133.5t-133 211.5t-48 275.5zM270 645q0 -237 129.5 -378.5t341.5 -141.5q204 0 334.5 142.5t130.5 369.5 q0 235 -131 376.5t-342 141.5q-205 0 -334 -141t-129 -369z" />
<glyph unicode="P" horiz-adv-x="1099" d="M162 0v1280h354q254 0 381 -112.5t127 -301.5q0 -212 -137.5 -323.5t-382.5 -116.5l-168 -2v-424h-174zM336 588l186 4q160 4 243 72.5t83 193.5q0 260 -340 260h-172v-530z" />
<glyph unicode="Q" horiz-adv-x="1474" d="M94 637q0 190 81.5 343.5t229 242t332.5 88.5q139 0 258 -48t204 -133.5t133 -210.5t48 -274q0 -206 -98.5 -369.5t-265.5 -240.5l403 -201l-76 -151l-550 290q-32 -4 -56 -4q-140 0 -258.5 47.5t-203.5 133.5t-133 211.5t-48 275.5zM270 645q0 -237 129.5 -379.5 t341.5 -142.5q204 0 334.5 142.5t130.5 371.5q0 235 -131 376.5t-342 141.5q-205 0 -334 -141t-129 -369z" />
<glyph unicode="R" horiz-adv-x="1116" d="M162 0v1280h383q229 0 350 -100t121 -275q0 -275 -289 -368l346 -537h-207l-311 508l-219 -14v-494h-174zM336 647l211 6q131 5 213 68t82 176t-83 168t-235 55h-188v-473z" />
<glyph unicode="S" horiz-adv-x="1042" d="M74 90l57 158q186 -123 375 -123q124 0 201 59.5t77 155.5q0 94 -69 142.5t-238 92.5q-64 17 -111 34t-101.5 48t-89 68t-58 95t-23.5 130q0 161 118.5 261t309.5 100q224 0 404 -113l-62 -151q-74 50 -164 78t-176 28q-132 0 -196 -52.5t-64 -137.5q0 -38 13.5 -68.5 t36.5 -52.5t64.5 -41.5t85.5 -34.5t111 -33q62 -16 111.5 -35t101 -50.5t86 -70.5t56.5 -97t22 -128q0 -167 -125 -275t-325 -108q-242 0 -428 121z" />
<glyph unicode="T" horiz-adv-x="1146" d="M39 1116v164h1069v-164h-449v-1116h-172v1116h-448z" />
<glyph unicode="U" horiz-adv-x="1323" d="M160 475v805h172v-778q0 -177 84.5 -273t253.5 -96q153 0 237 89.5t84 266.5v791h172v-786q0 -247 -128.5 -386t-375.5 -139q-238 0 -368.5 136.5t-130.5 369.5z" />
<glyph unicode="V" horiz-adv-x="1153" d="M0 1280h178l397 -1094l398 1094h180l-479 -1280h-201z" />
<glyph unicode="W" horiz-adv-x="1839" d="M63 1280h183l276 -1042l301 1042h201l309 -1042l273 1042h170l-363 -1280h-174l-317 1065l-324 -1065h-170z" />
<glyph unicode="X" horiz-adv-x="1175" d="M25 0l458 643l-444 637h213l334 -502l344 502h207l-449 -627l463 -653h-217l-350 526l-355 -526h-204z" />
<glyph unicode="Y" horiz-adv-x="1105" d="M20 1280h197l340 -598l336 598h192l-444 -772v-508h-174v510z" />
<glyph unicode="Z" horiz-adv-x="1067" d="M47 0v131l725 987h-713v162h930v-135l-723 -983h721v-162h-940z" />
<glyph unicode="[" horiz-adv-x="749" d="M170 -455v1837h561v-133h-416v-1571h416v-133h-561z" />
<glyph unicode="\" horiz-adv-x="444" d="M-70 1438h123l498 -1846h-123z" />
<glyph unicode="]" horiz-adv-x="749" d="M20 -322h416v1571h-416v133h562v-1837h-562v133z" />
<glyph unicode="^" d="M84 1065l235 383h181l235 -383h-123l-200 260h-2l-203 -260h-123z" />
<glyph unicode="_" horiz-adv-x="944" d="M-25 0h994v-121h-994v121z" />
<glyph unicode="`" d="M145 1436h205l217 -371h-123z" />
<glyph unicode="a" horiz-adv-x="923" d="M68 238q0 54 16 98.5t55 86t101.5 72t160.5 51t226 27.5v27q0 116 -48 164.5t-163 48.5q-70 0 -152.5 -29t-150.5 -75l-33 151q66 46 161.5 77.5t190.5 31.5q193 0 280 -87q83 -83 83 -261v-17v-393q0 -58 16 -75t76 -17l-10 -142q-23 -2 -43 -2q-162 0 -201 125h-8 q-112 -131 -258 -131q-131 0 -215 76.5t-84 192.5zM246 258q0 -64 44.5 -104.5t121.5 -40.5q119 0 215 100v254q-208 -26 -294.5 -74t-86.5 -135z" />
<glyph unicode="b" horiz-adv-x="1071" d="M145 -31v1411l168 27v-555q126 117 262 117q129 0 225 -65t144.5 -177t48.5 -254q0 -141 -60 -256t-169.5 -181.5t-247.5 -66.5q-101 0 -203 31zM313 188q82 -67 209 -67q138 0 217.5 100t79.5 248q0 157 -74.5 250.5t-203.5 93.5q-125 0 -228 -90v-535z" />
<glyph unicode="c" horiz-adv-x="933" d="M84 469q0 223 133.5 361.5t339.5 138.5q175 0 303 -80l-43 -154q-116 78 -260 78q-145 0 -222 -90t-77 -252t80 -254t215 -92q154 0 270 78l31 -156q-128 -78 -309 -78q-217 0 -339 136.5t-122 363.5z" />
<glyph unicode="d" horiz-adv-x="1077" d="M84 465q0 141 60 256t169.5 181.5t247.5 66.5q101 0 203 -31v442l168 27v-1407h-168v86q-126 -117 -262 -117q-129 0 -225 65t-144.5 177t-48.5 254zM258 469q0 -157 75 -250.5t204 -93.5q124 0 227 90v535q-82 67 -209 67q-138 0 -217.5 -100t-79.5 -248z" />
<glyph unicode="e" horiz-adv-x="983" d="M84 459q0 225 132 367.5t331 142.5q170 0 264 -99t94 -268q0 -90 -20 -149h-99q-137 0 -217 -2q-92 -2 -315 -2v-9q5 -139 90 -227t219 -88q165 0 281 78l30 -156q-128 -78 -315 -78q-211 0 -343 137t-132 353zM262 571l481 4v15q0 108 -53 169.5t-160 61.5 q-114 0 -184.5 -74t-83.5 -176z" />
<glyph unicode="f" horiz-adv-x="647" d="M16 797l9 106l153 45l2 119q4 189 83.5 273.5t225.5 84.5q97 0 189 -45q0 -2 -10 -41t-20.5 -76.5t-10.5 -35.5q-98 41 -150 41q-72 0 -105.5 -47t-33.5 -152v-131h297l-6 -152h-291v-786h-168v784z" />
<glyph unicode="g" horiz-adv-x="974" d="M14 -233q0 82 52.5 141.5t148.5 77.5q-123 54 -123 157q0 60 42 109t114 74q-75 43 -115.5 117t-40.5 171q0 146 103 250.5t278 104.5q124 0 242 -54l241 23l7 -166l-181 33q28 -25 46 -81t18 -112q0 -143 -106.5 -243.5t-268.5 -100.5q-52 0 -131 23q-35 -12 -63.5 -39 t-28.5 -59q0 -30 16 -48t64 -29.5t133 -11.5h86q209 0 309 -62.5t100 -188.5q0 -101 -66.5 -184t-182 -130t-256.5 -47q-188 0 -312.5 75.5t-124.5 199.5zM180 -197q0 -76 82 -125t215 -49t224.5 53t91.5 138q0 74 -65.5 100.5t-215.5 26.5q-115 0 -170 8 q-75 -21 -118.5 -60.5t-43.5 -91.5zM260 612q0 -95 58.5 -152t160.5 -57q92 0 146.5 60.5t54.5 159.5q0 96 -55 153.5t-160 57.5q-92 0 -148.5 -61.5t-56.5 -160.5z" />
<glyph unicode="h" horiz-adv-x="1058" d="M145 0v1380l168 27v-576q138 138 316 138q136 0 214.5 -85.5t78.5 -238.5v-645h-168v590q0 119 -44.5 168t-140.5 49q-76 0 -142.5 -29.5t-113.5 -72.5v-705h-168z" />
<glyph unicode="i" horiz-adv-x="458" d="M119 1266q0 51 28 85.5t82 34.5t82.5 -34.5t28.5 -85.5t-28.5 -86t-82.5 -35t-82 35t-28 86zM145 0v942l168 27v-969h-168z" />
<glyph unicode="j" horiz-adv-x="452" d="M-18 -391q90 42 126.5 116t36.5 224v993l168 27v-1008q0 -199 -48.5 -301.5t-170.5 -169.5zM119 1266q0 51 28 85.5t82 34.5t82.5 -34.5t28.5 -85.5t-28.5 -86t-82.5 -35t-82 35t-28 86z" />
<glyph unicode="k" horiz-adv-x="933" d="M145 0v1380l168 27v-899h4l388 430h213l-431 -444l433 -494h-215l-388 463h-4v-463h-168z" />
<glyph unicode="l" horiz-adv-x="458" d="M145 0v1380l168 27v-1407h-168z" />
<glyph unicode="m" horiz-adv-x="1622" d="M145 0v942l168 27v-129q135 129 301 129q83 0 147 -39.5t99 -116.5q156 156 340 156q130 0 207.5 -87t77.5 -241v-641h-168v586q0 121 -43 172t-137 51q-123 0 -238 -107v-57v-645h-168v586q0 121 -43 172t-137 51q-134 0 -238 -96v-713h-168z" />
<glyph unicode="n" horiz-adv-x="1058" d="M145 0v942l168 27v-142q142 142 305 142q143 0 223.5 -85.5t80.5 -238.5v-645h-168v590q0 120 -46 168.5t-149 48.5q-69 0 -134.5 -29.5t-111.5 -72.5v-705h-168z" />
<glyph unicode="o" horiz-adv-x="1081" d="M84 469q0 224 130 363t333 139q202 0 326 -137.5t124 -364.5q0 -223 -130 -361.5t-330 -138.5q-201 0 -327 137t-126 363zM250 471q0 -155 78.5 -252.5t214.5 -97.5q138 0 213 95t75 251t-78 254t-214 98q-138 0 -213.5 -95t-75.5 -253z" />
<glyph unicode="p" horiz-adv-x="1077" d="M145 -477v1419l168 27v-117q126 117 262 117q129 0 225 -65t144.5 -177t48.5 -254q0 -141 -60 -256t-169.5 -181.5t-247.5 -66.5q-111 0 -203 25v-471h-168zM313 188q82 -67 209 -67q138 0 217.5 100t79.5 248q0 157 -74.5 250.5t-203.5 93.5q-125 0 -228 -90v-535z" />
<glyph unicode="q" horiz-adv-x="1077" d="M84 465q0 141 60 256t169.5 181.5t247.5 66.5q111 0 240 -35l131 35v-1446h-168v563q-126 -117 -262 -117q-129 0 -225 65t-144.5 177t-48.5 254zM258 469q0 -157 75 -252.5t204 -95.5q119 0 227 94v535q-83 71 -209 71q-138 0 -217.5 -100.5t-79.5 -251.5z" />
<glyph unicode="r" horiz-adv-x="780" d="M145 0v942l168 27v-166q53 83 114 124.5t148 41.5q100 0 177 -47l-43 -158q-71 43 -150 43q-139 0 -246 -195v-612h-168z" />
<glyph unicode="s" horiz-adv-x="821" d="M63 55l43 154q59 -41 137.5 -64.5t151.5 -23.5q82 0 134.5 36t52.5 97q0 42 -34.5 73t-67.5 44t-104 34q-5 2 -8.5 3t-7.5 2q-46 13 -81 27t-74 37t-64 50.5t-42 68.5t-17 91q0 127 96 206t240 79q160 0 303 -70l-43 -154q-59 32 -133 51t-135 19q-76 0 -121 -30.5 t-45 -86.5q0 -22 6.5 -40t25 -33t32 -24.5t46.5 -20.5t49 -16t58 -17q60 -17 103.5 -36t88.5 -51t68.5 -81t23.5 -113q0 -133 -99.5 -216t-254.5 -83q-87 0 -174.5 23.5t-153.5 64.5z" />
<glyph unicode="t" horiz-adv-x="694" d="M14 797l6 106l156 47l4 203h162l-6 -215h293l-6 -152h-293l-15 -530v-6q0 -127 123 -127q86 0 170 35q2 0 17 -74q7 -27 14 -74q-109 -41 -211 -41q-140 0 -208 71q-65 67 -64 206v16l14 524z" />
<glyph unicode="u" horiz-adv-x="1058" d="M137 293v645h168v-590q0 -119 44.5 -168t139.5 -49q76 0 142.5 29.5t113.5 72.5v705h168v-942l-168 -27v137q-137 -137 -315 -137q-136 0 -214.5 85.5t-78.5 238.5z" />
<glyph unicode="v" horiz-adv-x="903" d="M4 938h180l275 -729l262 729h178l-369 -940h-155z" />
<glyph unicode="w" horiz-adv-x="1400" d="M29 938h180l199 -696l217 692h153l240 -694l172 698h186l-282 -942h-154l-240 700l-229 -700h-154z" />
<glyph unicode="x" horiz-adv-x="847" d="M2 0l322 479l-304 459h189l215 -338l205 338h192l-297 -455l322 -483h-189l-233 367l-229 -367h-193z" />
<glyph unicode="y" horiz-adv-x="903" d="M-68 -438l50 155q88 -45 149 -45q56 0 94 41.5t86 161.5l58 145l-365 918h180l273 -729l264 729h178l-375 -948l-63 -168q-62 -173 -139.5 -241t-190.5 -68q-99 0 -199 49z" />
<glyph unicode="z" horiz-adv-x="839" d="M43 0v143l545 641h-527v154h730v-139l-545 -645h545v-154h-748z" />
<glyph unicode="{" horiz-adv-x="694" d="M43 473l6 82q137 11 193.5 46t56.5 122q0 54 -24 124t-48 147t-24 147q0 137 113 201t343 75v-117q-164 -12 -234.5 -47t-70.5 -102q0 -41 15.5 -93t34 -94t34 -100.5t15.5 -111.5q0 -119 -72 -190.5t-205 -78.5v-20q134 -10 205.5 -81t71.5 -189q0 -53 -15.5 -110.5 t-34 -99.5t-34 -92t-15.5 -90q0 -70 71 -107.5t234 -47.5v-115q-230 11 -343 74.5t-113 199.5q0 70 24 148t48 148t24 122q0 85 -57.5 121t-192.5 47z" />
<glyph unicode="|" horiz-adv-x="464" d="M164 -408v1846h137v-1846h-137z" />
<glyph unicode="}" horiz-adv-x="694" d="M35 -354q163 10 234 47t71 106q0 49 -24 115.5t-48 139.5t-24 139q0 119 69.5 189.5t204.5 80.5v20q-134 7 -204 78.5t-70 190.5q0 67 24 140.5t48 140.5t24 118q0 67 -70.5 102t-234.5 47v117q231 -11 344 -75t113 -201q0 -70 -25 -147t-49.5 -147t-24.5 -124 q0 -87 57.5 -122t194.5 -46l6 -82l-6 -82q-136 -11 -194 -47t-58 -121q0 -52 24.5 -122t49.5 -148t25 -148q0 -137 -113 -200t-344 -74v115z" />
<glyph unicode="~" d="M57 379q14 135 60.5 197.5t138.5 62.5q42 0 90.5 -22.5t84.5 -49t74.5 -49t63.5 -22.5q30 0 48 28.5t28 98.5h115q-14 -133 -60.5 -195.5t-138.5 -62.5q-42 0 -90.5 22t-84.5 48.5t-74.5 48.5t-63.5 22q-30 0 -49 -28.5t-29 -98.5h-113z" />
<glyph unicode="&#xa1;" horiz-adv-x="563" d="M150 1176q0 56 36.5 94.5t94.5 38.5q56 0 94.5 -39t38.5 -94q0 -54 -38 -91.5t-95 -37.5q-59 0 -95 37t-36 92zM178 -57l53 938h99l53 -938h-205z" />
<glyph unicode="&#xa2;" horiz-adv-x="911" d="M84 469q0 224 131.5 362t337.5 138h18l25 184h100l-26 -195q100 -14 190 -69l-43 -154q-77 53 -168 68l-90 -678q151 0 264 78l31 -156q-128 -78 -305 -78h-12q1 0 0.5 -5.5t-2.5 -17.5t-3.5 -24t-4.5 -31t-5 -32q-7 -38 -14 -111h-100l30 232q-164 35 -259 166t-95 323z M258 471q0 -132 53 -218t148 -116l92 676q-141 -1 -217 -91t-76 -251z" />
<glyph unicode="&#xa3;" horiz-adv-x="1044" d="M45 100q130 36 174.5 90.5t44.5 169.5q0 96 -6 201h-190l-7 111h193q-6 111 -6 200q0 215 113 327t294 112q169 0 303 -88l-40 -150q-132 86 -265 86q-118 0 -177.5 -73.5t-59.5 -196.5q0 -105 8 -217h401l-6 -111h-391q4 -126 4 -184q0 -82 -14 -137q66 -55 144 -86 t138 -31q165 0 205 219l129 -29q-12 -161 -103 -252.5t-216 -91.5q-170 0 -346 158q-84 -114 -285 -162q-10 46 -18 72q-19 67 -21 63z" />
<glyph unicode="&#xa4;" horiz-adv-x="1028" d="M61 416l7 112h147q-4 66 -4 105q0 45 4 123h-147l-7 112h170q29 152 98 253t161 145.5t206 44.5q186 0 314 -78l-41 -150q-119 76 -273 76q-235 0 -295 -291h465l-6 -112h-473q-4 -66 -4 -107q0 -65 6 -121h410l6 -112h-399q68 -295 288 -295q165 0 281 76l29 -152 q-125 -76 -314 -76q-396 0 -463 447h-166z" />
<glyph unicode="&#xa5;" horiz-adv-x="1112" d="M25 1280h194l338 -563l336 563h188l-397 -629h313l-6 -112h-356v-160h356l6 -111h-360v-268h-166v268h-360l6 111h356v160h-356l-6 112h315z" />
<glyph unicode="&#xa6;" horiz-adv-x="759" d="M35 37l24 166q112 -74 213 -74q97 0 142 56t45 180v915h172v-918q0 -195 -90.5 -294t-264.5 -99q-131 0 -241 68z" />
<glyph unicode="&#xa7;" horiz-adv-x="964" d="M53 592q0 84 61.5 151t149.5 99q-110 72 -110 186q0 128 96 208.5t239 80.5q161 0 304 -70l-43 -153q-59 32 -133.5 50.5t-135.5 18.5q-77 0 -121.5 -30t-44.5 -86q0 -19 8 -35.5t26.5 -30t35.5 -23.5t49.5 -21t53.5 -17.5t62 -17.5q21 -6 32 -9q53 -16 84 -26.5 t78.5 -29.5t75.5 -39t56.5 -48.5t42 -65t13.5 -80.5q0 -90 -52 -155.5t-145 -98.5q96 -72 96 -182q0 -133 -100 -218t-254 -85q-87 0 -174 23.5t-153 64.5l43 153q59 -41 137 -64.5t151 -23.5q82 0 134.5 36t52.5 98q0 26 -15.5 47.5t-37.5 37t-61.5 31t-71.5 25t-83 22.5 q-41 12 -56.5 16.5t-53.5 17.5t-54.5 20.5t-47.5 22.5t-45.5 27.5t-35 32t-30 39.5t-16.5 46t-7 55zM209 631q0 -37 27.5 -65t78 -48.5t103.5 -36.5t121.5 -38.5t115.5 -45.5q119 74 119 170q0 38 -26 67t-74.5 50t-99 37t-118 37.5t-112.5 42.5q-135 -84 -135 -170z" />
<glyph unicode="&#xa8;" d="M76 1202q0 52 35 89.5t88 37.5q54 0 89.5 -37.5t35.5 -89.5q0 -55 -35 -92t-90 -37q-53 0 -88 37t-35 92zM496 1202q0 53 34 90t88 37t88.5 -37t34.5 -90q0 -55 -34 -92t-89 -37q-54 0 -88 37t-34 92z" />
<glyph unicode="&#xa9;" horiz-adv-x="1490" d="M76 637q0 136 53 260.5t142 214.5t213 143.5t261 53.5q182 0 336.5 -90.5t244 -245t89.5 -336.5t-89.5 -336t-244 -244t-336.5 -90q-137 0 -261 53t-213 143t-142 214t-53 260zM137 637q0 -165 81.5 -306t221.5 -223.5t305 -82.5t305.5 82.5t222 223.5t81.5 306 t-81.5 306.5t-222 224.5t-305.5 83t-305 -83t-221.5 -224.5t-81.5 -306.5zM406 635q0 172 103.5 276.5t268.5 104.5q140 0 234 -58l-41 -110q-86 57 -193 57q-113 0 -179.5 -71t-66.5 -193q0 -124 67.5 -198t180.5 -74t201 67l25 -121q-86 -57 -230 -57q-168 0 -269 101 t-101 276z" />
<glyph unicode="&#xaa;" horiz-adv-x="720" d="M45 723q0 118 102.5 191.5t325.5 80.5v47q0 68 -37.5 104t-105.5 36q-113 0 -230 -90l-49 114q140 105 293 105q117 0 189.5 -60.5t72.5 -201.5v-295q0 -107 84 -213l-141 -33q-38 44 -66 110h-2q-104 -108 -219 -108q-97 0 -157 60t-60 153zM178 741q0 -56 34.5 -83 t86.5 -27q107 0 174 67v195q-157 -7 -226 -50t-69 -102z" />
<glyph unicode="&#xab;" horiz-adv-x="1187" d="M41 387v184l510 314l16 -115l-379 -289v-4l379 -289l-16 -114zM584 383v192l536 332l15 -123l-398 -303v-4l398 -303l-15 -123z" />
<glyph unicode="&#xac;" horiz-adv-x="1077" d="M84 465q0 141 60 256t169.5 181.5t247.5 66.5q111 0 240 -35l131 35v-758q0 -58 16 -75t76 -17l-10 -142q-105 -10 -170 27t-80 96q-57 -66 -118.5 -98.5t-143.5 -32.5q-129 0 -225 65t-144.5 177t-48.5 254zM258 469q0 -157 75 -252.5t204 -95.5q119 0 227 94v535 q-83 71 -209 71q-138 0 -217.5 -100.5t-79.5 -251.5z" />
<glyph unicode="&#xad;" horiz-adv-x="634" d="M68 418v157h503v-157h-503z" />
<glyph unicode="&#xae;" horiz-adv-x="1490" d="M76 637q0 136 53 260.5t142 214.5t213 143.5t261 53.5q182 0 336.5 -90.5t244 -245t89.5 -336.5t-89.5 -336t-244 -244t-336.5 -90q-137 0 -261 53t-213 143t-142 214t-53 260zM137 637q0 -165 81.5 -306t221.5 -223.5t305 -82.5t305.5 82.5t222 223.5t81.5 306 t-81.5 306.5t-222 224.5t-305.5 83t-305 -83t-221.5 -224.5t-81.5 -306.5zM487 283v725h263q134 0 206 -59.5t72 -168.5q0 -156 -139 -211l178 -286h-145l-158 258l-150 -9v-249h-127zM612 639l123 2q166 3 166 131q0 65 -40 94t-126 29h-123v-256z" />
<glyph unicode="&#xaf;" d="M127 1102l8 108h545l10 -108h-563z" />
<glyph unicode="&#xb0;" horiz-adv-x="763" d="M47 975q0 141 92 238.5t242 97.5q151 0 243.5 -97.5t92.5 -238.5q0 -140 -92.5 -237t-243.5 -97q-149 0 -241.5 97t-92.5 237zM156 975q0 -96 61.5 -163t163.5 -67q104 0 165.5 67t61.5 163q0 102 -60.5 167.5t-166.5 65.5q-103 0 -164 -66.5t-61 -166.5z" />
<glyph unicode="&#xb1;" horiz-adv-x="1490" d="M76 637q0 136 53 260.5t142 214.5t213 143.5t261 53.5q182 0 336.5 -90.5t244 -245t89.5 -336.5q0 -137 -53 -261t-142.5 -213.5t-213.5 -142.5t-261 -53t-261 53t-213 142.5t-142 213.5t-53 261zM137 637q0 -165 81.5 -306t221.5 -223.5t305 -82.5t305.5 82.5t222 223.5 t81.5 306t-81.5 306.5t-222 224.5t-305.5 83t-305 -83t-221.5 -224.5t-81.5 -306.5zM530 262v725h238q147 0 221 -65t74 -174q0 -127 -79.5 -191.5t-223.5 -64.5h-103v-230h-127zM655 602l113 2q166 3 166 139q0 131 -174 131h-105v-272z" />
<glyph unicode="&#xb4;" d="M252 1065l217 371h205l-299 -371h-123z" />
<glyph unicode="&#xb5;" horiz-adv-x="1081" d="M84 465q0 215 136 359.5t345 144.5q111 0 240 -35l131 35v-977q0 -479 -432 -479q-177 0 -328 77l43 156q131 -76 285 -76q135 0 199.5 75.5t64.5 231.5v113q-126 -117 -262 -117q-195 0 -308.5 137t-113.5 355zM258 469q0 -156 76.5 -250t206.5 -94q119 0 227 94v531 q-83 71 -209 71q-138 0 -219.5 -101t-81.5 -251z" />
<glyph unicode="&#xb6;" horiz-adv-x="1019" d="M92 893q0 187 133.5 287t356.5 100h252v-1411h-142v666q-73 -15 -125 -15q-233 0 -354 103.5t-121 269.5z" />
<glyph unicode="&#xb7;" horiz-adv-x="450" d="M96 467q0 55 37 92t96 37q56 0 92.5 -37t36.5 -92t-36.5 -94t-92.5 -39q-59 0 -96 39t-37 94z" />
<glyph unicode="&#xb8;" d="M254 -162l246 242h121l-226 -219q120 0 186 -44.5t66 -123.5q0 -185 -336 -228l-12 107q217 11 217 111q0 50 -61 69t-185 0z" />
<glyph unicode="&#xba;" horiz-adv-x="862" d="M66 909q0 180 103 291t267 111q162 0 261.5 -110t99.5 -292q0 -178 -104 -288.5t-265 -110.5t-261.5 110t-100.5 289zM199 911q0 -122 62.5 -201t170.5 -79q110 0 171 75t61 201q0 124 -63 203.5t-171 79.5q-110 0 -170.5 -76.5t-60.5 -202.5z" />
<glyph unicode="&#xbb;" horiz-adv-x="1200" d="M66 174l397 303v4l-397 303l14 123l536 -332v-192l-536 -332zM633 188l379 289v4l-379 289l16 115l510 -314v-184l-510 -313z" />
<glyph unicode="&#xbc;" horiz-adv-x="1314" d="M16 797l9 106l153 45l2 99q4 189 83.5 273.5t225.5 84.5q97 0 189 -45q0 -2 -10 -41t-20.5 -77t-10.5 -36q-98 41 -150 41q-73 0 -106 -46.5t-33 -151.5v-111h498l2 129q4 189 83.5 273.5t225.5 84.5q97 0 189 -45q0 -2 -10 -41t-20.5 -76.5t-10.5 -35.5q-98 41 -150 41 q-72 0 -105.5 -47t-33.5 -152v-131h297l-6 -152h-291v-786h-168v786h-500v-786h-168v784z" />
<glyph unicode="&#xbd;" horiz-adv-x="1767" d="M16 797l9 106l153 45l2 99q4 189 83.5 273.5t225.5 84.5q97 0 189 -45q0 -2 -10 -41t-20.5 -77t-10.5 -36q-98 41 -150 41q-73 0 -106 -46.5t-33 -151.5v-111h498l2 129q4 189 83.5 273.5t225.5 84.5q97 0 189 -45q0 -2 -10 -41t-20.5 -76.5t-10.5 -35.5q-98 41 -150 41 q-72 0 -105.5 -47t-33.5 -152v-131h444l168 31v-969h-168v786h-444v-786h-168v786h-500v-786h-168v784z" />
<glyph unicode="&#xbe;" horiz-adv-x="1773" d="M16 797l9 106l153 45l2 99q4 189 83.5 273.5t225.5 84.5q97 0 189 -45q0 -2 -10 -41t-20.5 -77t-10.5 -36q-98 41 -150 41q-73 0 -106 -46.5t-33 -151.5v-111h498l2 129q4 189 83.5 273.5t225.5 84.5q97 0 189 -45q0 -2 -10 -41t-20.5 -76.5t-10.5 -35.5q-98 41 -150 41 q-72 0 -105.5 -47t-33.5 -152v-131h297l-6 -152h-291v-786h-168v786h-500v-786h-168v784zM1460 0v1380l168 27v-1407h-168z" />
<glyph unicode="&#xbf;" horiz-adv-x="729" d="M78 299q0 52 13.5 93.5t32 68t51 49t57.5 34t63 25.5q36 14 51 20t40.5 19t36 24t19.5 28.5t9 39.5q0 30 -17.5 62.5t-38 55t-55.5 56.5l78 25q67 -39 114.5 -99t47.5 -132q0 -40 -12.5 -72.5t-30 -54t-48 -41.5t-54 -31t-60.5 -25q-36 -14 -52 -20.5t-43 -20.5 t-39 -26.5t-22 -32t-10 -43.5q0 -73 71 -122.5t201 -49.5q49 0 142 16v-157q-74 -19 -156 -19q-167 0 -278 97.5t-111 232.5zM289 1176q0 55 36.5 94t92.5 39q59 0 97 -39t38 -94t-38 -92t-97 -37q-56 0 -92.5 37t-36.5 92z" />
<glyph unicode="&#xc0;" horiz-adv-x="1175" d="M10 0l482 1280h198l475 -1280h-178l-121 336h-555l-121 -336h-180zM227 1778h205l217 -371h-123zM369 494h440l-219 606z" />
<glyph unicode="&#xc1;" horiz-adv-x="1175" d="M10 0l482 1280h198l475 -1280h-178l-121 336h-555l-121 -336h-180zM369 494h440l-219 606zM518 1407l217 371h205l-299 -371h-123z" />
<glyph unicode="&#xc2;" horiz-adv-x="1175" d="M10 0l482 1280h198l475 -1280h-178l-121 336h-555l-121 -336h-180zM268 1407l236 383h180l236 -383h-123l-201 260h-2l-203 -260h-123zM369 494h440l-219 606z" />
<glyph unicode="&#xc3;" horiz-adv-x="1175" d="M10 0l482 1280h198l475 -1280h-178l-121 336h-555l-121 -336h-180zM242 1427q14 136 60 198.5t138 62.5q42 0 91 -22.5t84.5 -49.5t74.5 -49.5t64 -22.5q30 0 47.5 28.5t27.5 98.5h115q-14 -133 -60.5 -195.5t-138.5 -62.5q-42 0 -90.5 22t-84.5 48.5t-74.5 48.5 t-63.5 22q-30 0 -49 -28.5t-29 -98.5h-112zM369 494h440l-219 606z" />
<glyph unicode="&#xc4;" horiz-adv-x="1175" d="M10 0l482 1280h198l475 -1280h-178l-121 336h-555l-121 -336h-180zM256 1544q0 52 35 89.5t88 37.5q54 0 89.5 -37.5t35.5 -89.5q0 -55 -35 -92t-90 -37q-53 0 -88 37t-35 92zM369 494h440l-219 606zM676 1544q0 53 34.5 90t88.5 37t88.5 -37t34.5 -90q0 -55 -34 -92 t-89 -37t-89 37t-34 92z" />
<glyph unicode="&#xc5;" horiz-adv-x="1175" d="M10 0l451 1202q-57 29 -90 80.5t-33 114.5q0 95 69 159t183 64t183 -64t69 -159q2 -62 -30.5 -114t-92.5 -81l446 -1202h-178l-121 336h-555l-121 -336h-180zM369 494h440l-219 606zM444 1399q0 -57 40 -97t106 -40q67 0 108 40t41 97t-41 96t-108 39q-66 0 -106 -39 t-40 -96z" />
<glyph unicode="&#xc6;" horiz-adv-x="1703" d="M-16 0l731 1280h903v-162h-639v-395h532v-162h-532v-399h639v-162h-811v334h-445l-186 -334h-192zM455 496h352v624z" />
<glyph unicode="&#xc7;" horiz-adv-x="1230" d="M94 637q0 150 48 277t133 213.5t203.5 135t256.5 48.5q110 0 219 -28.5t187 -78.5l-56 -157q-88 56 -170 82t-180 26q-211 0 -338 -137t-127 -373q0 -237 128.5 -378.5t340.5 -141.5q101 0 197 34.5t166 90.5l28 -174q-150 -93 -348 -105l-112 -110q120 0 186 -44.5 t66 -123.5q0 -185 -336 -228l-13 107q111 6 164.5 35.5t53.5 75.5q0 50 -61 69t-185 0l-17 86l138 135q-256 20 -414 201t-158 463z" />
<glyph unicode="&#xc8;" horiz-adv-x="1071" d="M162 0v1280h811v-162h-637v-395h530v-162h-530v-399h637v-162h-811zM236 1778h204l217 -371h-122z" />
<glyph unicode="&#xc9;" horiz-adv-x="1071" d="M162 0v1280h811v-162h-637v-395h530v-162h-530v-399h637v-162h-811zM463 1407l217 371h205l-299 -371h-123z" />
<glyph unicode="&#xca;" horiz-adv-x="1071" d="M162 0v1280h811v-162h-637v-395h530v-162h-530v-399h637v-162h-811zM236 1407l235 383h180l236 -383h-123l-201 260h-2l-203 -260h-122z" />
<glyph unicode="&#xcb;" horiz-adv-x="1071" d="M162 0v1280h811v-162h-637v-395h530v-162h-530v-399h637v-162h-811zM227 1544q0 52 35 89.5t88 37.5q54 0 89.5 -37.5t35.5 -89.5q0 -55 -35 -92t-90 -37q-53 0 -88 37t-35 92zM647 1544q0 53 34.5 90t88.5 37t88.5 -37t34.5 -90q0 -55 -34 -92t-89 -37t-89 37t-34 92z " />
<glyph unicode="&#xcc;" horiz-adv-x="505" d="M-88 1778h205l217 -371h-123zM166 0v1280h172v-1280h-172z" />
<glyph unicode="&#xcd;" horiz-adv-x="505" d="M166 0v1280h172v-1280h-172zM182 1407l217 371h205l-299 -371h-123z" />
<glyph unicode="&#xce;" horiz-adv-x="505" d="M-68 1407l236 383h180l236 -383h-123l-201 260h-2l-203 -260h-123zM166 0v1280h172v-1280h-172z" />
<glyph unicode="&#xcf;" horiz-adv-x="505" d="M-76 1544q0 52 35 89.5t88 37.5q54 0 89.5 -37.5t35.5 -89.5q0 -55 -35 -92t-90 -37q-53 0 -88 37t-35 92zM166 0v1280h172v-1280h-172zM344 1544q0 53 34.5 90t88.5 37t88.5 -37t34.5 -90q0 -55 -34 -92t-89 -37t-89 37t-34 92z" />
<glyph unicode="&#xd0;" horiz-adv-x="1349" d="M33 573v150h170v557h385q315 0 496.5 -171.5t181.5 -459.5q0 -300 -180 -474.5t-506 -174.5h-377v573h-170zM377 162h211q234 0 369 122.5t135 352.5q0 236 -132.5 358.5t-379.5 122.5h-203v-395h325v-150h-325v-411z" />
<glyph unicode="&#xd1;" horiz-adv-x="1368" d="M162 0v1280h192l682 -1032v1032h170v-1292h-188l-686 1044v-1032h-170zM336 1427q14 136 60.5 198.5t138.5 62.5q42 0 90.5 -22.5t84.5 -49.5t74.5 -49.5t63.5 -22.5q30 0 48 28.5t28 98.5h114q-14 -133 -60 -195.5t-138 -62.5q-42 0 -91 22t-84.5 48.5t-74.5 48.5 t-64 22q-30 0 -48.5 -28.5t-28.5 -98.5h-113z" />
<glyph unicode="&#xd2;" horiz-adv-x="1474" d="M94 637q0 190 81.5 343.5t229 242t332.5 88.5q139 0 258 -48t204 -133.5t133 -210.5t48 -274q0 -190 -81.5 -344t-229 -243t-332.5 -89q-140 0 -258.5 47.5t-203.5 133.5t-133 211.5t-48 275.5zM270 645q0 -237 129.5 -378.5t341.5 -141.5q204 0 334.5 142.5t130.5 369.5 q0 235 -131 376.5t-342 141.5q-205 0 -334 -141t-129 -369zM397 1778h205l217 -371h-123z" />
<glyph unicode="&#xd3;" horiz-adv-x="1474" d="M94 637q0 190 81.5 343.5t229 242t332.5 88.5q139 0 258 -48t204 -133.5t133 -210.5t48 -274q0 -190 -81.5 -344t-229 -243t-332.5 -89q-140 0 -258.5 47.5t-203.5 133.5t-133 211.5t-48 275.5zM270 645q0 -237 129.5 -378.5t341.5 -141.5q204 0 334.5 142.5t130.5 369.5 q0 235 -131 376.5t-342 141.5q-205 0 -334 -141t-129 -369zM668 1407l217 371h205l-299 -371h-123z" />
<glyph unicode="&#xd4;" horiz-adv-x="1474" d="M94 637q0 190 81.5 343.5t229 242t332.5 88.5q139 0 258 -48t204 -133.5t133 -210.5t48 -274q0 -190 -81.5 -344t-229 -243t-332.5 -89q-140 0 -258.5 47.5t-203.5 133.5t-133 211.5t-48 275.5zM270 645q0 -237 129.5 -378.5t341.5 -141.5q204 0 334.5 142.5t130.5 369.5 q0 235 -131 376.5t-342 141.5q-205 0 -334 -141t-129 -369zM418 1407l235 383h181l235 -383h-123l-201 260h-2l-202 -260h-123z" />
<glyph unicode="&#xd5;" horiz-adv-x="1474" d="M94 637q0 190 81.5 343.5t229 242t332.5 88.5q139 0 258 -48t204 -133.5t133 -210.5t48 -274q0 -190 -81.5 -344t-229 -243t-332.5 -89q-140 0 -258.5 47.5t-203.5 133.5t-133 211.5t-48 275.5zM270 645q0 -237 129.5 -378.5t341.5 -141.5q204 0 334.5 142.5t130.5 369.5 q0 235 -131 376.5t-342 141.5q-205 0 -334 -141t-129 -369zM391 1427q14 136 60.5 198.5t138.5 62.5q42 0 90.5 -22.5t84.5 -49.5t74.5 -49.5t63.5 -22.5q30 0 48 28.5t28 98.5h115q-14 -133 -60.5 -195.5t-138.5 -62.5q-42 0 -90.5 22t-84.5 48.5t-74.5 48.5t-63.5 22 q-30 0 -49 -28.5t-29 -98.5h-113z" />
<glyph unicode="&#xd6;" horiz-adv-x="1474" d="M94 637q0 190 81.5 343.5t229 242t332.5 88.5q139 0 258 -48t204 -133.5t133 -210.5t48 -274q0 -190 -81.5 -344t-229 -243t-332.5 -89q-140 0 -258.5 47.5t-203.5 133.5t-133 211.5t-48 275.5zM270 645q0 -237 129.5 -378.5t341.5 -141.5q204 0 334.5 142.5t130.5 369.5 q0 235 -131 376.5t-342 141.5q-205 0 -334 -141t-129 -369zM410 1544q0 52 34.5 89.5t87.5 37.5q54 0 89.5 -37.5t35.5 -89.5q0 -55 -35 -92t-90 -37q-53 0 -87.5 37t-34.5 92zM829 1544q0 53 34.5 90t88.5 37t88.5 -37t34.5 -90q0 -55 -34 -92t-89 -37t-89 37t-34 92z" />
<glyph unicode="&#xd7;" horiz-adv-x="991" d="M82 158l326 321l-326 322l98 98l322 -326l321 326l99 -98l-326 -322l326 -321l-99 -99l-321 326l-322 -326z" />
<glyph unicode="&#xd8;" horiz-adv-x="1474" d="M100 637q0 190 81.5 343.5t229 242t332.5 88.5q152 0 287 -60l96 166h131l-127 -221q122 -88 189 -228.5t67 -322.5q0 -189 -81.5 -343.5t-229 -243.5t-332.5 -89q-157 0 -286 60l-95 -166h-131l127 221q-124 88 -191 229t-67 324zM274 645q0 -133 44 -239t124 -175 l508 879q-89 45 -211 45q-204 0 -334.5 -141.5t-130.5 -368.5zM537 170q89 -45 211 -45q205 0 333.5 142t128.5 370q0 268 -166 412z" />
<glyph unicode="&#xd9;" horiz-adv-x="1323" d="M160 475v805h172v-778q0 -177 84.5 -273t253.5 -96q153 0 237 89.5t84 266.5v791h172v-786q0 -247 -128.5 -386t-375.5 -139q-238 0 -368.5 136.5t-130.5 369.5zM340 1778h205l217 -371h-123z" />
<glyph unicode="&#xda;" horiz-adv-x="1323" d="M160 475v805h172v-778q0 -177 84.5 -273t253.5 -96q153 0 237 89.5t84 266.5v791h172v-786q0 -247 -128.5 -386t-375.5 -139q-238 0 -368.5 136.5t-130.5 369.5zM569 1407l217 371h205l-299 -371h-123z" />
<glyph unicode="&#xdb;" horiz-adv-x="1323" d="M160 475v805h172v-778q0 -177 84.5 -273t253.5 -96q153 0 237 89.5t84 266.5v791h172v-786q0 -247 -128.5 -386t-375.5 -139q-238 0 -368.5 136.5t-130.5 369.5zM340 1407l235 383h181l235 -383h-123l-200 260h-2l-203 -260h-123z" />
<glyph unicode="&#xdc;" horiz-adv-x="1323" d="M160 475v805h172v-778q0 -177 84.5 -273t253.5 -96q153 0 237 89.5t84 266.5v791h172v-786q0 -247 -128.5 -386t-375.5 -139q-238 0 -368.5 136.5t-130.5 369.5zM332 1544q0 52 35 89.5t88 37.5q54 0 89.5 -37.5t35.5 -89.5q0 -55 -35 -92t-90 -37q-53 0 -88 37t-35 92z M752 1544q0 53 34 90t88 37t88.5 -37t34.5 -90q0 -55 -34 -92t-89 -37q-54 0 -88 37t-34 92z" />
<glyph unicode="&#xdd;" horiz-adv-x="1105" d="M20 1280h197l340 -598l336 598h192l-444 -772v-508h-174v510zM481 1407l217 371h205l-299 -371h-123z" />
<glyph unicode="&#xde;" horiz-adv-x="1087" d="M162 0v1280h174v-209h180q254 0 381 -112.5t127 -301.5q0 -212 -137.5 -323.5t-382.5 -116.5l-168 -2v-215h-174zM336 379l186 4q160 4 243 72.5t83 193.5q0 260 -340 260h-172v-530z" />
<glyph unicode="&#xdf;" horiz-adv-x="1290" d="M16 797l9 106l153 45l2 119q4 190 83 274t226 84q97 0 189 -45q0 -2 -10 -41t-20.5 -76.5t-10.5 -35.5q-98 41 -150 41q-72 0 -105.5 -47t-33.5 -152v-1069h-168v784zM532 55l43 154q59 -41 137.5 -64.5t151.5 -23.5q82 0 134.5 36t52.5 97q0 42 -34.5 73t-67.5 44 t-104 34q-11 3 -16 5q-46 13 -81 27t-74 37t-64 50.5t-42 68.5t-17 91q0 127 96 206t240 79q160 0 303 -70l-43 -154q-59 32 -133 51t-135 19q-76 0 -121 -30.5t-45 -86.5q0 -22 6.5 -40t25 -33t32 -24.5t46.5 -20.5t49 -16t58 -17q60 -17 103.5 -36t88.5 -51t68.5 -81 t23.5 -113q0 -133 -99.5 -216t-254.5 -83q-87 0 -174.5 23.5t-153.5 64.5z" />
<glyph unicode="&#xe0;" horiz-adv-x="923" d="M68 238q0 54 16 98.5t55 86t101.5 72t160.5 51t226 27.5v27q0 116 -48 164.5t-163 48.5q-70 0 -152.5 -29t-150.5 -75l-33 151q66 46 161.5 77.5t190.5 31.5q193 0 280 -87t83 -278v-393q0 -58 16 -75t76 -17l-10 -142q-201 -18 -244 123h-8q-112 -131 -258 -131 q-131 0 -215 76.5t-84 192.5zM92 1436h205l217 -371h-123zM246 258q0 -64 44.5 -104.5t121.5 -40.5q119 0 215 100v254q-208 -26 -294.5 -74t-86.5 -135z" />
<glyph unicode="&#xe1;" horiz-adv-x="923" d="M68 238q0 54 16 98.5t55 86t101.5 72t160.5 51t226 27.5v27q0 116 -48 164.5t-163 48.5q-70 0 -152.5 -29t-150.5 -75l-33 151q66 46 161.5 77.5t190.5 31.5q193 0 280 -87t83 -278v-393q0 -58 16 -75t76 -17l-10 -142q-201 -18 -244 123h-8q-112 -131 -258 -131 q-131 0 -215 76.5t-84 192.5zM246 258q0 -64 44.5 -104.5t121.5 -40.5q119 0 215 100v254q-208 -26 -294.5 -74t-86.5 -135zM342 1065l217 371h205l-299 -371h-123z" />
<glyph unicode="&#xe2;" horiz-adv-x="923" d="M68 238q0 54 16 98.5t55 86t101.5 72t160.5 51t226 27.5v27q0 116 -48 164.5t-163 48.5q-70 0 -152.5 -29t-150.5 -75l-33 151q66 46 161.5 77.5t190.5 31.5q193 0 280 -87t83 -278v-393q0 -58 16 -75t76 -17l-10 -142q-201 -18 -244 123h-8q-112 -131 -258 -131 q-131 0 -215 76.5t-84 192.5zM113 1065l235 383h180l236 -383h-123l-201 260h-2l-202 -260h-123zM246 258q0 -64 44.5 -104.5t121.5 -40.5q119 0 215 100v254q-208 -26 -294.5 -74t-86.5 -135z" />
<glyph unicode="&#xe3;" horiz-adv-x="923" d="M68 238q0 54 16 98.5t55 86t101.5 72t160.5 51t226 27.5v27q0 116 -48 164.5t-163 48.5q-70 0 -152.5 -29t-150.5 -75l-33 151q66 46 161.5 77.5t190.5 31.5q193 0 280 -87t83 -278v-393q0 -58 16 -75t76 -17l-10 -142q-201 -18 -244 123h-8q-112 -131 -258 -131 q-131 0 -215 76.5t-84 192.5zM86 1085q14 136 60.5 198.5t138.5 62.5q42 0 90.5 -22.5t84.5 -49.5t74.5 -49.5t63.5 -22.5q30 0 48 28.5t28 98.5h114q-14 -133 -60 -195.5t-138 -62.5q-42 0 -91 22t-84.5 48.5t-74.5 48.5t-64 22q-30 0 -48.5 -28.5t-28.5 -98.5h-113z M246 258q0 -64 44.5 -104.5t121.5 -40.5q119 0 215 100v254q-208 -26 -294.5 -74t-86.5 -135z" />
<glyph unicode="&#xe4;" horiz-adv-x="923" d="M68 238q0 54 16 98.5t55 86t101.5 72t160.5 51t226 27.5v27q0 116 -48 164.5t-163 48.5q-70 0 -152.5 -29t-150.5 -75l-33 151q66 46 161.5 77.5t190.5 31.5q193 0 280 -87t83 -278v-393q0 -58 16 -75t76 -17l-10 -142q-201 -18 -244 123h-8q-112 -131 -258 -131 q-131 0 -215 76.5t-84 192.5zM104 1202q0 52 35 89.5t88 37.5q54 0 89.5 -37.5t35.5 -89.5q0 -55 -35 -92t-90 -37q-53 0 -88 37t-35 92zM246 258q0 -64 44.5 -104.5t121.5 -40.5q119 0 215 100v254q-208 -26 -294.5 -74t-86.5 -135zM524 1202q0 53 34.5 90t88.5 37 t88.5 -37t34.5 -90q0 -55 -34 -92t-89 -37t-89 37t-34 92z" />
<glyph unicode="&#xe5;" horiz-adv-x="923" d="M68 238q0 54 16 98.5t55 86t101.5 72t160.5 51t226 27.5v27q0 116 -48 164.5t-163 48.5q-70 0 -152.5 -29t-150.5 -75l-33 151q66 46 161.5 77.5t190.5 31.5q193 0 280 -87t83 -278v-393q0 -58 16 -75t76 -17l-10 -142q-201 -18 -244 123h-8q-112 -131 -258 -131 q-131 0 -215 76.5t-84 192.5zM184 1292q0 95 69.5 160.5t184.5 65.5t183.5 -65t70.5 -161q0 -95 -69.5 -159t-184.5 -64t-184.5 64t-69.5 159zM246 258q0 -64 44.5 -104.5t121.5 -40.5q119 0 215 100v254q-208 -26 -294.5 -74t-86.5 -135zM293 1294q0 -58 39.5 -97.5 t105.5 -39.5q67 0 107.5 39.5t40.5 97.5q0 57 -40.5 96.5t-107.5 39.5q-66 0 -105.5 -39.5t-39.5 -96.5z" />
<glyph unicode="&#xe6;" horiz-adv-x="1544" d="M68 238q0 315 579 335v21q0 123 -55 171t-176 48q-70 0 -152.5 -29t-150.5 -75l-33 151q66 46 161.5 77.5t190.5 31.5q139 0 215.5 -40.5t114.5 -117.5q57 74 145.5 116t196.5 42q170 0 264 -99t94 -268q0 -90 -20 -149h-99q-137 0 -217 -2q-92 -2 -315 -2v-9 q5 -139 90 -227t219 -88q165 0 281 78l31 -156q-128 -78 -316 -78q-126 0 -227 51.5t-164 141.5q-55 -84 -146.5 -138.5t-211.5 -54.5q-131 0 -215 76.5t-84 192.5zM246 258q0 -65 46 -105t130 -40q66 0 140 40t116 95q-11 29 -21 103.5t-10 115.5q-215 -20 -308 -70.5 t-93 -138.5zM819 571l481 4v15q0 108 -53 169.5t-160 61.5q-114 0 -184.5 -74t-83.5 -176z" />
<glyph unicode="&#xe7;" horiz-adv-x="933" d="M84 469q0 223 133.5 361.5t339.5 138.5q175 0 303 -80l-43 -154q-116 78 -260 78q-145 0 -222 -90t-77 -252t80 -254t215 -92q154 0 270 78l31 -156q-107 -64 -246 -76l-114 -110q120 0 185.5 -44.5t65.5 -123.5q0 -185 -335 -228l-13 107q217 11 217 111q0 50 -60.5 69 t-184.5 0l-17 86l135 133q-192 17 -297.5 152t-105.5 346z" />
<glyph unicode="&#xe8;" horiz-adv-x="983" d="M84 459q0 225 132 367.5t331 142.5q170 0 264 -99t94 -268q0 -90 -20 -149h-99q-137 0 -217 -2q-92 -2 -315 -2v-9q5 -139 90 -227t219 -88q165 0 281 78l30 -156q-128 -78 -315 -78q-211 0 -343 137t-132 353zM178 1436h205l217 -371h-123zM262 571l481 4v15 q0 108 -53 169.5t-160 61.5q-114 0 -184.5 -74t-83.5 -176z" />
<glyph unicode="&#xe9;" horiz-adv-x="983" d="M84 459q0 225 132 367.5t331 142.5q170 0 264 -99t94 -268q0 -90 -20 -149h-99q-137 0 -217 -2q-92 -2 -315 -2v-9q5 -139 90 -227t219 -88q165 0 281 78l30 -156q-128 -78 -315 -78q-211 0 -343 137t-132 353zM262 571l481 4v15q0 108 -53 169.5t-160 61.5 q-114 0 -184.5 -74t-83.5 -176zM428 1065l217 371h205l-299 -371h-123z" />
<glyph unicode="&#xea;" horiz-adv-x="983" d="M84 459q0 225 132 367.5t331 142.5q170 0 264 -99t94 -268q0 -90 -20 -149h-99q-137 0 -217 -2q-92 -2 -315 -2v-9q5 -139 90 -227t219 -88q165 0 281 78l30 -156q-128 -78 -315 -78q-211 0 -343 137t-132 353zM158 1065l235 383h180l236 -383h-123l-201 260h-2 l-202 -260h-123zM262 571l481 4v15q0 108 -53 169.5t-160 61.5q-114 0 -184.5 -74t-83.5 -176z" />
<glyph unicode="&#xeb;" horiz-adv-x="983" d="M84 459q0 225 132 367.5t331 142.5q170 0 264 -99t94 -268q0 -90 -20 -149h-99q-137 0 -217 -2q-92 -2 -315 -2v-9q5 -139 90 -227t219 -88q165 0 281 78l30 -156q-128 -78 -315 -78q-211 0 -343 137t-132 353zM160 1202q0 52 35 89.5t88 37.5q54 0 89.5 -37.5 t35.5 -89.5q0 -55 -35 -92t-90 -37q-53 0 -88 37t-35 92zM262 571l481 4v15q0 108 -53 169.5t-160 61.5q-114 0 -184.5 -74t-83.5 -176zM580 1202q0 53 34 90t88 37t88.5 -37t34.5 -90q0 -55 -34 -92t-89 -37q-54 0 -88 37t-34 92z" />
<glyph unicode="&#xec;" horiz-adv-x="458" d="M-111 1436h205l217 -371h-123zM152 0v924l167 26v-950h-167z" />
<glyph unicode="&#xed;" horiz-adv-x="458" d="M152 0v924l167 26v-950h-167zM160 1065l217 371h205l-299 -371h-123z" />
<glyph unicode="&#xee;" horiz-adv-x="458" d="M-90 1065l235 383h181l235 -383h-123l-200 260h-2l-203 -260h-123zM152 0v924l167 26v-950h-167z" />
<glyph unicode="&#xef;" horiz-adv-x="458" d="M-98 1202q0 52 35 89.5t88 37.5q54 0 89.5 -37.5t35.5 -89.5q0 -55 -35 -92t-90 -37q-53 0 -88 37t-35 92zM152 0v924l167 26v-950h-167zM322 1202q0 53 34 90t88 37t88.5 -37t34.5 -90q0 -55 -34 -92t-89 -37q-54 0 -88 37t-34 92z" />
<glyph unicode="&#xf0;" horiz-adv-x="1093" d="M84 420q0 87 24.5 164t66 131.5t94.5 94.5t110 59.5t113 19.5q103 0 173 -35.5t126 -103.5l4 2q-26 74 -111.5 183.5t-183.5 207.5l-211 -58l-29 113l143 39q-75 72 -161 143l190 45q117 -100 154 -137l211 55l28 -112l-147 -39q155 -173 243.5 -350.5t88.5 -343.5 q0 -152 -51 -270t-157 -188.5t-253 -70.5q-207 0 -336 128.5t-129 322.5zM264 444q0 -152 79.5 -237.5t211.5 -85.5q131 0 210 88.5t79 249.5q0 94 -37 178q-30 45 -107.5 73.5t-173.5 28.5q-108 0 -185 -81.5t-77 -213.5z" />
<glyph unicode="&#xf1;" horiz-adv-x="1058" d="M145 0v942l168 27v-142q142 142 305 142q143 0 223.5 -85.5t80.5 -238.5v-645h-168v590q0 120 -46 168.5t-149 48.5q-69 0 -134.5 -29.5t-111.5 -72.5v-705h-168zM182 1085q14 136 60.5 198.5t138.5 62.5q42 0 90.5 -22.5t84.5 -49.5t74.5 -49.5t63.5 -22.5q30 0 48 28.5 t28 98.5h115q-14 -133 -60.5 -195.5t-138.5 -62.5q-42 0 -90.5 22t-84.5 48.5t-74.5 48.5t-63.5 22q-30 0 -49 -28.5t-29 -98.5h-113z" />
<glyph unicode="&#xf2;" horiz-adv-x="1081" d="M84 469q0 224 130 363t333 139q202 0 326 -137.5t124 -364.5q0 -223 -130 -361.5t-330 -138.5q-201 0 -327 137t-126 363zM242 1436h204l218 -371h-123zM250 471q0 -155 78.5 -252.5t214.5 -97.5q138 0 213 95t75 251t-78 254t-214 98q-138 0 -213.5 -95t-75.5 -253z" />
<glyph unicode="&#xf3;" horiz-adv-x="1081" d="M84 469q0 224 130 363t333 139q202 0 326 -137.5t124 -364.5q0 -223 -130 -361.5t-330 -138.5q-201 0 -327 137t-126 363zM250 471q0 -155 78.5 -252.5t214.5 -97.5q138 0 213 95t75 251t-78 254t-214 98q-138 0 -213.5 -95t-75.5 -253zM430 1065l217 371h205l-299 -371 h-123z" />
<glyph unicode="&#xf4;" horiz-adv-x="1081" d="M84 469q0 224 130 363t333 139q202 0 326 -137.5t124 -364.5q0 -223 -130 -361.5t-330 -138.5q-201 0 -327 137t-126 363zM221 1065l236 383h180l235 -383h-122l-201 260h-2l-203 -260h-123zM250 471q0 -155 78.5 -252.5t214.5 -97.5q138 0 213 95t75 251t-78 254 t-214 98q-138 0 -213.5 -95t-75.5 -253z" />
<glyph unicode="&#xf5;" horiz-adv-x="1081" d="M84 469q0 224 130 363t333 139q202 0 326 -137.5t124 -364.5q0 -223 -130 -361.5t-330 -138.5q-201 0 -327 137t-126 363zM195 1085q14 136 60 198.5t138 62.5q42 0 91 -22.5t84.5 -49.5t74.5 -49.5t64 -22.5q30 0 47.5 28.5t27.5 98.5h115q-14 -133 -60.5 -195.5 t-138.5 -62.5q-42 0 -90.5 22t-84.5 48.5t-74.5 48.5t-63.5 22q-30 0 -49 -28.5t-29 -98.5h-112zM250 471q0 -155 78.5 -252.5t214.5 -97.5q138 0 213 95t75 251t-78 254t-214 98q-138 0 -213.5 -95t-75.5 -253z" />
<glyph unicode="&#xf6;" horiz-adv-x="1081" d="M84 469q0 224 130 363t333 139q202 0 326 -137.5t124 -364.5q0 -223 -130 -361.5t-330 -138.5q-201 0 -327 137t-126 363zM213 1202q0 52 35 89.5t88 37.5q54 0 89.5 -37.5t35.5 -89.5q0 -55 -35 -92t-90 -37q-53 0 -88 37t-35 92zM250 471q0 -155 78.5 -252.5 t214.5 -97.5q138 0 213 95t75 251t-78 254t-214 98q-138 0 -213.5 -95t-75.5 -253zM633 1202q0 53 34.5 90t88.5 37t88.5 -37t34.5 -90q0 -55 -34 -92t-89 -37t-89 37t-34 92z" />
<glyph unicode="&#xf7;" horiz-adv-x="991" d="M82 408l6 145h819l6 -145h-831zM362 168q0 55 40.5 94t99.5 39t97 -39t38 -94q0 -56 -38.5 -96.5t-96.5 -40.5q-59 0 -99.5 41t-40.5 96zM362 793q0 56 38.5 96.5t97.5 40.5t99 -41t40 -96t-40 -94.5t-99 -39.5t-97.5 39.5t-38.5 94.5z" />
<glyph unicode="&#xf8;" horiz-adv-x="1081" d="M90 469q0 224 130 363t333 139q107 0 192 -39l84 145h136l-121 -209q76 -67 118 -169.5t42 -229.5q0 -223 -130.5 -361.5t-330.5 -138.5q-108 0 -193 39l-84 -145h-135q13 22 32.5 56.5t26.5 47.5q12 22 28.5 50t24.5 41.5t7 13.5q-160 141 -160 397zM256 471 q0 -164 76 -258l336 582q-52 24 -123 24q-138 0 -213.5 -95t-75.5 -253zM428 143q58 -22 121 -22q138 0 213.5 95t75.5 251q0 164 -76 258z" />
<glyph unicode="&#xf9;" horiz-adv-x="1058" d="M137 293v645h168v-590q0 -119 44.5 -168t139.5 -49q76 0 142.5 29.5t113.5 72.5v705h168v-942l-168 -27v137q-137 -137 -315 -137q-136 0 -214.5 85.5t-78.5 238.5zM209 1436h205l217 -371h-123z" />
<glyph unicode="&#xfa;" horiz-adv-x="1058" d="M137 293v645h168v-590q0 -119 44.5 -168t139.5 -49q76 0 142.5 29.5t113.5 72.5v705h168v-942l-168 -27v137q-137 -137 -315 -137q-136 0 -214.5 85.5t-78.5 238.5zM438 1065l217 371h205l-299 -371h-123z" />
<glyph unicode="&#xfb;" horiz-adv-x="1058" d="M137 293v645h168v-590q0 -119 44.5 -168t139.5 -49q76 0 142.5 29.5t113.5 72.5v705h168v-942l-168 -27v137q-137 -137 -315 -137q-136 0 -214.5 85.5t-78.5 238.5zM209 1065l235 383h181l235 -383h-123l-200 260h-2l-203 -260h-123z" />
<glyph unicode="&#xfc;" horiz-adv-x="1058" d="M137 293v645h168v-590q0 -119 44.5 -168t139.5 -49q76 0 142.5 29.5t113.5 72.5v705h168v-942l-168 -27v137q-137 -137 -315 -137q-136 0 -214.5 85.5t-78.5 238.5zM190 1202q0 52 35 89.5t88 37.5q54 0 89.5 -37.5t35.5 -89.5q0 -55 -35 -92t-90 -37q-53 0 -88 37 t-35 92zM610 1202q0 53 34.5 90t88.5 37t88.5 -37t34.5 -90q0 -55 -34 -92t-89 -37t-89 37t-34 92z" />
<glyph unicode="&#xfd;" horiz-adv-x="903" d="M-68 -438l50 155q88 -45 149 -45q56 0 94 41.5t86 161.5l58 145l-365 918h180l273 -729l264 729h178l-375 -948l-63 -168q-62 -173 -139.5 -241t-190.5 -68q-99 0 -199 49zM381 1065l217 371h205l-299 -371h-123z" />
<glyph unicode="&#xfe;" horiz-adv-x="1064" d="M145 -504v1884l168 27v-545q132 107 252 107q199 0 313.5 -139t114.5 -357q0 -141 -60 -256t-169.5 -181.5t-247.5 -66.5q-111 0 -203 25v-498h-168zM313 188q82 -67 209 -67q138 0 217.5 100t79.5 248q0 157 -74.5 250.5t-203.5 93.5q-125 0 -228 -90v-535z" />
<glyph unicode="&#xff;" horiz-adv-x="903" d="M-68 -438l50 155q88 -45 149 -45q56 0 94 41.5t86 161.5l58 145l-365 918h180l273 -729l264 729h178l-375 -948l-63 -168q-62 -173 -139.5 -241t-190.5 -68q-99 0 -199 49zM123 1202q0 52 35 89.5t88 37.5q54 0 89.5 -37.5t35.5 -89.5q0 -55 -35 -92t-90 -37 q-53 0 -88 37t-35 92zM543 1202q0 53 34.5 90t88.5 37t88 -37t34 -90q0 -55 -34 -92t-88 -37q-55 0 -89 37t-34 92z" />
<glyph unicode="&#x152;" horiz-adv-x="1888" d="M100 631q0 300 180 474.5t506 174.5h1014v-162h-637v-395h531v-162h-531v-399h637v-162h-1022q-315 0 -496.5 171.5t-181.5 459.5zM274 643q0 -236 132.5 -358.5t379.5 -122.5h203v956h-211q-234 0 -369 -122.5t-135 -352.5z" />
<glyph unicode="&#x153;" horiz-adv-x="1740" d="M84 469q0 224 130 363t333 139q128 0 223.5 -55.5t151.5 -159.5q62 101 161.5 157t221.5 56q170 0 264 -99t94 -268q0 -88 -21 -149h-98q-137 0 -217 -2q-92 -2 -315 -2v-9q5 -139 90 -227t219 -88q165 0 281 78l30 -156q-128 -78 -315 -78q-133 0 -236 55.5t-166 155.5 q-61 -101 -158 -156t-220 -55q-201 0 -327 137t-126 363zM250 471q0 -155 78.5 -252.5t214.5 -97.5q138 0 213 95t75 251t-78 254t-214 98q-138 0 -213.5 -95t-75.5 -253zM1020 571l481 4v15q0 108 -53 169.5t-160 61.5q-114 0 -184.5 -74t-83.5 -176z" />
<glyph unicode="&#x178;" horiz-adv-x="1105" d="M20 1280h197l340 -598l336 598h192l-444 -772v-508h-174v510zM223 1544q0 52 35 89.5t88 37.5q54 0 89.5 -37.5t35.5 -89.5q0 -55 -35 -92t-90 -37q-53 0 -88 37t-35 92zM643 1544q0 53 34.5 90t88.5 37t88.5 -37t34.5 -90q0 -55 -34 -92t-89 -37t-89 37t-34 92z" />
<glyph unicode="&#x2c6;" d="M84 1065l235 383h181l235 -383h-123l-200 260h-2l-203 -260h-123z" />
<glyph unicode="&#x2dc;" d="M57 1085q14 136 60.5 198.5t138.5 62.5q42 0 90.5 -22.5t84.5 -49.5t74.5 -49.5t63.5 -22.5q30 0 48 28.5t28 98.5h115q-14 -133 -60.5 -195.5t-138.5 -62.5q-42 0 -90.5 22t-84.5 48.5t-74.5 48.5t-63.5 22q-30 0 -49 -28.5t-29 -98.5h-113z" />
<glyph unicode="&#x2000;" horiz-adv-x="895" />
<glyph unicode="&#x2001;" horiz-adv-x="1790" />
<glyph unicode="&#x2002;" horiz-adv-x="895" />
<glyph unicode="&#x2003;" horiz-adv-x="1790" />
<glyph unicode="&#x2004;" horiz-adv-x="596" />
<glyph unicode="&#x2005;" horiz-adv-x="447" />
<glyph unicode="&#x2006;" horiz-adv-x="298" />
<glyph unicode="&#x2007;" horiz-adv-x="298" />
<glyph unicode="&#x2008;" horiz-adv-x="223" />
<glyph unicode="&#x2009;" horiz-adv-x="358" />
<glyph unicode="&#x200a;" horiz-adv-x="99" />
<glyph unicode="&#x2010;" horiz-adv-x="634" d="M68 418v157h503v-157h-503z" />
<glyph unicode="&#x2011;" horiz-adv-x="634" d="M68 418v157h503v-157h-503z" />
<glyph unicode="&#x2012;" horiz-adv-x="634" d="M68 418v157h503v-157h-503z" />
<glyph unicode="&#x2013;" horiz-adv-x="944" d="M61 424l7 121h813l6 -121h-826z" />
<glyph unicode="&#x2014;" horiz-adv-x="1906" d="M61 424l7 121h1775l6 -121h-1788z" />
<glyph unicode="&#x2018;" horiz-adv-x="450" d="M53 963q0 115 84 213t221 186l70 -70q-207 -153 -207 -260q0 -39 31 -68t115 -67q-6 -53 -41.5 -87t-98.5 -34q-66 0 -120 55t-54 132z" />
<glyph unicode="&#x2019;" horiz-adv-x="450" d="M23 850q208 150 208 260q0 39 -31.5 68t-115.5 67q6 53 41 87t98 34q66 0 120 -54.5t54 -131.5q0 -207 -303 -400z" />
<glyph unicode="&#x201a;" horiz-adv-x="450" d="M23 -248q208 150 208 260q0 39 -31.5 68t-115.5 67q6 53 41 87t98 34q66 0 120 -54.5t54 -131.5q0 -206 -303 -399z" />
<glyph unicode="&#x201c;" horiz-adv-x="888" d="M53 963q0 115 84 213t221 186l70 -70q-207 -153 -207 -260q0 -39 31 -68t115 -67q-6 -53 -41.5 -87t-98.5 -34q-66 0 -120 55t-54 132zM492 963q0 115 84 213t221 186l69 -70q-207 -153 -207 -260q0 -39 31 -68t115 -67q-6 -53 -41 -87t-98 -34q-66 0 -120 55t-54 132z " />
<glyph unicode="&#x201d;" horiz-adv-x="888" d="M23 850q208 150 208 260q0 39 -31.5 68t-115.5 67q6 53 41 87t98 34q66 0 120 -54.5t54 -131.5q0 -207 -303 -400zM461 850q209 150 209 260q0 38 -32 67.5t-116 67.5q6 53 41.5 87t98.5 34q66 0 120 -54.5t54 -131.5q0 -207 -304 -400z" />
<glyph unicode="&#x201e;" horiz-adv-x="860" d="M23 -248q208 150 208 260q0 39 -31.5 68t-115.5 67q6 53 41 87t98 34q66 0 120 -54.5t54 -131.5q0 -206 -303 -399zM461 -248q209 150 209 260q0 38 -32 67.5t-116 67.5q6 53 41.5 87t98.5 34q66 0 120 -54.5t54 -131.5q0 -206 -304 -399z" />
<glyph unicode="&#x2022;" horiz-adv-x="919" d="M66 475q0 43 42.5 145.5t73.5 133.5t133.5 72.5t145.5 41.5t147 -41.5t131 -72.5q31 -27 73 -131.5t42 -147.5t-41.5 -145.5t-73.5 -134.5q-31 -31 -133.5 -73t-146.5 -42q-42 0 -145 43t-132 72q-30 35 -73 136t-43 144z" />
<glyph unicode="&#x2026;" horiz-adv-x="1376" d="M96 102q0 55 37 92t96 37q56 0 92.5 -37t36.5 -92t-36.5 -94t-92.5 -39q-59 0 -96 39t-37 94zM557 102q0 55 38 92t97 37q56 0 92.5 -37t36.5 -92t-36.5 -94t-92.5 -39q-59 0 -97 39t-38 94zM1020 102q0 54 38 91.5t95 37.5q59 0 95 -37t36 -92q0 -56 -36.5 -94.5 t-94.5 -38.5q-56 0 -94.5 39t-38.5 94z" />
<glyph unicode="&#x202f;" horiz-adv-x="358" />
<glyph unicode="&#x2039;" horiz-adv-x="700" d="M61 383v192l537 332l16 -123l-409 -303v-4l409 -303l-16 -123z" />
<glyph unicode="&#x203a;" horiz-adv-x="700" d="M86 174l410 303v4l-410 303l16 123l537 -332v-192l-537 -332z" />
<glyph unicode="&#x205f;" horiz-adv-x="447" />
<glyph unicode="&#x20ac;" horiz-adv-x="1028" d="M61 416l7 112h147q-4 66 -4 105q0 45 4 123h-147l-7 112h170q29 152 98 253t161 145.5t206 44.5q186 0 314 -78l-41 -150q-119 76 -273 76q-235 0 -295 -291h465l-6 -112h-473q-4 -66 -4 -107q0 -65 6 -121h410l6 -112h-399q68 -295 288 -295q165 0 281 76l29 -152 q-125 -76 -314 -76q-396 0 -463 447h-166z" />
<glyph unicode="&#x2122;" horiz-adv-x="1943" d="M88 1157v125h721v-125h-307v-641h-129v641h-285zM913 516l15 766h233l164 -592h23l188 592h221l10 -766h-131l2 625h-22l-217 -602h-144l-190 600h-23l-10 -623h-119z" />
<glyph unicode="&#x25fc;" horiz-adv-x="942" d="M0 0v942h942v-942h-942z" />
<glyph unicode="&#xfb01;" horiz-adv-x="1099" d="M16 797l9 106l153 45l2 119q4 189 83.5 273.5t225.5 84.5q97 0 189 -45q0 -2 -10 -41t-20.5 -76.5t-10.5 -35.5q-98 41 -150 41q-72 0 -105.5 -47t-33.5 -152v-131h445l168 31v-969h-168v786h-445v-786h-168v784z" />
<glyph unicode="&#xfb02;" horiz-adv-x="1105" d="M16 797l9 106l153 45l2 119q4 189 83.5 273.5t225.5 84.5q97 0 189 -45q0 -2 -10 -41t-20.5 -76.5t-10.5 -35.5q-98 41 -150 41q-72 0 -105.5 -47t-33.5 -152v-131h297l-6 -152h-291v-786h-168v784zM793 0v1380l168 27v-1407h-168z" />
<glyph unicode="&#xfb03;" horiz-adv-x="1767" d="M16 797l9 106l153 45l2 99q4 189 83.5 273.5t225.5 84.5q97 0 189 -45q0 -2 -10 -41t-20.5 -77t-10.5 -36q-98 41 -150 41q-73 0 -106 -46.5t-33 -151.5v-111h498l2 129q4 189 83.5 273.5t225.5 84.5q97 0 189 -45q0 -2 -10 -41t-20.5 -76.5t-10.5 -35.5q-98 41 -150 41 q-72 0 -105.5 -47t-33.5 -152v-131h444l168 31v-969h-168v786h-444v-786h-168v786h-500v-786h-168v784z" />
<glyph unicode="&#xfb04;" horiz-adv-x="1773" d="M16 797l9 106l153 45l2 99q4 189 83.5 273.5t225.5 84.5q97 0 189 -45q0 -2 -10 -41t-20.5 -77t-10.5 -36q-98 41 -150 41q-73 0 -106 -46.5t-33 -151.5v-111h498l2 129q4 189 83.5 273.5t225.5 84.5q97 0 189 -45q0 -2 -10 -41t-20.5 -76.5t-10.5 -35.5q-98 41 -150 41 q-72 0 -105.5 -47t-33.5 -152v-131h297l-6 -152h-291v-786h-168v786h-500v-786h-168v784zM1460 0v1380l168 27v-1407h-168z" />
</font>
</defs>
</svg>
