<?xml version="1.0" standalone="no"?>
<!DOCTYPE svg PUBLIC "-//W3C//DTD SVG 1.1//EN" "http://www.w3.org/Graphics/SVG/1.1/DTD/svg11.dtd" >
<svg>
<metadata>
Created by FontForge 20120731 at Mon Feb 15 05:01:44 2016
 By ,,,
(c) 1996, 2003 Adobe Systems Incorporated. All rights reserved.
</metadata>
<defs>
<font id="KeplerStd-BoldDisp" horiz-adv-x="1000" >
  <font-face 
    font-family="Kepler Std Disp"
    font-weight="700"
    font-stretch="normal"
    units-per-em="1000"
    panose-1="2 4 8 3 6 7 10 6 2 4"
    ascent="700"
    descent="-300"
    x-height="423"
    cap-height="642"
    bbox="-181 -289 3458.12 886"
    underline-thickness="58"
    underline-position="-82"
    unicode-range="U+0020-FB06"
  />
<missing-glyph horiz-adv-x="500" 
d="M0 0v700h500v-700h-500zM250 395l170 255h-340zM280 350l170 -255v510zM80 50h340l-170 255zM50 605v-510l170 255z" />
    <glyph glyph-name="T_h" unicode="Th" horiz-adv-x="1061" 
d="M238 266v189v168q-77 0 -109 -10t-47 -35q-19 -33 -53 -126l-11 4q17 69 20 193q57 -11 227 -11h93q173 0 221 7q0 21 -1 26q81 2 146 14q-4 -86 -4 -184v-133q78 66 153 66q80 0 109 -55q12 -24 12 -60q0 -49 -0.5 -147.5t-0.5 -130.5q0 -19 9 -25t44 -7l-1 -13
q-10 0 -52.5 2t-66.5 2q-28 0 -68 -2t-48 -2v13q24 1 32.5 6t10.5 20q3 28 3 129q0 165 -5 185q-12 42 -51 42q-49 0 -72 -43q-8 -15 -8 -38v-140q0 -105 3 -133q1 -17 9 -22t36 -6v-13q-9 0 -51 2t-64 2q-42 0 -81.5 -2t-46.5 -2v13q31 1 40.5 6.5t11.5 23.5q4 120 4 176
v280q0 85 -1 116q-90 15 -191 12q0 -7 -1 -59.5t-1 -91.5v-210q0 -173 5 -215q1 -16 6.5 -22.5t19.5 -8.5q10 -1 21.5 -3t20.5 -3t20 -1l-3 -13q-6 0 -63.5 2t-106.5 2q-32 0 -88 -2t-74 -2l-2 13q9 1 24.5 3t30.5 3q20 2 27.5 8t8.5 21q4 70 4 222z" />
    <glyph glyph-name="f_f" unicode="ff" horiz-adv-x="570" 
d="M16 420h59v27q0 118 56 174q51 49 119 49q53 0 78.5 -22t25.5 -53q0 -22 -16 -37.5t-46 -15.5q-28 0 -28 32q2 77 -30 77q-29 0 -30 -53q0 -14 4.5 -72t6.5 -106h138q0 13 -1 19q-2 106 30 155q53 91 154 91q57 0 83 -22.5t26 -54.5q0 -21 -16 -36.5t-45 -15.5
q-31 0 -31 30q1 44 -6 62.5t-27 18.5q-30 0 -33 -53q-2 -25 7 -194h87l-4 -16l-84 -5q-2 -88 -2 -166q0 -122 5 -187q2 -18 6.5 -25t17.5 -8q22 -4 39 -4l-3 -13q-14 0 -51 2t-59 2q-34 0 -146 -4l2 13q28 1 36 5t10 18q4 56 4 145v223h-137q-2 -106 -2 -179q0 -128 3 -176
q1 -32 19 -33q1 0 14.5 -1.5t23.5 -1.5l-3 -13q-8 0 -43 2t-59 2q-20 0 -48.5 -0.5t-61.5 -2t-45 -1.5l2 13q36 3 45 6.5t10 16.5q4 37 4 147v221l-61 6z" />
    <glyph glyph-name="f_f_i" unicode="ffi" horiz-adv-x="836" 
d="M16 420h60v39q0 88 49 140q65 72 175 72q40 0 71 -14t45 -32q71 60 172 60q82 0 123 -28.5t41 -75.5q0 -27 -18 -47t-56 -20q-53 0 -53 42q0 5 3 22.5t3 28.5q0 60 -58 60q-24 0 -42 -17t-24 -46q-14 -64 -14 -184h100q124 0 180 13q-4 -46 -4 -159v-119q0 -48 3 -114
q2 -19 12 -24.5t45 -7.5l-1 -13q-18 0 -61.5 2t-72.5 2q-6 0 -114 -4v13q27 1 35.5 7t10.5 21q4 38 4 123v110q0 87 -5 114q-4 16 -45 16h-88q0 -20 -0.5 -76t-0.5 -92q0 -123 5 -186q1 -23 10.5 -29t46.5 -8l-3 -13q-18 0 -50 2t-54 2q-43 0 -147 -4l2 13q28 1 36.5 5.5
t10.5 18.5q4 56 4 144v223h-137q-2 -92 -2 -173q0 -129 3 -185q2 -20 12 -25.5t42 -7.5l-3 -13q-7 0 -41 2t-58 2q-4 0 -160 -4l2 13q37 1 47.5 5.5t12.5 18.5q4 58 4 144v223l-61 6zM215 420h137q0 84 21 144q-8 33 -31.5 61.5t-55.5 28.5q-22 0 -38 -15.5t-22 -45.5
q-12 -55 -11 -173z" />
    <glyph glyph-name="f_f_l" unicode="ffl" horiz-adv-x="836" 
d="M15 420h61v35q0 42 14.5 83t37.5 65q63 68 170 68q77 0 118 -43q60 55 152 57q56 0 96 -21q6 1 23.5 3.5t43 5.5t44.5 6q-6 -87 -6 -210v-258q0 -120 2 -168q2 -22 11 -27.5t50 -6.5l-1 -13q-20 0 -89 2t-87 2q-20 0 -45 -2t-35 -2v13q29 1 38 8t11 30q6 60 6 194v292
q0 69 -6 84q-7 23 -25 37.5t-41 14.5q-39 0 -51 -46q-14 -53 -14 -203h95l-4 -17l-91 -4q-2 -92 -2 -166q0 -122 5 -187q2 -23 10.5 -29t43.5 -8l-3 -13q-18 0 -55.5 2t-62.5 2t-129 -4l1 13q28 1 36.5 5t10.5 18q4 58 4 145v223h-137q-2 -92 -2 -173q0 -131 3 -181
q2 -24 11 -29.5t46 -7.5l-2 -13q-8 0 -43.5 2t-59.5 2q-13 0 -157 -4l1 13q36 1 46.5 5t11.5 18q4 39 4 145v223l-62 6zM215 420h139q0 90 16 144q-7 33 -30 61t-56 28q-44 0 -58 -55q-11 -37 -11 -178z" />
    <glyph glyph-name="f_i" unicode="fi" horiz-adv-x="558" 
d="M11 406l2 14h62v25q0 111 56 169q73 71 179 71q85 0 124.5 -29.5t39.5 -75.5q0 -26 -18.5 -45.5t-57.5 -19.5q-21 0 -36 10.5t-15 32.5q0 6 4 23.5t4 28.5q0 57 -60 57q-56 0 -71 -73q-10 -53 -10 -174h101q124 0 181 13q-5 -38 -5 -159v-119q0 -85 4 -113q1 -19 11 -25
t46 -8l-1 -13q-18 0 -62 2t-73 2q-34 0 -69.5 -2t-44.5 -2v13q27 1 35.5 7t10.5 22q4 36 4 122v110q0 87 -5 114q-5 16 -45 16h-89v-199q0 -114 2 -151q2 -27 9.5 -33.5t40.5 -7.5l1 -13q-8 0 -26 1.5t-35.5 2t-34.5 0.5q-20 0 -78.5 -2t-80.5 -2v13q37 1 46.5 5.5
t11.5 22.5q5 40 5 140v223z" />
    <glyph glyph-name="f_l" unicode="fl" horiz-adv-x="558" 
d="M12 420h63v32q0 120 59 174q60 59 156 59q59 0 96 -22q9 2 110 15q-5 -140 -5 -209v-259q0 -119 2 -167q2 -22 11.5 -27.5t49.5 -6.5l-1 -13q-20 0 -89 2t-87 2q-20 0 -45.5 -2t-35.5 -2v13q28 0 38 8t12 30q8 81 7 194q0 208 -1 291q0 68 -7 85q-19 51 -66 51
q-44 0 -54 -51q-11 -49 -11 -197h95l-3 -16l-92 -5q-1 -63 -1 -200q0 -112 2 -149q2 -27 9.5 -33.5t40.5 -7.5l-2 -13q-13 0 -43 2t-50 2q-22 0 -81.5 -2t-76.5 -2v13q34 1 44.5 6t12.5 22q5 60 5 140v222l-64 5z" />
    <glyph glyph-name=".notdef" horiz-adv-x="500" 
d="M0 0v700h500v-700h-500zM250 395l170 255h-340zM280 350l170 -255v510zM80 50h340l-170 255zM50 605v-510l170 255z" />
    <glyph glyph-name=".null" horiz-adv-x="0" 
 />
    <glyph glyph-name="nonmarkingreturn" horiz-adv-x="333" 
 />
    <glyph glyph-name="space" unicode=" " horiz-adv-x="160" 
 />
    <glyph glyph-name="exclam" unicode="!" horiz-adv-x="248" 
d="M125 654h1q23 0 57 -32.5t34 -63.5q0 -26 -22 -77q-61 -150 -61 -266h-18q0 114 -61 266q-22 51 -22 77q0 34 36 65t56 31zM127 -14h-1q-31 0 -52.5 22.5t-21.5 56.5q0 33 22 55.5t54 22.5t53.5 -22t21.5 -56t-21.5 -56.5t-54.5 -22.5z" />
    <glyph glyph-name="quotedbl" unicode="&#x22;" horiz-adv-x="317" 
d="M257 701h1q14 0 21 -19t7 -35q0 -29 -19 -89.5t-35 -99.5l-13 4q-12 130 -34 209q10 8 34 19t38 11zM111 701h1q14 0 21 -19t7 -35q0 -29 -19 -89.5t-35 -99.5l-13 4q-14 151 -34 209q10 8 34 19t38 11z" />
    <glyph glyph-name="numbersign" unicode="#" horiz-adv-x="452" 
d="M289 393h-104l-23 -95h105zM208 584l27 3q-1 -2 -32 -122h102q27 118 27 119l29 3q-23 -74 -34 -122h90q-10 -32 -17 -73h-90l-23 -93q92 2 101 2q-11 -40 -16 -75q-9 0 -41 0.5t-60 1.5q-11 -55 -29 -137l-27 -3q1 2 34 140h-102q-7 -25 -13 -52t-12 -52t-8 -33l-27 -6
q3 8 7.5 26t13 53t15.5 64q-15 -1 -45 -1.5t-41 -0.5q9 29 15 74q4 0 89 -2l24 95q-37 1 -101 -1q12 41 15 74q21 -1 103 -1q22 96 26 119z" />
    <glyph glyph-name="dollar" unicode="$" horiz-adv-x="500" 
d="M368 122v1q0 37 -22.5 56.5t-84.5 51.5l-8 -201q52 2 83.5 26t31.5 66zM149 503v-1q0 -35 24.5 -57t75.5 -46l9 196q-57 -1 -83 -27.5t-26 -64.5zM262 686l25 6l-6 -82q87 -4 127 -39l16 43l10 -6q-22 -112 -22 -196l-14 3q1 75 -29 122t-89 57l-12 -204q128 -64 142 -74
q54 -39 54 -121q0 -69 -41 -112q-62 -65 -171 -69l-2 -87l-28 -9l6 96q-23 0 -50.5 3t-43 6t-47.5 9.5t-39 7.5q11 70 16 185l13 5q-2 -101 41 -148.5t112 -50.5l10 209q-78 36 -112 57q-71 45 -71 135q0 82 61 133q54 45 141 45z" />
    <glyph glyph-name="percent" unicode="%" horiz-adv-x="646" 
d="M121 0l-17 21q174 247 383 568q-21 -13 -33 -19t-38.5 -12.5t-59.5 -6.5q-47 0 -75 12q14 -35 14 -86q0 -73 -34.5 -120t-96.5 -47q-63 0 -97.5 39.5t-34.5 114.5q0 78 41.5 122.5t106.5 44.5q31 0 60 -16l15 8q38 -53 118 -53q52 0 84.5 18t46.5 38q5 6 13 16.5t11 14.5
l37 4q-324 -473 -444 -661zM188 611h-1q-23 0 -36 -19q-24 -36 -25 -123q-2 -85 22 -119q16 -19 42 -19q29 0 50.5 37.5t21.5 112.5q0 130 -74 130zM494 339h1q63 0 91.5 -44t28.5 -112q0 -71 -33.5 -117t-94.5 -46q-64 0 -99 39.5t-35 111.5q0 78 39.5 123t101.5 45z
M513 320h-1q-30 0 -42 -22q-23 -36 -23 -120q-1 -89 24 -121q12 -18 38 -18q31 0 52 38t21 108q0 52 -17 93.5t-52 41.5z" />
    <glyph glyph-name="ampersand" unicode="&#x26;" horiz-adv-x="703" 
d="M681 23v-12q-67 -30 -154 -30q-38 0 -72 17.5t-82 72.5q-62 -87 -162 -87q-82 0 -130 48q-45 43 -45 124q0 66 49 108q27 24 85 57q-55 72 -55 151q0 71 46.5 115t124.5 44q72 0 113.5 -37t41.5 -92q0 -56 -53 -89q-24 -16 -87 -49q70 -91 140 -165q17 42 31.5 72
t16.5 35q27 60 51.5 89.5t59.5 29.5q47 0 47 -48q0 -27 -22 -44q-10 -7 -21 -1q-12 7 -25 7q-22 0 -37.5 -11.5t-35.5 -42.5q-31 -48 -54 -98q85 -93 137 -129.5t92 -34.5zM284 616h-1q-24 0 -40.5 -22.5t-16.5 -67.5q0 -64 66 -151q26 22 41.5 58.5t15.5 73.5
q0 51 -16.5 80t-48.5 29zM154 228v-1q0 -72 41 -127.5t98 -55.5q44 0 70 38q-7 8 -37.5 43t-49.5 57t-48 58t-51 67q-23 -30 -23 -79z" />
    <glyph glyph-name="quotesingle" unicode="'" horiz-adv-x="170" 
d="M111 701h1q14 0 21.5 -19.5t7.5 -34.5q0 -48 -54 -189l-13 4q-13 136 -35 209q11 9 35 19.5t37 10.5z" />
    <glyph glyph-name="parenleft" unicode="(" horiz-adv-x="330" 
d="M44 261v1q0 226 117 359q54 63 123 97l8 -14q-105 -53 -131 -214q-13 -81 -13 -229q0 -147 13 -231q25 -160 131 -213l-8 -15q-70 36 -123 98q-117 133 -117 361z" />
    <glyph glyph-name="parenright" unicode=")" horiz-adv-x="330" 
d="M288 259v-1q0 -226 -118 -359q-52 -61 -121 -97l-10 15q106 51 132 213q12 77 12 230q0 150 -12 230q-27 162 -131 213l9 15q67 -35 122 -98q117 -133 117 -361z" />
    <glyph glyph-name="asterisk" unicode="*" horiz-adv-x="344" 
d="M201 536l-3 10q20 6 48.5 29.5t34.5 24.5q12 2 24 -10.5t14 -21.5q2 -10 -2.5 -26.5t-17.5 -17.5q-5 -1 -41.5 7t-56.5 5zM190 514l7 7q15 -15 50 -27.5t39 -16.5q7 -13 2.5 -28.5t-11.5 -20.5q-9 -7 -22.5 -11t-26.5 6q-3 3 -14 39t-24 52zM165 512l9 -2q-4 -19 2 -56
t4 -43q-4 -12 -20.5 -16t-25.5 -2q-6 3 -13 8t-13 14t-3 18q2 5 27.5 32.5t32.5 46.5zM151 531l2 -10q-19 -5 -47 -29t-35 -25q-12 -2 -23 10t-15 22q-1 12 3 27.5t17 16.5q6 1 42 -7t56 -5zM161 554l-7 -7q-14 14 -49 27t-39 18q-7 13 -3 27.5t11 21.5q8 7 22 10.5t27 -5.5
q3 -4 14 -40t24 -52zM186 554l-9 3q5 20 -2 57t-5 42q4 12 20 15.5t27 2.5q6 -3 13 -8t13 -14t3 -18q-2 -5 -27.5 -33t-32.5 -47z" />
    <glyph glyph-name="plus" unicode="+" horiz-adv-x="443" 
d="M245 25h-46v171h-157v43h157v156h46v-156h156v-43h-156v-171z" />
    <glyph glyph-name="comma" unicode="," horiz-adv-x="229" 
d="M35 -126l-5 14q54 7 91 41t37 86q0 12 -10 4q-15 -13 -45 -13q-27 0 -46.5 19t-18.5 51q0 28 21.5 49.5t50.5 21.5q42 0 64.5 -30t22.5 -79q0 -77 -50.5 -119t-111.5 -45z" />
    <glyph glyph-name="hyphen" unicode="-" horiz-adv-x="303" 
d="M33 196l11 56q112 -3 226 0l-10 -56q-116 3 -227 0z" />
    <glyph glyph-name="period" unicode="." horiz-adv-x="229" 
d="M115 143h1q31 0 53 -22.5t22 -56.5q0 -33 -22 -55.5t-54 -22.5t-54 22t-22 56q0 33 22.5 56t53.5 23z" />
    <glyph glyph-name="slash" unicode="/" horiz-adv-x="386" 
d="M326 697l30 -17q-29 -58 -151 -399q-83 -233 -141 -393l-32 15q15 35 37 94t57.5 155.5t53.5 145.5q121 325 146 399z" />
    <glyph glyph-name="zero" unicode="0" horiz-adv-x="500" 
d="M255 632h1q89 0 147 -61q75 -79 75 -254q0 -208 -98 -288q-53 -43 -135 -43q-86 0 -139 50q-84 80 -84 269q0 198 105 281q54 46 128 46zM253 617h-1q-20 0 -31.5 -11t-22.5 -38q-28 -75 -28 -257q0 -170 27 -253q19 -57 55 -57q20 0 33 13t22 42q24 78 24 254
q0 177 -25 254q-18 53 -53 53z" />
    <glyph glyph-name="one" unicode="1" horiz-adv-x="500" 
d="M421 11l2 -14q-37 0 -93 1.5t-77 1.5q-24 0 -84 -1.5t-82 -1.5l-4 13l63 6q33 2 35 26q3 84 3 166v204q0 118 -3 161q-1 13 -12 13q-37 0 -70 -3l5 15q201 22 229 36l3 -3q0 -10 -2 -81t-2 -140v-201q0 -95 4 -169q0 -22 23 -23z" />
    <glyph glyph-name="two" unicode="2" horiz-adv-x="500" 
d="M464 198l11 -9q-25 -85 -31 -195q-78 6 -309 6q-81 0 -106 -2l-5 8q21 58 31 77q182 116 221 264q14 61 14 131q0 63 -19 100t-57 37q-39 0 -56 -25t-17 -78q0 -16 8 -54q4 -20 -13 -37t-43 -17q-29 0 -45.5 18t-16.5 52q0 59 59 110q54 48 153 48q87 0 134 -35
q68 -50 68 -154q0 -95 -69 -152q-66 -54 -246 -178q226 5 287 11q23 3 29 22q10 27 18 52z" />
    <glyph glyph-name="three" unicode="3" horiz-adv-x="500" 
d="M247 632h1q77 0 132 -35.5t55 -107.5q0 -76 -69 -112q-40 -21 -120 -42v-6q118 -3 169 -41q53 -39 53 -109q0 -89 -68 -141q-67 -52 -179 -52q-92 0 -141 31.5t-49 81.5q0 24 19 42t47 18q16 0 24.5 -9.5t10.5 -21.5q10 -72 30.5 -99t59.5 -27q83 0 83 158q0 76 -22 114
t-80 38q-26 0 -44 -7l-15 11l2 5q68 6 99 37q44 37 44 123q0 55 -19.5 94t-57.5 39q-70 0 -70 -93q0 -19 5 -39q3 -16 -10 -29q-13 -15 -37 -15q-25 0 -40.5 15.5t-15.5 45.5q0 50 55 91.5t148 41.5z" />
    <glyph glyph-name="four" unicode="4" horiz-adv-x="500" 
d="M246 207q3 55 4.5 120.5t2 132.5t1.5 92q-119 -172 -207 -326q15 -7 75 -13t124 -6zM16 195l-10 16q30 45 94 140t102 152.5t58 92.5q91 17 132 37l5 -2q-6 -98 -6 -338v-82q59 1 107 17v-12q-34 -22 -107 -31q0 -67 2 -185q-103 0 -152 -13l-4 3q3 39 8 190
q-159 1 -229 15z" />
    <glyph glyph-name="five" unicode="5" horiz-adv-x="500" 
d="M84 258l-17 18q16 55 26.5 179t9.5 167q14 -6 58 -11q45 -5 96 -5q93 0 135.5 7.5t61.5 36.5l9 -7q-10 -46 -33 -85.5t-51 -53.5q-47 -23 -137 -23q-77 0 -124 10q-17 -150 -26 -192q80 69 180 69q88 0 140.5 -40.5t53.5 -129.5q0 -75 -39 -126q-31 -41 -85 -63.5
t-121 -22.5q-85 0 -135.5 31t-50.5 77q0 31 20.5 45.5t47.5 14.5q28 0 34 -32q12 -62 31.5 -91t54.5 -29q84 0 84 166q0 101 -46 140q-24 21 -62 21q-79 0 -115 -71z" />
    <glyph glyph-name="six" unicode="6" horiz-adv-x="500" 
d="M436 622l2 -18q-20 8 -47 8q-96 0 -152.5 -84t-62.5 -205q74 72 144 72q76 0 117 -49t41 -132q0 -98 -56 -159q-61 -69 -169 -69q-97 0 -152 51q-76 67 -76 214q0 195 119 303q88 78 224 78q35 0 68 -10zM253 349h-1q-50 0 -70 -56q-10 -27 -10 -78q0 -66 12 -121
q20 -92 72 -92q40 0 58 54q17 52 17 130q0 56 -11 97q-20 66 -67 66z" />
    <glyph glyph-name="seven" unicode="7" horiz-adv-x="500" 
d="M51 403l-12 6q15 47 23 120t5 100q40 -11 214 -11q170 0 191 1l2 -5q-32 -118 -57 -163q-76 -140 -117.5 -248t-40.5 -212l-4 -4q-50 -3 -84 11q-33 13 -33 41q0 21 17 57q24 54 130.5 199t129.5 196q-50 4 -166 4q-102 0 -132.5 -6t-39.5 -24q-11 -21 -26 -62z" />
    <glyph glyph-name="eight" unicode="8" horiz-adv-x="500" 
d="M263 632h1q70 0 121 -40t51 -108q0 -44 -31 -71q-15 -13 -83 -55q84 -46 114 -86t30 -93q0 -86 -58 -135q-68 -57 -169 -57q-93 0 -149 39.5t-56 113.5q0 55 42 91q25 20 85 55q-54 36 -79.5 72t-25.5 87q0 70 39 118q55 69 168 69zM244 615h-1q-37 0 -62.5 -25.5
t-25.5 -68.5q0 -50 32 -79q36 -32 122 -74q44 44 44 113q0 58 -28 96t-81 38zM257 4h1q47 0 72.5 26.5t25.5 75.5q0 38 -35 73t-146 99q-48 -42 -48 -115q0 -65 33.5 -112t96.5 -47z" />
    <glyph glyph-name="nine" unicode="9" horiz-adv-x="500" 
d="M77 -4l-1 14q46 -6 91 9q74 21 114.5 95t46.5 183q-29 -30 -67.5 -49t-69.5 -19q-80 0 -123 48.5t-43 136.5q0 80 48 139q63 79 180 79q92 0 148 -54q78 -73 78 -229q0 -188 -115 -290q-82 -73 -209 -73q-54 0 -78 10zM249 616h-1q-40 0 -58 -55q-16 -55 -16 -125
q0 -64 20.5 -112t58.5 -48q46 0 65 43q11 25 12 91q2 128 -31 176q-22 30 -50 30z" />
    <glyph glyph-name="colon" unicode=":" horiz-adv-x="228" 
d="M114 136h1q31 0 52 -21.5t21 -53.5q0 -33 -21.5 -54t-52.5 -21q-30 0 -51.5 21t-21.5 54q0 31 21.5 53t51.5 22zM115 410h1q31 0 51.5 -21.5t20.5 -53.5t-21 -53.5t-52 -21.5q-30 0 -52 21.5t-22 53.5t22 53.5t52 21.5z" />
    <glyph glyph-name="semicolon" unicode=";" horiz-adv-x="229" 
d="M111 410h1q31 0 52 -21.5t21 -53.5t-21.5 -53.5t-52.5 -21.5q-30 0 -51.5 21.5t-21.5 53.5t21.5 53.5t51.5 21.5zM37 -125l-5 14q53 7 88.5 40t35.5 84q0 5 -2.5 6t-5.5 -3q-16 -13 -45 -13q-27 0 -45.5 18.5t-17.5 49.5q0 27 21 48t49 21q41 0 62.5 -29t21.5 -77
q0 -75 -48.5 -115t-108.5 -44z" />
    <glyph glyph-name="less" unicode="&#x3c;" horiz-adv-x="436" 
d="M55 206v38l327 179v-50l-276 -147v-2l276 -148v-50z" />
    <glyph glyph-name="equal" unicode="=" horiz-adv-x="443" 
d="M400 164v-43h-358v43h358zM400 312v-42h-358v42h358z" />
    <glyph glyph-name="greater" unicode="&#x3e;" horiz-adv-x="436" 
d="M382 244v-38l-327 -179v49l275 148v2l-275 147v50z" />
    <glyph glyph-name="question" unicode="?" horiz-adv-x="410" 
d="M201 215l-11 -7q-54 56 -58 114q-3 38 30 69q12 12 32 31t40.5 37.5t26.5 24.5q25 23 25 59q0 47 -21.5 70.5t-54.5 23.5t-51 -20t-18 -50q0 -24 11 -50q9 -17 -10 -34q-21 -21 -56 -21q-21 0 -36 16t-15 46q0 59 54.5 94.5t119.5 35.5q88 0 132 -49t44 -133
q0 -68 -55 -107q-13 -10 -39.5 -30.5t-43.5 -34t-23 -18.5q-35 -29 -23 -67zM203 -14h-1q-31 0 -52.5 22.5t-21.5 56.5q0 33 22 55.5t53 22.5q32 0 54 -22.5t22 -56.5t-21.5 -56t-54.5 -22z" />
    <glyph glyph-name="at" unicode="@" horiz-adv-x="703" 
d="M296 99v-1q0 -11 4.5 -18.5t10.5 -7.5q33 0 65.5 47.5t52.5 113.5q5 17 19 71q3 46 -34 46q-13 0 -29 -12t-27 -30q-62 -108 -62 -209zM512 -23l6 -16q-86 -100 -234 -100q-114 0 -179 68t-65 194q0 79 25.5 150t72 126t118.5 87t160 32q125 0 187.5 -68t62.5 -170
q0 -104 -59 -175.5t-143 -71.5q-54 0 -62.5 28t10.5 92q-25 -49 -64.5 -84t-87.5 -35q-59 0 -59 81q0 58 30 123t85 100q43 28 93 28q36 0 49 -30l6 21h86q-43 -123 -64 -259q-4 -20 -0.5 -29t16.5 -9q55 0 98.5 63t43.5 146q0 103 -60.5 166.5t-172.5 63.5
q-128 0 -200 -100q-84 -117 -84 -283q0 -119 52 -176q51 -56 141 -56q116 0 192 93z" />
    <glyph glyph-name="A" unicode="A" horiz-adv-x="603" 
d="M615 9v-13q-81 3 -149 3q-1 0 -148 -3l3 13q39 5 48 10t6 21q-2 13 -54 212q-21 1 -85 1q-65 0 -87 -1q-47 -156 -51 -185q-5 -31 10.5 -42t72.5 -16l-4 -13q-9 0 -40 2t-55 2q-13 0 -52.5 -2t-56.5 -2v13q41 4 58 15t32 49q38 97 169 512q8 23 9 48q21 -1 66 4.5
t59 13.5q26 -109 91.5 -335.5t89.5 -276.5q9 -23 33 -26zM243 559q-61 -196 -87 -285q10 0 38.5 -0.5t43.5 -0.5q17 0 44 0.5t33 0.5q-45 185 -72 285z" />
    <glyph glyph-name="B" unicode="B" horiz-adv-x="606" 
d="M11 -4l1 13q46 3 60 7.5t15 20.5q6 58 6 191v207q0 130 -4 167q-1 13 -17 18.5t-60 8.5l-2 13q13 0 65.5 -2t81.5 -2q19 0 89 2t92 2q69 0 100 -7t56 -24q44 -32 44 -106q0 -93 -82 -130q-38 -17 -104 -28v-6q112 -8 163 -40q59 -35 59 -120q0 -88 -65 -136
q-64 -47 -213 -47q-24 0 -71 1t-71 1q-20 0 -46.5 -0.5t-56 -2t-40.5 -1.5zM243 483v-134q9 -1 41 -1q50 0 74.5 31.5t24.5 110.5q0 61 -18 97q-20 39 -80 39q-23 0 -30.5 -4t-7.5 -14q-4 -120 -4 -125zM243 330v-142q0 -128 4 -158q2 -17 40 -17q66 0 95 43q26 42 26 127
q0 80 -25 115q-26 35 -100 35q-27 0 -40 -3z" />
    <glyph glyph-name="C" unicode="C" horiz-adv-x="621" 
d="M575 429l-13 -4q-9 89 -51.5 150t-120.5 61q-76 0 -120 -60q-63 -86 -63 -249q0 -144 47 -222q50 -81 151 -81q141 0 186 157l13 -9q-24 -92 -90 -141t-169 -49q-163 0 -240 96q-70 81 -70 229q0 181 115 276q83 72 221 72q128 0 185 -60l18 56l10 -5q-16 -109 -9 -217z
" />
    <glyph glyph-name="D" unicode="D" horiz-adv-x="683" 
d="M93 262v161q0 106 -3 175q-1 24 -30 27l-47 4l2 13q7 0 62 -2t84 -2q25 0 82.5 2t86.5 2q140 0 203 -39q116 -70 116 -261q0 -238 -166 -314q-70 -32 -178 -32q-26 0 -79.5 1.5t-80.5 1.5q-35 0 -82 -1.5t-54 -1.5l1 13l43 3q19 1 26 8t8 21q6 126 6 221zM243 412v-155
q0 -193 4 -225q3 -20 45 -20q98 0 141 63q54 79 54 259q0 173 -54 240q-43 52 -129 52q-24 0 -36.5 -3.5t-15.5 -7.5t-5 -14q-4 -56 -4 -189z" />
    <glyph glyph-name="E" unicode="E" horiz-adv-x="564" 
d="M13 629v12q12 0 76 -1.5t92 -1.5h171q105 0 141 9q-7 -50 -4 -180l-12 -3q-10 63 -35 109q-17 30 -42 39t-100 9h-33q-18 0 -18 -16q-6 -96 -6 -169v-95q13 -1 56 -1q60 0 84.5 21.5t33.5 77.5h12q-6 -48 -7 -121t3 -110h-12q-9 63 -31.5 88.5t-85.5 25.5q-46 0 -53 -1
v-80q0 -149 4 -198q1 -15 12.5 -20.5t47.5 -5.5q61 0 90 6t55 27q50 38 78 140l12 -4q-1 -16 -13 -93t-17 -98q-78 5 -219 5h-114q-34 0 -96 -2t-76 -2l1 13l47 5q31 3 33 34q5 67 5 203v173q0 138 -4 177q-3 23 -35 24z" />
    <glyph glyph-name="F" unicode="F" horiz-adv-x="533" 
d="M14 629l-2 13q108 -4 177 -4h134q126 0 182 9q-9 -81 -5 -183l-11 -1q-11 66 -32 101q-17 30 -48 44t-99 14h-42q-18 0 -19 -13q-5 -55 -5 -181v-97q11 -3 58 -3q60 0 88.5 21t37.5 79l12 -2q-5 -42 -5.5 -122.5t4.5 -108.5h-12q-12 63 -35.5 88.5t-89.5 25.5
q-49 0 -58 -2v-101q0 -121 4 -161q1 -26 27 -29q5 0 26.5 -3t33.5 -4l-2 -13q-13 0 -71.5 2t-87.5 2q-36 0 -94.5 -2t-65.5 -2l-2 13l47 5q26 3 29 26q6 66 6 201v187q0 105 -3 171q-2 24 -22 26z" />
    <glyph glyph-name="G" unicode="G" horiz-adv-x="676" 
d="M585 423h-14q-11 105 -59.5 160.5t-120.5 55.5q-83 0 -127 -67q-57 -86 -57 -260q0 -151 46 -232q44 -80 125 -80q65 0 70 56q5 31 5 156q-1 45 -7.5 57.5t-33.5 14.5l-47 4l-3 13q15 0 77 -1.5t82 -1.5q63 0 135 3l3 -12q-33 -4 -42.5 -10.5t-12.5 -25.5q-4 -44 -4 -107
q0 -51 4 -113q-5 -1 -91 -27q-80 -23 -145 -23q-194 0 -272 103q-62 80 -62 227q0 93 35.5 168.5t101.5 120.5q78 53 211 53q63 0 113 -18t74 -41l20 59l10 -6q-6 -29 -11.5 -102.5t-2.5 -123.5z" />
    <glyph glyph-name="H" unicode="H" horiz-adv-x="709" 
d="M94 227v182q0 153 -3 187q-1 19 -16 25t-55 8l1 13q12 0 65.5 -2t75.5 -2q18 0 75 2t73 2l-1 -13q-34 0 -46 -7t-14 -27q-5 -48 -5 -165v-84q24 -1 100 -1q82 0 122 1v98q0 91 -4 157q-1 16 -16.5 21.5t-50.5 6.5l1 13q11 0 43.5 -1.5t59 -2t38.5 -0.5q75 0 151 4l1 -13
q-39 -2 -53 -7.5t-15 -22.5q-5 -90 -5 -178v-173q0 -159 6 -213q2 -13 16.5 -18.5t54.5 -7.5l-4 -12q-9 0 -62.5 1.5t-87.5 1.5q-33 0 -85 -1.5t-63 -1.5l1 12q37 3 52.5 10t16.5 23q5 115 5 180v101q-66 2 -120 2t-102 -2v-98q0 -131 4 -183q1 -18 17 -24.5t55 -8.5v-13
q-15 0 -71 2t-89 2q-25 0 -77 -2t-70 -2v13q40 2 57 9t18 25q6 69 6 184z" />
    <glyph glyph-name="I" unicode="I" horiz-adv-x="337" 
d="M93 231v182q0 145 -3 182q-2 19 -16 25t-56 9l1 13q11 0 64 -2t89 -2q30 0 81.5 2t63.5 2l2 -13q-41 -2 -55 -8t-16 -24q-4 -96 -4 -183v-183q0 -123 5 -188q1 -19 15 -25t57 -9l-2 -13q-14 0 -67.5 2t-84.5 2q-33 0 -87 -2t-65 -2l2 13q41 2 55.5 8.5t15.5 24.5
q5 38 5 189z" />
    <glyph glyph-name="J" unicode="J" horiz-adv-x="325" 
d="M16 629l4 13q11 0 59.5 -2t80.5 -2q28 0 85 2t67 2l-1 -13l-37 -4q-24 -2 -26 -28q-6 -82 -5 -458q0 -81 -17 -128q-25 -73 -72 -116q-79 -76 -166 -76q-30 0 -50 13t-20 28q0 16 16.5 33t31.5 17q14 0 21 -13q28 -48 59 -48q36 0 40 78q6 116 7 294l1 225q0 102 -3 148
q-2 26 -22 29q-24 4 -53 6z" />
    <glyph glyph-name="K" unicode="K" horiz-adv-x="655" 
d="M93 228v182q0 154 -3 188q-1 18 -14 23t-55 8l2 13q4 0 55 -2t89 -2q34 0 84.5 2t59.5 2l2 -13q-41 -3 -52 -7.5t-12 -22.5q-6 -81 -6 -194v-80q54 30 136.5 124t116.5 150q11 19 -11 22l-66 7l9 13q13 0 46 -1t60 -1q40 0 106 3l2 -12q-69 -4 -99 -30q-16 -13 -42.5 -42
t-69 -76.5t-63.5 -70.5q47 -84 131 -216t112 -162q13 -12 25 -16t48 -7l-5 -13q-53 2 -139 0q-13 -1 -98 -8q-7 15 -40 71t-74.5 125t-58.5 99q-17 27 -26 30v-78q0 -130 5 -195q1 -18 13.5 -23t58.5 -9l-2 -13q-11 0 -65.5 2t-93.5 2q-35 0 -88 -2t-59 -2l1 13q44 4 58 9.5
t16 22.5q6 40 6 187z" />
    <glyph glyph-name="L" unicode="L" horiz-adv-x="532" 
d="M507 196l12 -1q-3 -23 -10.5 -98t-10.5 -102q-3 0 -109 4q-112 2 -221 2q-26 0 -88.5 -2t-69.5 -2l1 13l47 4q16 2 21.5 7.5t7.5 19.5q7 63 7 230v166q0 131 -3 166q0 21 -26 22l-45 4l1 13q7 0 66 -2t87 -2q32 0 84.5 2t61.5 2l4 -13l-44 -4q-29 -3 -30 -26
q-6 -129 -6 -223v-110q0 -203 3 -231q1 -18 37 -18q68 0 100.5 7.5t54.5 30.5q41 43 68 141z" />
    <glyph glyph-name="M" unicode="M" horiz-adv-x="816" 
d="M20 629l1 13q76 -4 126 -4q71 0 103 4q9 -28 37.5 -99.5t69 -171t64.5 -163.5q96 254 151 434q28 -4 96 -4q31 0 74 2t52 2l3 -12q-6 -1 -29.5 -3.5t-30.5 -3.5q-17 -1 -17 -26v-132q-2 -304 5 -415q1 -20 7.5 -27t22.5 -9l48 -5l-1 -13q-80 4 -151 4q-3 0 -151 -4l1 13
q38 2 51 8.5t14 22.5q3 45 11 556h-1q-39 -117 -79 -242.5t-70.5 -222t-38.5 -122.5l-63 -15q-20 67 -103.5 299t-104.5 293h-2q0 -254 7 -490q1 -46 10 -61.5t33 -18.5l52 -7l-5 -13q-8 0 -49.5 2t-66.5 2q-23 0 -53 -2t-35 -2v13q30 5 37 6q21 3 30.5 19.5t11.5 63.5
q11 220 11 502l-4 11q-6 11 -28 14z" />
    <glyph glyph-name="N" unicode="N" horiz-adv-x="635" 
d="M11 629v12q2 0 46.5 -1.5t74.5 -1.5q67 0 98 3q2 -3 52 -84t252 -379q0 346 -8 402q-3 25 -12.5 34t-37.5 11l-41 4l5 12q14 0 51 -2t55 -2q20 0 54 2t42 2v-12q-6 -1 -22 -3t-22 -4q-22 -5 -29 -37q-16 -75 -16 -350v-236q-33 0 -85 -10q-83 135 -351 558q0 -421 8 -491
q5 -34 35 -39q1 0 23.5 -3.5t34.5 -4.5l-2 -13q-11 0 -51.5 2t-71.5 2q-27 0 -54 -2t-34 -2v13q4 0 10.5 1t16 2t15.5 2q17 4 25 16t12 38q16 148 16 501q-9 19 -18 33q-13 18 -33 21z" />
    <glyph glyph-name="O" unicode="O" horiz-adv-x="693" 
d="M348 655h1q144 0 227 -89.5t83 -233.5q0 -164 -82 -256.5t-231 -92.5q-150 0 -231 90.5t-81 241.5q0 147 82.5 243.5t231.5 96.5zM343 639h-1q-60 0 -94 -62q-41 -80 -41 -242q0 -86 14 -163.5t37 -113.5q34 -58 96 -58q63 0 94 62q38 78 38 253t-43 261q-32 63 -100 63z
" />
    <glyph glyph-name="P" unicode="P" horiz-adv-x="582" 
d="M93 298v133q0 93 -3 171q-1 12 -5.5 16.5t-19.5 5.5l-53 5l5 12q7 0 63 -1.5t82 -1.5q25 0 75.5 2t88.5 2q79 -1 117 -12.5t63 -36.5q46 -46 46 -131q0 -90 -48 -141q-58 -61 -160 -61q-44 0 -71 10l1 13q30 -5 43 -5q32 0 48 28q27 47 27 153q0 103 -32 140
q-23 28 -74 28q-22 0 -29.5 -4t-8.5 -17q-5 -88 -5 -205v-115v-106q0 -55 4 -135q1 -16 8 -22t29 -9l49 -6l-2 -12q-11 0 -66.5 1.5t-100.5 1.5q-35 0 -86.5 -1.5t-66.5 -1.5v12l36 4q24 2 32 9t9 30q5 66 5 247z" />
    <glyph glyph-name="Q" unicode="Q" horiz-adv-x="693" 
d="M754 -94l2 -9q-56 -76 -169 -76q-86 0 -210 114q-32 31 -52.5 41t-61.5 20q-105 23 -167 100t-62 212q0 156 81 251.5t236 95.5q141 0 224.5 -88.5t83.5 -241.5q0 -85 -24 -150t-63.5 -102t-80.5 -57t-84 -27v-4q50 -16 82 -31q124 -55 194 -56q36 -3 71 8zM345 640h-1
q-58 0 -91 -58q-46 -79 -46 -256q0 -196 51 -277q34 -56 94 -56q62 0 91 55q42 81 42 273q0 176 -44 261q-34 58 -96 58z" />
    <glyph glyph-name="R" unicode="R" horiz-adv-x="618" 
d="M93 240v165q0 147 -2 193q-2 23 -25 25l-56 6l5 12q4 0 60.5 -1.5t83.5 -1.5q23 0 79.5 1.5t91.5 1.5q75 0 111.5 -9t60.5 -30q38 -34 38 -101q0 -78 -52 -117t-155 -50v-5q93 -12 138 -38t60 -75q25 -53 29 -157q1 -50 42 -50q15 0 30 5l-4 -14q-22 -10 -76 -10
q-77 0 -117 30t-44 104q-1 15 -2.5 49t-2.5 50q-4 60 -31.5 78.5t-96.5 18.5h-15v-86q0 -147 3 -192q1 -18 14 -23.5t56 -9.5l-2 -13q-12 0 -62.5 2t-81.5 2q-34 0 -90.5 -2t-65.5 -2l2 13q41 3 56 9t16 22q5 55 5 200zM243 424v-88h15q70 0 98 36t28 116q0 71 -20 103
q-21 35 -75 35q-4 0 -28 -3q-11 -3 -13 -21q-5 -70 -5 -178z" />
    <glyph glyph-name="S" unicode="S" horiz-adv-x="487" 
d="M43 202l12 5q-2 -81 43.5 -143.5t127.5 -62.5q51 0 80 29t29 82q0 57 -47 87q-10 7 -151 94q-95 56 -95 160q0 95 57 148.5t154 53.5q41 0 78.5 -11.5t56.5 -30.5l22 48l9 -3q-17 -102 -14 -199l-12 -4q-5 80 -44 132t-96 52q-48 0 -75 -30t-27 -80q0 -62 52 -93
q32 -23 160 -96q48 -25 70 -60.5t22 -90.5q0 -100 -69.5 -153t-180.5 -53q-40 0 -89 10.5t-79 23.5q6 64 6 185z" />
    <glyph glyph-name="T" unicode="T" horiz-adv-x="583" 
d="M364 471v-209q0 -173 5 -216q1 -16 6 -22.5t19 -7.5t34 -3.5t33 -3.5l-3 -13q-6 0 -66 2t-109 2q-32 0 -89.5 -2t-75.5 -2l-2 13q9 1 26 3t31 3q20 2 28 8t9 21q4 70 4 222v189v168q-51 0 -78 -5t-37.5 -13.5t-21.5 -27.5q-23 -39 -51 -126l-12 5q17 67 20 193
q57 -11 206 -11h96q187 0 224 11q-13 -85 -9 -182l-12 -8q-13 92 -44 134q-11 18 -36 24.5t-93 5.5q0 -7 -1 -60t-1 -92z" />
    <glyph glyph-name="U" unicode="U" horiz-adv-x="640" 
d="M378 17h1q67 0 106.5 37t45.5 134q13 198 0 392q-1 26 -10.5 34.5t-30.5 10.5l-46 4l-2 13q12 0 48.5 -2t52.5 -2q20 0 49 2t42 2l4 -13l-33 -3q-20 -2 -26.5 -11t-7.5 -33q-2 -41 -5 -132t-6.5 -164t-7.5 -112q-12 -106 -77 -151q-55 -39 -152 -39q-139 0 -195 64
q-42 47 -43 155q0 48 -0.5 195t-1.5 192q-1 34 -21 35l-48 4v13q15 0 68 -2t81 -2q31 0 81.5 2t62.5 2l3 -13l-46 -5q-18 -2 -21 -24q-13 -146 -6 -393q1 -74 10.5 -107t31.5 -52q33 -31 99 -31z" />
    <glyph glyph-name="V" unicode="V" horiz-adv-x="605" 
d="M-22 629v13q8 0 62.5 -2t88.5 -2q28 0 76.5 2t71.5 2l5 -13l-43 -6q-12 -2 -16 -6.5t-1 -16.5q4 -21 58.5 -184t93.5 -274q118 328 143 451q4 26 -20 29q-22 5 -58 7l-2 13q10 0 48 -2t56 -2q15 0 44.5 2t49.5 2l5 -13q-40 0 -58 -13.5t-36 -55.5q-71 -168 -201 -569
q-43 5 -77 -3q-90 272 -211 593q-13 29 -27.5 38t-51.5 10z" />
    <glyph glyph-name="W" unicode="W" horiz-adv-x="897" 
d="M734 629l-4 13q12 0 49 -2.5t55 -1.5q25 1 53 2.5t40 1.5v-13q-42 -5 -56 -15.5t-29 -49.5q-21 -58 -46.5 -138t-42 -133t-49 -161t-42.5 -141q-60 0 -78 -3q-15 59 -68 236t-77 264q-90 -350 -124 -497q-41 2 -81 -3q-95 369 -166 568q-16 47 -29.5 59t-53.5 14v13
q11 0 62 -2t78 -2t76 2t73 2l5 -13l-44 -6q-22 -3 -17 -25q13 -54 61 -224.5t57 -206.5q30 115 68 280.5t43 194.5q43 -6 103 -1q14 -58 140 -483q95 294 121 426q4 22 -0.5 29.5t-20.5 9.5z" />
    <glyph glyph-name="X" unicode="X" horiz-adv-x="584" 
d="M-1 629l-1 13q16 0 70 -2t84 -2q26 0 70.5 2t66.5 2l6 -13l-38 -5q-23 -3 -13 -25q17 -40 94 -182q88 144 99 169q9 19 4.5 27.5t-29.5 11.5l-45 4l6 13q6 0 106 -4q24 -1 59 1.5t48 2.5v-13q-53 -4 -73.5 -15.5t-47.5 -44.5q-47 -54 -119 -171q128 -251 185 -350
q17 -30 52 -34l35 -5l-4 -13q-22 0 -79 2t-84 2q-28 0 -74 -2t-69 -2l1 13q34 5 43.5 10t4.5 18q-11 27 -117 241q-101 -171 -118 -207q-13 -32 -8 -43t29 -13l53 -6l4 -13q-15 0 -50.5 2t-56.5 2q-29 0 -63.5 -2t-49.5 -2l-4 13q40 4 57.5 12t38.5 36q50 63 158 239
q-94 191 -159 305q-8 14 -23 20t-49 8z" />
    <glyph glyph-name="Y" unicode="Y" horiz-adv-x="542" 
d="M437 9l4 -13q-22 0 -83 2t-87 2q-43 0 -93.5 -2t-67.5 -2l-4 13q13 1 33 3.5t25 3.5q18 2 26.5 10t10.5 26q2 26 5 216q0 22 -9 41q-16 41 -62 131t-80 142q-21 30 -34 38t-48 9l-1 13q9 0 63.5 -2t82.5 -2q41 0 92 2t61 2l2 -13l-41 -4q-22 -2 -11 -28q5 -12 127 -268
q81 174 112 257q6 23 3 29t-16 8q-9 1 -30 3t-25 3l2 13q8 0 41 -2t56 -2q21 0 50 2t45 2l3 -13q-42 -2 -59 -10.5t-34 -36.5q-26 -44 -130 -257q-10 -21 -10 -50q-3 -168 5 -237q1 -19 20 -22q5 0 56 -7z" />
    <glyph glyph-name="Z" unicode="Z" horiz-adv-x="600" 
d="M259 638h73q88 0 121 1q30 0 102 4q-9 -35 -30 -73q-89 -155 -142 -249q-37 -69 -90 -164t-76 -140q121 0 175.5 4.5t74.5 13t39 31.5q34 41 61 142l10 -5q-1 -10 -7 -54t-10.5 -84t-5.5 -72q-48 5 -112 5q-44 2 -129 2h-184q-65 0 -99 -3l-4 12q25 43 102 173.5
t145 247.5t108 191h-87q-97 0 -133 -13.5t-54 -47.5q-20 -37 -40 -120l-12 6q15 101 11 201q34 -7 70 -8q25 -1 123 -1z" />
    <glyph glyph-name="bracketleft" unicode="[" horiz-adv-x="328" 
d="M288 -157l-6 -17q-149 3 -188 -5q3 100 3 441q0 375 -3 437q20 -4 87.5 -3.5t106.5 3.5l-3 -17q-39 0 -85 -7q-15 -2 -16 -19q-9 -50 -9 -394q0 -357 6 -398q2 -16 28 -17z" />
    <glyph glyph-name="backslash" unicode="\" horiz-adv-x="378" 
d="M30 680l30 17q23 -71 143 -401q18 -48 51.5 -142.5t55.5 -154.5t37 -96l-32 -14q-43 117 -138 394q-124 352 -147 397z" />
    <glyph glyph-name="bracketright" unicode="]" horiz-adv-x="328" 
d="M39 677l6 17q148 -3 189 5q-3 -102 -3 -443q0 -374 3 -435q-20 4 -87.5 3.5t-107.5 -3.5l4 16q49 0 84 8q16 2 17 19q8 44 8 392q0 362 -6 403q-1 14 -29 15z" />
    <glyph glyph-name="asciicircum" unicode="^" horiz-adv-x="426" 
d="M386 319h-49l-126 270l-119 -270h-52l153 321h41z" />
    <glyph glyph-name="underscore" unicode="_" horiz-adv-x="500" 
d="M500 -111v-58h-500v58h500z" />
    <glyph glyph-name="grave" unicode="`" horiz-adv-x="456" 
d="M253 479l-11 -5q-100 94 -116 109q-24 26 -24 49q0 19 9.5 27t19.5 8q27 0 48 -35q8 -15 37.5 -77t36.5 -76z" />
    <glyph glyph-name="a" unicode="a" horiz-adv-x="489" 
d="M288 281l-1 51q0 87 -59 87q-69 0 -67 -77q0 -22 3 -37t-8 -24q-17 -14 -48 -14q-25 0 -41 13t-16 39q0 43 52 79t148 36q109 0 154 -60q14 -21 14 -49v-259q0 -23 4.5 -30t15.5 -7q13 0 26.5 21.5t19.5 52.5l15 -7q-19 -110 -126 -110q-78 0 -89 72q-67 -72 -138 -72
q-56 0 -87.5 34t-31.5 91q0 68 50 87q22 9 71.5 26t84.5 31t54 26zM173 132v-1q0 -35 13 -63t40 -28q13 0 23 4.5t16.5 14.5t9 15t6.5 16q5 25 5 42l2 133q-67 -35 -75 -40q-40 -26 -40 -93z" />
    <glyph glyph-name="b" unicode="b" horiz-adv-x="535" 
d="M-1 655v13q116 0 204 17q0 -7 -1.5 -43.5t-3 -94t-1.5 -116.5v-63q78 66 155 66q86 -2 126 -68q31 -53 31 -131q0 -248 -235 -248q-75 0 -124 26q-32 -9 -89 -28l-5 3q0 24 1 111t1 149v240q0 71 -4 143q-1 16 -10 20t-45 4zM268 1h1q93 0 93 220q0 86 -23 131
q-20 41 -61 41q-51 0 -77 -52q-8 -16 -8 -157q0 -60 1.5 -90.5t3.5 -38.5t7 -17q24 -37 63 -37z" />
    <glyph glyph-name="c" unicode="c" horiz-adv-x="448" 
d="M417 129l13 -7q-37 -136 -185 -136q-122 0 -176 68q-42 50 -42 147q0 104 61 168.5t175 64.5q70 0 116 -26.5t46 -80.5q0 -32 -22.5 -47t-49.5 -15q-19 0 -31 8q-13 10 -9 31q4 30 4 38q0 78 -56 78q-40 0 -62 -54t-22 -145q0 -75 18 -122q29 -76 101 -76q86 0 121 106z
" />
    <glyph glyph-name="d" unicode="d" horiz-adv-x="545" 
d="M280 658l2 12q91 2 204 15q-5 -136 -6 -236l-1 -224q-1 -96 5 -182q1 -14 5.5 -19t15.5 -6l36 -1l-5 -13q-141 -7 -198 -18q0 11 0.5 33.5t0.5 29.5l-2 1q-72 -64 -140 -64q-78 0 -121 49q-49 56 -49 161q0 104 56 171t169 67q62 0 88 -21q0 179 -2 216q-1 20 -9.5 24.5
t-48.5 4.5zM175 214v-1q0 -92 27 -141q23 -41 65 -41q43 0 65 42q8 19 8 164q0 119 -7 134q-19 46 -63 46q-47 0 -71 -56t-24 -147z" />
    <glyph glyph-name="e" unicode="e" horiz-adv-x="455" 
d="M432 122q-41 -136 -190 -136q-118 0 -171 66q-44 53 -44 151q0 101 57 166t164 65q47 0 82.5 -13.5t54.5 -33t30.5 -45t14.5 -44t3 -35.5q0 -30 -15 -38q-30 -11 -138 -12h-106q-3 -70 22 -126q28 -63 99 -63q47 0 76.5 26.5t48.5 78.5zM247 419h-1q-31 0 -50 -52
t-21 -138q19 1 55 1q41 0 59 6q19 5 19 41q0 20 -2 40.5t-8 45.5t-19 40.5t-32 15.5z" />
    <glyph glyph-name="f" unicode="f" horiz-adv-x="293" 
d="M16 405l2 15h57v47q0 108 55 163q53 55 128 55q57 0 83.5 -22t26.5 -54q0 -21 -16.5 -37t-46.5 -16t-30 30q1 40 -5.5 61t-27.5 21q-30 0 -34 -55q0 -13 1 -40t3.5 -71t3.5 -82h78l-4 -15l-75 -7q-2 -90 -2 -164q0 -148 2 -189q3 -30 25 -32q24 -4 42 -4l-4 -13
q-12 0 -60.5 2t-70.5 2q-4 0 -132 -4l2 13q33 1 42.5 6t10.5 19q4 58 4 143v222z" />
    <glyph glyph-name="g" unicode="g" horiz-adv-x="480" 
d="M129 -64l4 -8q-39 -16 -39 -53q0 -40 40.5 -69.5t112.5 -29.5q87 0 127.5 33t40.5 81q0 24 -17 38t-44 14h-189q-81 0 -121 52q-24 31 -24 76q0 60 65 118q-28 34 -28 87q0 44 17.5 76t46 49.5t59.5 25.5t64 8q78 0 112 -24q62 54 93 54q18 0 31 -11t13 -22
q-2 -11 -14 -27t-20 -19q-24 20 -60 20q-20 0 -32 -4q57 -45 57 -115q0 -34 -11.5 -61t-30.5 -44t-44 -28t-50.5 -15.5t-52.5 -4.5q-99 0 -138 41q-17 -5 -27.5 -21.5t-10.5 -33.5q0 -19 14 -30t36 -11q26 0 109 2t149 2q48 0 82 -29q41 -36 41 -94q0 -52 -25.5 -93
t-66.5 -65t-88.5 -36.5t-95.5 -12.5q-190 0 -190 108q0 31 41 54q29 16 64 22zM239 419h-1q-49 0 -49 -130q0 -63 14 -102.5t40 -39.5q47 0 47 133q0 139 -51 139z" />
    <glyph glyph-name="h" unicode="h" horiz-adv-x="546" 
d="M16 658v12q41 1 108 6t86 9q-4 -86 -4 -188v-129q78 66 153 66q83 0 109 -55q13 -23 13 -60t-1 -143.5t0 -134.5q0 -20 8.5 -25.5t43.5 -6.5v-13q-10 0 -53 2t-67 2q-28 0 -68 -2t-48 -2v13q24 1 32.5 6t10.5 20q3 28 3 129q0 165 -5 185q-12 42 -51 42q-49 0 -72 -43
q-8 -15 -8 -39v-139q0 -105 3 -133q1 -17 9 -22t36 -6l-1 -13q-8 0 -50 2t-64 2q-42 0 -81.5 -2t-46.5 -2v13q31 1 40.5 6.5t11.5 23.5q4 60 4 176v277q0 118 -3 146q-1 13 -9.5 16.5t-38.5 3.5z" />
    <glyph glyph-name="i" unicode="i" horiz-adv-x="280" 
d="M140 637h1q30 0 47 -18t17 -50q0 -28 -19.5 -45.5t-48.5 -17.5q-27 0 -44.5 17.5t-17.5 45.5q0 30 18 49t47 19zM266 9l-1 -13q-12 0 -54 2t-76 2q-37 0 -73 -2t-44 -2v13q32 2 41.5 8t11.5 22q3 27 3 117v114q0 81 -2 111q-2 13 -11 16.5t-38 2.5v14q111 4 193 19
q-3 -36 -3 -160v-116q0 -81 3 -117q1 -18 9.5 -23t40.5 -8z" />
    <glyph glyph-name="j" unicode="j" horiz-adv-x="270" 
d="M134 637h1q30 0 47.5 -17.5t17.5 -49.5q0 -28 -19.5 -46t-49.5 -18q-27 0 -44.5 17.5t-17.5 45.5q0 30 18 49t47 19zM16 404l-5 13q118 5 199 17l3 -2q-1 -67 -1 -363q0 -99 -14 -147q-17 -63 -54 -98t-83 -51.5t-68 -16.5q-15 0 -23 10q-6 8 -9 15l5 7q23 -10 49 -9
q44 0 49 63q9 76 9 292q1 198 -3 254q-2 16 -20 16h-34z" />
    <glyph glyph-name="k" unicode="k" horiz-adv-x="505" 
d="M16 656l1 12q143 6 192 17q-4 -114 -4 -240v-218q25 6 78.5 62t79.5 100q5 7 3.5 11t-11.5 5l-41 2v13q44 0 179 9v-11q-64 -8 -86 -27q-33 -27 -92 -90q6 -10 40 -72.5t68 -120t53 -80.5q13 -17 32 -17l25 -1v-13q-147 0 -199 -12q-12 25 -56.5 109.5t-52.5 100.5
q-11 20 -20 18q0 -142 2 -172q2 -19 11 -25t42 -7v-13q-11 0 -54 2t-73 2q-37 0 -76 -2t-47 -2l1 13q30 0 39.5 6t11.5 21q4 40 4 177v220q0 157 -2 209q0 13 -23 13z" />
    <glyph glyph-name="l" unicode="l" horiz-adv-x="271" 
d="M14 658v12q81 1 196 15q-5 -73 -5 -213v-260q0 -143 1 -168q1 -22 10 -27.5t43 -7.5l-1 -13q-15 0 -60.5 2t-60.5 2q-33 0 -77.5 -2t-51.5 -2v13q31 0 41 7.5t12 30.5q5 105 5 194v241q0 128 -2 152q-2 16 -9.5 19.5t-40.5 4.5z" />
    <glyph glyph-name="m" unicode="m" horiz-adv-x="824" 
d="M74 164v99q0 80 -3 125q-1 10 -10 13.5t-41 2.5l3 12q104 0 182 14q7 -28 9 -70q25 21 42 33.5t51.5 26.5t68.5 14q60 0 87 -35q7 -9 19 -38q3 2 14.5 11.5t16 13t16 11.5t19 12t20 9.5t23 8.5t24 5t27.5 2q71 0 99 -50q16 -25 16 -58v-288q0 -16 8 -20.5t44 -8.5l-1 -13
q-20 0 -62.5 1.5t-67.5 1.5q-28 0 -50.5 -0.5t-36.5 -1.5t-18 -1v13q25 1 32.5 6t9.5 20q3 69 3 151q1 149 -6 170q-15 31 -49 31q-45 0 -70 -46q-8 -16 -8 -43v-166q0 -73 2 -99q1 -13 9.5 -17.5t38.5 -6.5l-2 -13q-7 0 -51.5 1.5t-71.5 1.5q-34 0 -70 -1.5t-41 -1.5v13
q27 2 35 7.5t9 22.5q3 42 3 125v130q0 52 -6 65q-14 28 -45 28q-41 0 -69 -44q-13 -18 -13 -50v-161q0 -54 3 -97q1 -15 9 -19t36 -7l-4 -13q-5 0 -47 1.5t-69 1.5q-32 0 -73 -1.5t-48 -1.5v13q33 2 41.5 7t9.5 24q3 39 3 124z" />
    <glyph glyph-name="n" unicode="n" horiz-adv-x="554" 
d="M20 -4v13q33 2 41 6.5t9 23.5q4 43 4 115v109q0 97 -3 122q-1 11 -9 14.5t-37 4.5v12q89 0 182 14q6 -43 7 -67q24 21 40 33.5t47.5 25t63.5 12.5q79 0 108 -52q15 -26 15 -55v-289q0 -16 8.5 -20.5t42.5 -8.5v-13q-14 0 -55 2t-64 2q-34 0 -75 -2t-42 -2v13q26 1 33.5 7
t8.5 21q4 40 4 149q1 109 -0.5 137t-7.5 39q-14 26 -45 26q-46 0 -72 -42q-11 -18 -11 -44v-153q0 -85 2 -114q2 -14 10 -19t37 -7l-1 -13q-9 0 -53 2t-69 2q-31 0 -71 -2t-48 -2z" />
    <glyph glyph-name="o" unicode="o" horiz-adv-x="524" 
d="M266 434h1q107 0 168.5 -58t61.5 -162q0 -109 -64.5 -168.5t-172.5 -59.5q-113 0 -173 59.5t-60 160.5q0 105 63 166.5t176 61.5zM261 419h-1q-36 0 -58 -42q-23 -46 -23 -155q0 -111 25 -174q21 -47 66 -47q42 0 59 45q19 55 19 157q0 112 -24 169q-20 47 -63 47z" />
    <glyph glyph-name="p" unicode="p" horiz-adv-x="546" 
d="M-7 -235l5 13q40 4 50 9.5t12 22.5q7 82 7 231v209q0 70 -4 134q-1 12 -10.5 15.5t-42.5 4.5l4 12q116 0 190 18q0 -8 1 -38t2 -39q24 24 42 37.5t49.5 26.5t66.5 13q71 0 113 -56q40 -54 40 -145q0 -126 -59 -186.5t-167 -60.5q-50 0 -87 24q-2 -136 3 -194
q1 -21 13 -27.5t57 -7.5l-4 -13q-4 0 -49.5 1.5t-89.5 1.5q-32 0 -61 -1t-51.5 -3t-29.5 -2zM279 3h1q91 0 91 214q0 80 -24 130q-18 42 -56 42q-47 0 -75 -52q-9 -18 -9 -37q-3 -76 -1 -225q0 -16 8 -31q23 -41 65 -41z" />
    <glyph glyph-name="q" unicode="q" horiz-adv-x="536" 
d="M478 215v-254q0 -100 5 -152q2 -14 12.5 -18t51.5 -5l-4 -14q-175 2 -284 -11l5 14q44 6 56.5 12t13.5 22q4 42 4 121v112q-68 -56 -141 -56q-76 0 -119 46q-51 54 -51 160q0 113 60.5 177.5t171.5 64.5q60 0 108 -24l106 22h7l-1 -72q-1 -72 -1 -145zM271 418h-1
q-48 0 -71.5 -59.5t-23.5 -141.5q0 -102 29 -150q25 -41 67 -41q41 0 59 36q9 15 9 128q0 132 -3 166q-2 19 -14 35q-18 27 -51 27z" />
    <glyph glyph-name="r" unicode="r" horiz-adv-x="398" 
d="M74 169v81q0 97 -8 132q-3 16 -18 16h-27l-2 13q121 3 180 21l3 -3q7 -31 7 -109h3q22 58 48.5 86t68.5 28q30 0 48 -20.5t18 -48.5q0 -39 -20.5 -55t-41.5 -16q-33 0 -38 23q-5 22 -10.5 30.5t-19.5 8.5q-28 0 -44 -49q-8 -26 -8 -65q0 -176 2 -201q1 -18 14 -24t59 -8
l-3 -13q-8 0 -57 2t-80 2t-80.5 -2t-52.5 -2l4 13q30 1 39.5 6t11.5 19q4 46 4 135z" />
    <glyph glyph-name="s" unicode="s" horiz-adv-x="386" 
d="M325 285l-12 -5q-1 51 -33 94.5t-83 43.5q-35 0 -54 -18t-19 -45q0 -32 30 -49q17 -9 73 -31.5t71 -30.5q63 -32 63 -101q0 -80 -52 -118t-132 -38q-70 0 -139 26q2 60 -2 152l11 3q9 -54 27 -88q17 -35 48.5 -55.5t67.5 -20.5q77 0 77 65q0 32 -33 48q-53 26 -108 49
q-86 36 -86 120q0 69 47 108.5t117 39.5q30 0 61 -8.5t44 -21.5l15 39l9 -6q-10 -74 -8 -152z" />
    <glyph glyph-name="t" unicode="t" horiz-adv-x="327" 
d="M207 420h113l-2 -16l-111 -7q0 -13 -1 -73t-1 -101q0 -140 4 -176q3 -30 30 -30q31 0 52.5 29.5t25.5 62.5h5l11 -26q-15 -43 -55.5 -69.5t-97.5 -26.5q-68 0 -97 34q-17 21 -18 61q-1 43 1 163.5t2 152.5l-58 6l5 16h54q0 14 0.5 55t0.5 58q98 21 137 48l6 -2
q-6 -87 -6 -159z" />
    <glyph glyph-name="u" unicode="u" horiz-adv-x="546" 
d="M287 405l-1 14q75 0 124 4q16 1 32.5 2t26.5 2t15 1q-4 -46 -4 -134v-126q0 -89 4 -125q2 -18 11 -22.5t44 -3.5l-1 -14q-14 0 -29.5 -1t-37.5 -3t-39 -3q-60 -6 -90 -10q-2 54 -2 83q-78 -83 -165 -83q-44 0 -69 16t-33 35q-9 23 -9 55q1 40 2 116.5t1 108.5q1 27 -2 70
q-1 13 -9.5 16t-39.5 3v14q46 0 114 4q60 3 84 7q-11 -44 -11 -201q0 -135 5 -165q5 -35 36 -35q61 0 89 72q8 22 8 54v139q0 68 -3 91q-1 11 -11.5 14.5t-39.5 4.5z" />
    <glyph glyph-name="v" unicode="v" horiz-adv-x="448" 
d="M-16 410l-2 13q78 -3 122 -3q29 0 76 1.5t57 1.5l4 -13l-30 -3q-14 -2 -17.5 -6t0.5 -16q28 -89 96 -256q7 19 23.5 61t26.5 68.5t22.5 61.5t19.5 62q7 21 -19 24l-43 4v13q12 0 39 -1.5t43 -1.5q20 0 45 1.5t33 1.5l-1 -13q-29 -2 -44 -12t-29 -39q-65 -137 -150 -367
q-28 -1 -54 -5q-85 219 -155 378q-14 30 -23.5 37t-39.5 8z" />
    <glyph glyph-name="w" unicode="w" horiz-adv-x="679" 
d="M-13 411v12q44 -3 121 -3q30 0 135 3l1 -12l-31 -5q-15 -1 -17.5 -5.5t0.5 -16.5q13 -46 42 -132t36 -108q47 137 89 277q31 -1 58 1q6 -18 54.5 -136t60.5 -149q63 175 75 246q2 12 -3 16t-24 7l-36 5v12q72 -3 85 -3q31 0 79 3v-12q-35 -3 -49 -13.5t-30 -48.5
q-44 -106 -128 -357q-26 -1 -54 -5q-10 28 -57 143t-57 140q-77 -217 -98 -283q-27 4 -55 5q-74 227 -134 375q-11 27 -22 34.5t-41 9.5z" />
    <glyph glyph-name="x" unicode="x" horiz-adv-x="455" 
d="M-8 410v13q8 0 52.5 -2t69.5 -1q34 1 121 3l4 -13l-23 -3q-16 -2 -7 -21q10 -20 30 -55.5t27 -48.5q49 68 66 103q4 11 1 14.5t-15 5.5l-32 5l3 13q7 0 33 -1.5t48 -1.5q15 0 45 1.5t38 1.5l-1 -13q-33 -3 -49 -9t-34 -21q-33 -32 -94 -114q103 -184 142 -233
q10 -12 21 -16.5t42 -7.5l-1 -13q-11 0 -55 2t-74 2q-22 0 -64.5 -2t-66.5 -2l-2 13l22 3q22 4 8 27q-5 9 -69 129q-67 -101 -80 -127q-7 -14 -2.5 -20t21.5 -8l35 -4l-2 -13q-14 0 -48.5 2t-47.5 2q-17 0 -44 -2t-34 -2l-1 13q35 3 53.5 13.5t41.5 34.5q41 47 99 129
q-100 175 -111 192q-12 18 -25 24t-41 8z" />
    <glyph glyph-name="y" unicode="y" horiz-adv-x="437" 
d="M-14 410v13q56 -3 117 -3q57 0 129 3l3 -13l-27 -4q-13 -1 -15.5 -5.5t1.5 -16.5q10 -29 31.5 -82.5t43.5 -105t26 -62.5q40 110 73 230q6 22 0 30t-30 12l-35 4l1 13q9 0 36.5 -1.5t42.5 -1.5q13 0 43 1.5t42 1.5l-1 -13q-33 -2 -45 -11t-29 -48q-73 -185 -163 -447
q-27 -80 -53 -114.5t-68 -34.5q-29 0 -47 18t-18 47q0 28 16.5 43.5t38.5 15.5q25 0 34 -22q6 -16 11.5 -22t16.5 -6q28 0 70 140q-22 13 -34 47q-118 288 -155 358q-9 18 -15.5 24.5t-18.5 8.5z" />
    <glyph glyph-name="z" unicode="z" horiz-adv-x="439" 
d="M53 272l-13 1q9 69 11 160q25 -13 108 -13h94q51 0 155 2q-5 -24 -21 -50q-98 -191 -190 -357q77 0 119 8q38 5 58 33t38 102l11 -9q-18 -108 -17 -154q-110 5 -267 5q-36 0 -72 -1.5t-38 -1.5l-6 10q45 66 124.5 211.5t95.5 185.5q-52 2 -102 -5q-27 -4 -39.5 -12
t-22.5 -30q-12 -27 -26 -85z" />
    <glyph glyph-name="braceleft" unicode="{" horiz-adv-x="332" 
d="M292 704l-4 -18q-63 0 -78.5 -19.5t-7.5 -96.5q2 -18 6.5 -56t6 -63.5t1.5 -50.5q-1 -58 -30.5 -91.5t-94.5 -54.5q65 -23 95 -55t30 -89q0 -52 -9 -153q-7 -56 -4 -86t20.5 -40t64.5 -10l4 -18q-60 -7 -118 32t-58 109q0 26 2.5 109t2.5 119q0 43 -20 58.5t-65 15.5
l-7 15q49 0 70.5 16.5t21.5 60.5q0 30 -3 105.5t-2 102.5q0 82 54.5 122t121.5 36z" />
    <glyph glyph-name="bar" unicode="|" horiz-adv-x="236" 
d="M88 751h62v-1000h-62v1000z" />
    <glyph glyph-name="braceright" unicode="}" horiz-adv-x="332" 
d="M40 -198l3 19q61 0 78 19.5t8 96.5q-15 137 -14 170q1 58 30 91.5t95 55.5q-64 22 -94.5 55.5t-30.5 90.5q0 58 10 151q8 56 4 86t-21.5 40t-63.5 10l-4 18q37 4 77 -10t70 -49t30 -83q0 -26 -3 -107.5t-3 -116.5q0 -44 20 -61t65 -17l6 -15q-49 0 -70.5 -16.5
t-21.5 -60.5q0 -36 3.5 -111t3.5 -98q0 -82 -57.5 -123.5t-119.5 -34.5z" />
    <glyph glyph-name="asciitilde" unicode="~" horiz-adv-x="450" 
d="M369 292l40 -10q-11 -77 -37 -111.5t-70 -34.5t-98 68q-17 20 -23 27t-18 15t-24 8q-42 0 -61 -113l-38 7q19 148 104 148q43 0 92 -60q43 -56 72 -56q46 0 61 112z" />
    <glyph glyph-name="uni00A0" unicode="&#xa0;" horiz-adv-x="160" 
 />
    <glyph glyph-name="exclamdown" unicode="&#xa1;" horiz-adv-x="243" 
d="M122 -234h-1q-20 0 -55.5 31.5t-35.5 63.5q0 23 21 76q62 148 62 268h18q0 -116 61 -268q21 -52 21 -76q0 -31 -34.5 -63t-56.5 -32zM119 433h1q32 0 53.5 -22.5t21.5 -56.5q0 -33 -22.5 -55.5t-53.5 -22.5q-32 0 -54 22.5t-22 54.5q0 34 22 57t54 23z" />
    <glyph glyph-name="cent" unicode="&#xa2;" horiz-adv-x="500" 
d="M446 237l1 -33q-24 -42 -67.5 -65.5t-85.5 -26.5l-3 -84l-27 -9l6 92q-118 1 -170 56q-53 51 -53 146q0 105 68.5 165.5t177.5 62.5l3 77l27 7l-6 -85q66 -3 101.5 -29.5t35.5 -67.5q0 -24 -14.5 -38t-35.5 -14q-17 0 -28 8.5t-5 23.5q6 22 6 37q0 55 -62 64
q-17 -307 -19 -387q108 2 141 102zM189 327v-1q0 -110 28 -150q18 -29 56 -38q1 22 9 166t10 222q-29 -3 -50.5 -23.5t-32.5 -52t-15.5 -62t-4.5 -61.5z" />
    <glyph glyph-name="sterling" unicode="&#xa3;" horiz-adv-x="500" 
d="M10 316l13 26q32 -3 80 -3q-13 101 -1 150q18 72 81 112q51 31 119 31q84 0 121 -30t37 -68q0 -36 -22 -52.5t-52 -16.5q-18 0 -28 7q-14 8 -11 21q5 20 5 44q0 79 -55 79q-59 0 -58 -108q0 -53 11 -169q86 0 142 3l-12 -26q-50 2 -128 2q2 -84 -31 -133
q-33 -46 -109 -86q309 6 326 15q9 7 13 16q16 46 20 56l15 5q-31 -120 -29 -198l-10 -4q-137 11 -310 11q-17 0 -121 -4l-3 7l28 72q16 8 24.5 13t22 18.5t20 35.5t6.5 52q0 48 -9 124q-43 0 -95 -2z" />
    <glyph glyph-name="currency" unicode="&#xa4;" horiz-adv-x="501" 
d="M250 464h-1q-49 0 -76 -41.5t-27 -107.5q0 -74 28.5 -113t74.5 -39q50 0 76 40.5t26 107.5q0 66 -24 109.5t-77 43.5zM254 493h1q60 0 100 -30l54 70l40 -39l-69 -58q40 -40 40 -124q0 -75 -42 -122l71 -62l-38 -39l-61 76q-39 -31 -101 -31q-63 0 -103 28l-56 -71
l-35 39l65 59q-42 43 -42 121q0 83 47 127l-68 57l38 40l57 -72q42 31 102 31z" />
    <glyph glyph-name="yen" unicode="&#xa5;" horiz-adv-x="500" 
d="M-19 608l4 13q33 0 83 -1.5t63 -1.5q49 0 87.5 1.5t43.5 1.5l-1 -13q-7 -1 -22.5 -2.5t-22.5 -2.5q-16 -3 -9 -23q4 -10 19 -46t39.5 -92.5t37.5 -87.5q70 153 92 218q7 20 -5 26.5t-62 9.5l4 13q17 0 45 -1t43 -1q14 0 43.5 1t39.5 1l-1 -13q-32 0 -46 -8.5t-30 -34.5
q-36 -56 -111 -232q58 1 115 5l-9 -27q-5 0 -22 0.5t-42 1.5t-45 1v-76q78 0 117 3l-9 -26q-16 1 -108 3q0 -110 4 -177q3 -24 20 -25q25 -5 62 -7l-2 -13q-11 0 -65 1.5t-102 1.5q-16 0 -68 -1.5t-75 -1.5l1 13q42 4 57 8q22 3 25 26q3 46 5 176q-98 -2 -113 -3l6 26
q84 -3 108 -3v76q-81 0 -115 -3l8 26q4 0 15.5 -1t34.5 -2t52 -1q-21 53 -60.5 132.5t-57.5 107.5q-14 21 -28.5 28t-42.5 6z" />
    <glyph glyph-name="brokenbar" unicode="&#xa6;" horiz-adv-x="236" 
d="M89 675h63v-350h-63v350zM89 -175v350h63v-350h-63z" />
    <glyph glyph-name="section" unicode="&#xa7;" horiz-adv-x="431" 
d="M246 597h1q47 0 77 -21.5t30 -55.5q0 -19 -14 -31.5t-33 -12.5q-21 0 -38 11q-8 8 -6 13q9 14 9 34t-16 32t-42 12q-21 0 -35.5 -14.5t-14.5 -35.5q0 -26 24 -56q5 -6 75.5 -70.5t100.5 -101.5q33 -43 33 -111q0 -110 -62 -188q-71 -90 -156 -90q-42 0 -77 21t-35 62
q0 24 14 38t36 14q33 0 47 -24q8 -10 1 -19q-13 -13 -13 -31q0 -19 14 -31t38 -12q31 0 49 17t17 44q0 30 -45 75q-11 11 -42.5 41.5t-58.5 56.5t-40 42q-46 51 -46 130q0 121 86 207q55 55 122 55zM358 105v1q0 61 -42 111q-22 27 -87 89.5t-74 73.5q-15 19 -22.5 30
t-15.5 38t-7 60q-28 -42 -28 -105q0 -68 69 -137q75 -72 122 -119q52 -56 59 -121q26 28 26 79z" />
    <glyph glyph-name="dieresis" unicode="&#xa8;" horiz-adv-x="456" 
d="M140 632h1q26 0 41 -16t15 -42q0 -29 -18.5 -46t-40.5 -17q-23 0 -39.5 14.5t-16.5 43.5q0 28 16 45.5t42 17.5zM317 632h1q26 0 41 -16t15 -41q0 -29 -18 -46.5t-40 -17.5q-24 0 -40.5 14.5t-16.5 43.5t16.5 46t41.5 17z" />
    <glyph glyph-name="copyright" unicode="&#xa9;" horiz-adv-x="649" 
d="M324 627h1q123 0 205.5 -87.5t82.5 -213.5t-83.5 -213.5t-205.5 -87.5t-205 87.5t-83 213.5q0 125 83 213t205 88zM325 606h-1q-112 0 -186 -79t-74 -201t74 -201t188 -79q111 0 185.5 79.5t74.5 200.5q0 120 -73.5 200t-187.5 80zM466 270l10 -4q-11 -49 -51 -74.5
t-92 -25.5q-89 0 -133 50q-36 43 -36 111q0 81 53 128q47 41 126 41q56 0 95 -25q6 -3 8 0l12 25l7 -2q-9 -60 -5 -126h-9q-4 52 -32 85q-26 30 -63 30q-38 0 -61 -31q-29 -39 -29 -115q0 -78 28 -112q26 -33 75 -33q72 0 97 78z" />
    <glyph glyph-name="ordfeminine" unicode="&#xaa;" horiz-adv-x="343" 
d="M192 474v37q0 42 -32 42q-16 0 -25 -9.5t-9 -22.5q0 -8 4 -20q6 -15 -10 -25q-19 -13 -47 -13q-16 0 -25.5 8.5t-9.5 21.5q0 29 38.5 51t97.5 22q80 0 106 -37q8 -11 8 -32q0 -2 -0.5 -54t-0.5 -80q0 -26 14 -26q17 0 29 38l10 -5q-17 -66 -90 -66q-53 0 -58 38l-1 6
q-43 -43 -93 -43q-34 0 -55 20t-21 51q0 45 40 55q100 29 130 43zM191 394l1 68q-32 -12 -47 -22q-23 -13 -23 -46q0 -25 9 -39t24 -14q23 0 33 27q3 10 3 26z" />
    <glyph glyph-name="guillemotleft" unicode="&#xab;" horiz-adv-x="457" 
d="M229 394l11 -8q-19 -84 -82 -176q70 -102 82 -173l-9 -7q-30 65 -85 113t-101 60l3 11q51 16 101.5 66.5t79.5 113.5zM403 395l11 -7q-23 -93 -83 -178q69 -98 83 -174l-9 -7q-30 65 -85 114t-101 60l3 11q51 16 101.5 67t79.5 114z" />
    <glyph glyph-name="logicalnot" unicode="&#xac;" horiz-adv-x="450" 
d="M358 96v174h-313v42h359v-216h-46z" />
    <glyph glyph-name="uni00AD" unicode="&#xad;" horiz-adv-x="303" 
d="M33 196l11 56q112 -3 226 0l-10 -56q-116 3 -227 0z" />
    <glyph glyph-name="registered" unicode="&#xae;" horiz-adv-x="166" 
d="M85 631h1q33 0 54.5 -22.5t21.5 -56.5t-22 -57t-55 -23t-55 23t-22 57t22.5 56.5t54.5 22.5zM85 623h-1q-27 0 -45.5 -19.5t-18.5 -52.5q0 -30 19.5 -50t46.5 -20q29 0 47 19.5t18 50.5q0 30 -18.5 51t-47.5 21zM45 586l1 6h45q24 0 24 -19q0 -16 -22 -20v-1
q18 -1 21 -12q4 -5 4 -14q0 -8 5 -8q2 1 7 1l-1 -5q-7 -3 -14 -3q-16 0 -18 19q0 6 -2 12q-2 8 -10 8q-1 0 -3.5 -0.5t-5.5 -0.5q0 -22 1 -27q0 -3 3 -3l7 -1v-6h-41v6l7 1q5 0 5 3q1 6 1 32q0 24 -1 28q0 4 -4 4h-9zM96 570v1q0 15 -12 15q-7 0 -7 -2q-1 -2 -1 -29h8
q12 0 12 15z" />
    <glyph glyph-name="macron" unicode="&#xaf;" horiz-adv-x="456" 
d="M118 523l10 57h211l-8 -57h-213z" />
    <glyph glyph-name="degree" unicode="&#xb0;" horiz-adv-x="287" 
d="M148 650h1q48 0 78.5 -28.5t30.5 -78.5q0 -53 -33 -82.5t-83 -29.5q-51 0 -81.5 26t-30.5 78q0 56 32.5 85.5t85.5 29.5zM146 635h-1q-32 1 -44 -27t-12 -65q0 -46 14.5 -70.5t40.5 -24.5q56 0 56 98q0 89 -54 89z" />
    <glyph glyph-name="plusminus" unicode="&#xb1;" horiz-adv-x="443" 
d="M401 45v-42h-359v42h359zM245 81h-46v156h-157v42h157v147h46v-147h156v-42h-156v-156z" />
    <glyph glyph-name="twosuperior" unicode="&#xb2;" horiz-adv-x="334" 
d="M317 590l12 -6q-21 -65 -24 -126q-51 3 -195 3q-50 0 -76 -2l-2 5q3 8 10.5 27t9.5 24q114 50 137 123q8 27 8 67q0 69 -37 69t-37 -62q0 -5 4 -33q0 -12 -9 -18q-10 -7 -28 -7q-50 0 -50 45q0 32 39 61q36 28 96 28q59 0 89 -20q41 -27 41 -78q0 -46 -43 -74
q-15 -11 -144 -82q134 4 165 7q12 1 17 11q10 18 17 38z" />
    <glyph glyph-name="threesuperior" unicode="&#xb3;" horiz-adv-x="334" 
d="M178 788h1q49 0 85.5 -18.5t36.5 -58.5q0 -41 -45 -58q-22 -8 -76 -20v-3q77 -3 110 -24q29 -18 29 -53q0 -45 -44 -73q-44 -27 -115 -27q-55 0 -90.5 19.5t-35.5 49.5q0 18 16 31t36 13q13 0 17.5 -6t5.5 -19q4 -75 54 -75q47 0 47 76q0 79 -63 79q-20 0 -34 -5l-11 14
l2 3q49 -2 69 12q29 18 29 63q0 66 -42 66q-41 0 -41 -57q0 -10 2 -24q1 -10 -7 -15t-22 -5q-46 0 -46 36q0 29 35 54t97 25z" />
    <glyph glyph-name="acute" unicode="&#xb4;" horiz-adv-x="456" 
d="M231 476l-11 6q12 19 47 80.5t40 70.5q23 37 53 37q27 0 25 -34q0 -22 -35 -55q-11 -11 -119 -105z" />
    <glyph glyph-name="mu" unicode="&#xb5;" horiz-adv-x="554" 
d="M552 89l14 -17q-32 -85 -139 -85q-49 0 -66 24.5t-18 67.5q-64 -93 -140 -89q-29 0 -42 14q1 -52 25 -246l-8 -6q-35 0 -66 7t-46.5 14t-17.5 11q14 150 21 300v233q0 61 -2 105q48 -1 149 8q-8 -92 -8 -199q0 -141 6 -170q8 -30 33 -30q66 0 91 95q7 27 7 56v124
q0 56 -3 113q25 1 81.5 4.5t64.5 3.5q-4 -46 -4 -134v-125q0 -89 3 -119q2 -27 15 -27t28 15t22 52z" />
    <glyph glyph-name="paragraph" unicode="&#xb6;" horiz-adv-x="493" 
d="M466 549v-14l-61 -7q-14 -2 -18.5 -12.5t-4.5 -54.5v-301q0 -138 -10.5 -199t-47.5 -100q-39 -40 -103 -40q-46 0 -80 23.5t-34 73.5q0 26 16.5 44.5t38.5 18.5q34 0 49 -37q7 -14 1 -17q-1 -1 -3 0q-8 5 -19 5q-17 0 -25.5 -11t-8.5 -25q0 -24 20 -40t52 -16
q21 0 36 3.5t31 17t26 37.5t16.5 67t6.5 103v81q-58 -27 -95 -27q-93 0 -148.5 57.5t-55.5 151.5q0 132 102 190q45 25 117 25h107q29 0 95 3z" />
    <glyph glyph-name="periodcentered" unicode="&#xb7;" horiz-adv-x="245" 
d="M123 299h1q31 0 52.5 -22.5t21.5 -56.5t-21.5 -56t-53.5 -22t-54 22.5t-22 55.5q0 34 22 56.5t54 22.5z" />
    <glyph glyph-name="cedilla" unicode="&#xb8;" horiz-adv-x="456" 
d="M234 -5h18l-16 -24t-19 -29q76 -12 76 -70q0 -39 -27 -60.5t-67 -21.5q-32 0 -58 19l7 15q21 -12 47 -12q38 0 38 33q0 18 -17.5 28.5t-46.5 10.5l-5 10q11 17 36.5 53t33.5 48z" />
    <glyph glyph-name="onesuperior" unicode="&#xb9;" horiz-adv-x="334" 
d="M285 472l1 -14q-17 0 -55 1.5t-57 1.5q-23 0 -56.5 -1.5t-43.5 -1.5l-3 13l39 4q20 1 22 14q3 42 3 81v103q0 61 -2 75q-1 7 -8 6q-5 -1 -21 -3.5t-30 -5.5l5 16q126 18 150 27l3 -2q-3 -54 -3 -113v-102q0 -43 2 -83q2 -11 15 -12z" />
    <glyph glyph-name="ordmasculine" unicode="&#xba;" horiz-adv-x="359" 
d="M185 566h1q68 0 108 -33t40 -95q0 -60 -42.5 -96.5t-117.5 -36.5t-112 34t-37 91q0 60 41.5 98t118.5 38zM182 553h-1q-22 0 -34 -22q-16 -28 -16 -96q0 -61 11 -90q12 -28 37 -28q27 0 37 27q13 34 13 97q0 59 -11 87q-12 25 -36 25z" />
    <glyph glyph-name="guillemotright" unicode="&#xbb;" horiz-adv-x="457" 
d="M230 30l-11 8q19 84 82 176q-70 102 -82 173l9 7q30 -65 85 -113t101 -60l-3 -11q-51 -16 -101.5 -66.5t-79.5 -113.5zM56 29l-11 7q23 93 83 178q-69 98 -83 174l9 7q30 -65 85 -114t101 -60l-3 -11q-51 -16 -101.5 -67t-79.5 -114z" />
    <glyph glyph-name="onequarter" unicode="&#xbc;" horiz-adv-x="678" 
d="M266 324l1 -14q-17 0 -55 1.5t-57 1.5q-23 0 -56.5 -1.5t-43.5 -1.5l-3 13l39 4q20 1 22 14q3 42 3 81v103q0 61 -2 75q-1 7 -8 6q-4 -1 -20.5 -3.5t-30.5 -5.5l5 16q126 18 150 27l3 -2q-3 -54 -3 -113v-102q0 -43 2 -83q2 -11 15 -12zM545 670l17 -17
q-230 -346 -419 -647l-17 19q222 330 419 645zM331 139l-7 15q110 123 158 198q56 8 90 19l3 -2q-2 -86 -2 -170v-46q36 2 62 15l1 -11q-21 -17 -63 -24q0 -42 2 -88q-69 -1 -105 -9l-3 3q2 12 5 90q-99 0 -141 10zM473 152q6 96 6 169q-106 -142 -118 -159q43 -10 112 -10z
" />
    <glyph glyph-name="onehalf" unicode="&#xbd;" horiz-adv-x="678" 
d="M250 324l1 -14q-17 0 -55 1.5t-57 1.5q-23 0 -56.5 -1.5t-43.5 -1.5l-3 13l39 4q20 1 22 14q3 39 3 81v103q0 61 -2 75q-1 7 -8 6q-5 -1 -21 -3.5t-30 -5.5l5 16q126 18 150 27l3 -2q-3 -54 -3 -114v-102q0 -44 2 -82q2 -11 15 -12zM522 670l17 -17q-259 -394 -419 -647
l-16 19q230 344 418 645zM638 179l12 -6q-20 -62 -23 -126q-54 3 -195 3q-56 0 -77 -3l-2 5q3 7 10 26t10 26q115 50 138 122q8 27 8 67q0 69 -37 69t-37 -62q0 -1 4 -33q2 -10 -9 -17q-10 -7 -28 -7q-50 0 -50 44q0 33 38 62q37 27 97 27q57 0 89 -20q40 -26 40 -77
q0 -47 -42 -74q-18 -13 -144 -82q133 4 164 7q12 1 17 11q9 13 17 38z" />
    <glyph glyph-name="threequarters" unicode="&#xbe;" horiz-adv-x="678" 
d="M174 640h1q49 0 85.5 -18.5t36.5 -58.5q0 -41 -45 -58q-22 -8 -76 -20v-3q77 -3 111 -24q29 -18 29 -53q0 -45 -44 -73q-44 -27 -116 -27q-55 0 -90.5 19.5t-35.5 49.5q0 18 16 31t36 13q13 0 17.5 -6t5.5 -19q4 -75 55 -75q47 0 47 76q0 79 -63 79q-21 0 -35 -5l-11 14
l2 3q49 -2 69 12q29 18 29 63q0 66 -42 66q-41 0 -41 -57q0 -10 2 -24q1 -10 -7 -15t-22 -5q-46 0 -46 36q0 29 35 54t97 25zM565 670l17 -17q-281 -427 -419 -647l-16 19q230 344 418 645zM345 139l-7 15q110 123 158 198q48 5 90 19l3 -3q-2 -86 -2 -169v-46q36 2 62 15
l1 -11q-21 -17 -63 -24q0 -42 2 -88q-69 -1 -105 -9l-3 3q2 12 5 90q-99 0 -141 10zM487 152q6 96 6 168q-83 -110 -118 -158q42 -10 112 -10z" />
    <glyph glyph-name="questiondown" unicode="&#xbf;" horiz-adv-x="410" 
d="M214 205l11 6q54 -56 58 -113q3 -39 -30 -70q-33 -32 -99 -92q-25 -23 -25 -59q0 -47 21.5 -70.5t54.5 -23.5t51 20t18 50q0 24 -11 50q-9 17 10 34q23 20 57 20q21 0 36 -15.5t15 -45.5q0 -59 -55 -94.5t-120 -35.5q-88 0 -132.5 48.5t-44.5 132.5q0 68 57 108
q90 68 105 83q35 29 23 67zM212 433h1q31 0 52.5 -22.5t21.5 -56.5q0 -33 -22 -55.5t-53 -22.5q-32 0 -54 22.5t-22 56.5t21.5 56t54.5 22z" />
    <glyph glyph-name="Agrave" unicode="&#xc0;" horiz-adv-x="603" 
d="M615 9v-13q-81 3 -149 3q-1 0 -148 -3l3 13q39 5 48 10t6 21q-2 13 -54 212q-21 1 -85 1q-65 0 -87 -1q-47 -156 -51 -185q-5 -31 10.5 -42t72.5 -16l-4 -13q-9 0 -40 2t-55 2q-13 0 -52.5 -2t-56.5 -2v13q41 4 58 15t32 49q38 97 169 512q8 23 9 48q21 -1 66 4.5
t59 13.5q26 -109 91.5 -335.5t89.5 -276.5q9 -23 33 -26zM243 559q-61 -196 -87 -285q10 0 38.5 -0.5t43.5 -0.5q17 0 44 0.5t33 0.5q-45 185 -72 285zM335 690l-7 -8q-152 56 -155 57q-25 10 -32 31q-13 32 17 43q25 10 53 -10q8 -7 61 -55.5t63 -57.5z" />
    <glyph glyph-name="Aacute" unicode="&#xc1;" horiz-adv-x="603" 
d="M615 9v-13q-81 3 -149 3q-1 0 -148 -3l3 13q39 5 48 10t6 21q-2 13 -54 212q-21 1 -85 1q-65 0 -87 -1q-47 -156 -51 -185q-5 -31 10.5 -42t72.5 -16l-4 -13q-9 0 -40 2t-55 2q-13 0 -52.5 -2t-56.5 -2v13q41 4 58 15t32 49q38 97 169 512q8 23 9 48q21 -1 66 4.5
t59 13.5q26 -109 91.5 -335.5t89.5 -276.5q9 -23 33 -26zM243 559q-61 -196 -87 -285q10 0 38.5 -0.5t43.5 -0.5q17 0 44 0.5t33 0.5q-45 185 -72 285zM263 682l-7 9q9 7 62 50.5t71 56.5q31 24 59 12q25 -12 11 -42q-9 -21 -45 -34q-92 -33 -151 -52z" />
    <glyph glyph-name="Acircumflex" unicode="&#xc2;" horiz-adv-x="603" 
d="M615 9v-13q-81 3 -149 3q-1 0 -148 -3l3 13q39 5 48 10t6 21q-2 13 -54 212q-21 1 -85 1q-65 0 -87 -1q-47 -156 -51 -185q-5 -31 10.5 -42t72.5 -16l-4 -13q-9 0 -40 2t-55 2q-13 0 -52.5 -2t-56.5 -2v13q41 4 58 15t32 49q38 97 169 512q8 23 9 48q21 -1 66 4.5
t59 13.5q26 -109 91.5 -335.5t89.5 -276.5q9 -23 33 -26zM243 559q-61 -196 -87 -285q10 0 38.5 -0.5t43.5 -0.5q17 0 44 0.5t33 0.5q-45 185 -72 285zM302 804l9 3q45 -70 129 -122l-5 -9q-95 31 -129 51q-54 -28 -128 -51l-6 9q91 57 130 119z" />
    <glyph glyph-name="Atilde" unicode="&#xc3;" horiz-adv-x="603" 
d="M615 9v-13q-81 3 -149 3q-1 0 -148 -3l3 13q39 5 48 10t6 21q-2 13 -54 212q-21 1 -85 1q-65 0 -87 -1q-47 -156 -51 -185q-5 -31 10.5 -42t72.5 -16l-4 -13q-9 0 -40 2t-55 2q-13 0 -52.5 -2t-56.5 -2v13q41 4 58 15t32 49q38 97 169 512q8 23 9 48q21 -1 66 4.5
t59 13.5q26 -109 91.5 -335.5t89.5 -276.5q9 -23 33 -26zM243 559q-61 -196 -87 -285q10 0 38.5 -0.5t43.5 -0.5q17 0 44 0.5t33 0.5q-45 185 -72 285zM197 685l-14 3q6 41 25 72.5t54 31.5q23 0 64 -28q33 -24 53 -24q30 0 37 57l14 -5q-6 -41 -24 -73t-52 -32
q-25 0 -67 30q-31 22 -49 22q-15 0 -26 -15t-15 -39z" />
    <glyph glyph-name="Adieresis" unicode="&#xc4;" horiz-adv-x="603" 
d="M615 9v-13q-81 3 -149 3q-1 0 -148 -3l3 13q39 5 48 10t6 21q-2 13 -54 212q-21 1 -85 1q-65 0 -87 -1q-47 -156 -51 -185q-5 -31 10.5 -42t72.5 -16l-4 -13q-9 0 -40 2t-55 2q-13 0 -52.5 -2t-56.5 -2v13q41 4 58 15t32 49q38 97 169 512q8 23 9 48q21 -1 66 4.5
t59 13.5q26 -109 91.5 -335.5t89.5 -276.5q9 -23 33 -26zM243 559q-61 -196 -87 -285q10 0 38.5 -0.5t43.5 -0.5q17 0 44 0.5t33 0.5q-45 185 -72 285zM209 791h1q23 0 37 -14.5t14 -36.5q0 -25 -16.5 -40.5t-36.5 -15.5t-35 12.5t-15 38.5q0 25 14 40.5t37 15.5zM394 791h1
q23 0 37 -14.5t14 -36.5q0 -25 -16.5 -40.5t-37.5 -15.5q-20 0 -34.5 12.5t-14.5 38.5q0 25 14 40.5t37 15.5z" />
    <glyph glyph-name="Aring" unicode="&#xc5;" horiz-adv-x="603" 
d="M305 839h1q36 0 58.5 -20.5t22.5 -57.5q0 -38 -25 -60t-63 -22t-61.5 20t-23.5 56q0 39 25.5 61.5t65.5 22.5zM301 823h-1q-34 0 -34 -63q0 -66 35 -66q34 0 34 68q0 61 -34 61zM615 9v-13q-81 3 -149 3q-1 0 -148 -3l3 13q39 5 48 10t6 21q-2 13 -54 212q-21 1 -85 1
q-65 0 -87 -1q-47 -156 -51 -185q-5 -31 10.5 -42t72.5 -16l-4 -13q-9 0 -40 2t-55 2q-13 0 -52.5 -2t-56.5 -2v13q41 4 58 15t32 49q38 97 169 512q8 23 9 48q21 -1 66 4.5t59 13.5q26 -109 91.5 -335.5t89.5 -276.5q9 -23 33 -26zM243 559q-61 -196 -87 -285
q10 0 38.5 -0.5t43.5 -0.5q17 0 44 0.5t33 0.5q-45 185 -72 285z" />
    <glyph glyph-name="AE" unicode="&#xc6;" horiz-adv-x="867" 
d="M465 638h187q41 0 89 2q40 3 53 7q-7 -41 -4 -179h-12q-12 65 -29 98t-50 44t-108 11h-27q-18 0 -18 -16q-6 -64 -6 -164v-118h47q65 0 90 21t32 71h11q-5 -46 -5.5 -118t3.5 -108l-12 1q-7 33 -11.5 47.5t-17 33.5t-35 26.5t-58.5 7.5h-44v-59q0 -156 4 -205
q2 -15 12.5 -19.5t52.5 -4.5q60 0 91.5 5.5t56.5 25.5q53 40 76 138l12 -3q-4 -60 -27 -189q-41 3 -127 5q-47 1 -153 1h-59q-35 0 -97.5 -2t-75.5 -2l1 13l49 6q15 2 20.5 7.5t6.5 21.5q7 93 7 199v62q-8 0 -77.5 -1.5t-92.5 -2.5q-88 -170 -110 -243q-6 -19 2 -29t37 -13
l44 -7l-1 -13q-17 0 -54.5 2t-62.5 2q-17 0 -48.5 -2t-43.5 -2v13q39 4 58 17.5t42 58.5q52 98 143.5 275t127.5 245q9 17 -9 18l-78 6l-3 12q26 1 99 -1t102 -2zM390 323v294h-8q-105 -198 -150 -293q52 -3 158 -1z" />
    <glyph glyph-name="Ccedilla" unicode="&#xc7;" horiz-adv-x="623" 
d="M375 -17q-3 -4 -12 -17.5t-14 -22.5q74 -12 74 -69q0 -38 -26 -59.5t-66 -21.5q-31 0 -57 19l7 15q21 -12 46 -12q38 0 38 33q0 17 -17.5 27.5t-45.5 10.5l-4 10q6 9 59 86h-7q-168 0 -246 97q-69 80 -69 226q0 183 111 275q88 75 230 75q123 0 183 -58l18 54l10 -5
q-16 -108 -9 -213l-12 -3q-8 86 -51.5 146.5t-120.5 60.5q-78 0 -123 -61q-64 -85 -64 -254q0 -141 47 -220q50 -81 153 -81q65 0 115 38t73 117l13 -9q-24 -83 -83 -131t-150 -53z" />
    <glyph glyph-name="Egrave" unicode="&#xc8;" horiz-adv-x="564" 
d="M13 629v12q12 0 76 -1.5t92 -1.5h171q105 0 141 9q-7 -50 -4 -180l-12 -3q-10 63 -35 109q-17 30 -42 39t-100 9h-33q-18 0 -18 -16q-6 -96 -6 -169v-95q13 -1 56 -1q60 0 84.5 21.5t33.5 77.5h12q-6 -48 -7 -121t3 -110h-12q-9 63 -31.5 88.5t-85.5 25.5q-46 0 -53 -1
v-80q0 -149 4 -198q1 -15 12.5 -20.5t47.5 -5.5q61 0 90 6t55 27q50 38 78 140l12 -4q-1 -16 -13 -93t-17 -98q-78 5 -219 5h-114q-34 0 -96 -2t-76 -2l1 13l47 5q31 3 33 34q5 67 5 203v173q0 138 -4 177q-3 23 -35 24zM319 695l-7 -8q-152 56 -155 57q-25 10 -32 31
q-13 32 17 43q25 10 53 -10q8 -7 61 -55.5t63 -57.5z" />
    <glyph glyph-name="Eacute" unicode="&#xc9;" horiz-adv-x="564" 
d="M13 629v12q12 0 76 -1.5t92 -1.5h171q105 0 141 9q-7 -50 -4 -180l-12 -3q-10 63 -35 109q-17 30 -42 39t-100 9h-33q-18 0 -18 -16q-6 -96 -6 -169v-95q13 -1 56 -1q60 0 84.5 21.5t33.5 77.5h12q-6 -48 -7 -121t3 -110h-12q-9 63 -31.5 88.5t-85.5 25.5q-46 0 -53 -1
v-80q0 -149 4 -198q1 -15 12.5 -20.5t47.5 -5.5q61 0 90 6t55 27q50 38 78 140l12 -4q-1 -16 -13 -93t-17 -98q-78 5 -219 5h-114q-34 0 -96 -2t-76 -2l1 13l47 5q31 3 33 34q5 67 5 203v173q0 138 -4 177q-3 23 -35 24zM241 687l-7 9q9 7 62 50.5t71 56.5q31 24 59 12
q25 -12 11 -42q-9 -21 -45 -34q-92 -33 -151 -52z" />
    <glyph glyph-name="Ecircumflex" unicode="&#xca;" horiz-adv-x="564" 
d="M13 629v12q12 0 76 -1.5t92 -1.5h171q105 0 141 9q-7 -50 -4 -180l-12 -3q-10 63 -35 109q-17 30 -42 39t-100 9h-33q-18 0 -18 -16q-6 -96 -6 -169v-95q13 -1 56 -1q60 0 84.5 21.5t33.5 77.5h12q-6 -48 -7 -121t3 -110h-12q-9 63 -31.5 88.5t-85.5 25.5q-46 0 -53 -1
v-80q0 -149 4 -198q1 -15 12.5 -20.5t47.5 -5.5q61 0 90 6t55 27q50 38 78 140l12 -4q-1 -16 -13 -93t-17 -98q-78 5 -219 5h-114q-34 0 -96 -2t-76 -2l1 13l47 5q31 3 33 34q5 67 5 203v173q0 138 -4 177q-3 23 -35 24zM281 817l9 3q45 -70 129 -122l-5 -9q-95 31 -129 51
q-54 -28 -128 -51l-6 9q91 57 130 119z" />
    <glyph glyph-name="Edieresis" unicode="&#xcb;" horiz-adv-x="564" 
d="M13 629v12q12 0 76 -1.5t92 -1.5h171q105 0 141 9q-7 -50 -4 -180l-12 -3q-10 63 -35 109q-17 30 -42 39t-100 9h-33q-18 0 -18 -16q-6 -96 -6 -169v-95q13 -1 56 -1q60 0 84.5 21.5t33.5 77.5h12q-6 -48 -7 -121t3 -110h-12q-9 63 -31.5 88.5t-85.5 25.5q-46 0 -53 -1
v-80q0 -149 4 -198q1 -15 12.5 -20.5t47.5 -5.5q61 0 90 6t55 27q50 38 78 140l12 -4q-1 -16 -13 -93t-17 -98q-78 5 -219 5h-114q-34 0 -96 -2t-76 -2l1 13l47 5q31 3 33 34q5 67 5 203v173q0 138 -4 177q-3 23 -35 24zM189 798h1q23 0 37 -14.5t14 -36.5
q0 -25 -16.5 -40.5t-36.5 -15.5t-35 12.5t-15 38.5q0 25 14 40.5t37 15.5zM374 798h1q23 0 37 -14.5t14 -36.5q0 -25 -16.5 -40.5t-37.5 -15.5q-20 0 -34.5 12.5t-14.5 38.5q0 25 14 40.5t37 15.5z" />
    <glyph glyph-name="Igrave" unicode="&#xcc;" horiz-adv-x="337" 
d="M93 231v182q0 145 -3 182q-2 19 -16 25t-56 9l1 13q11 0 64 -2t89 -2q30 0 81.5 2t63.5 2l2 -13q-41 -2 -55 -8t-16 -24q-4 -96 -4 -183v-183q0 -123 5 -188q1 -19 15 -25t57 -9l-2 -13q-14 0 -67.5 2t-84.5 2q-33 0 -87 -2t-65 -2l2 13q41 2 55.5 8.5t15.5 24.5
q5 38 5 189zM209 692l-7 -8q-152 56 -155 57q-25 10 -32 31q-13 32 17 43q25 10 53 -10q8 -7 61 -55.5t63 -57.5z" />
    <glyph glyph-name="Iacute" unicode="&#xcd;" horiz-adv-x="337" 
d="M93 231v182q0 145 -3 182q-2 19 -16 25t-56 9l1 13q11 0 64 -2t89 -2q30 0 81.5 2t63.5 2l2 -13q-41 -2 -55 -8t-16 -24q-4 -96 -4 -183v-183q0 -123 5 -188q1 -19 15 -25t57 -9l-2 -13q-14 0 -67.5 2t-84.5 2q-33 0 -87 -2t-65 -2l2 13q41 2 55.5 8.5t15.5 24.5
q5 38 5 189zM116 681l-7 9q9 7 62 50.5t71 56.5q31 24 59 12q25 -12 11 -42q-9 -21 -45 -34q-92 -33 -151 -52z" />
    <glyph glyph-name="Icircumflex" unicode="&#xce;" horiz-adv-x="337" 
d="M93 231v182q0 145 -3 182q-2 19 -16 25t-56 9l1 13q11 0 64 -2t89 -2q30 0 81.5 2t63.5 2l2 -13q-41 -2 -55 -8t-16 -24q-4 -96 -4 -183v-183q0 -123 5 -188q1 -19 15 -25t57 -9l-2 -13q-14 0 -67.5 2t-84.5 2q-33 0 -87 -2t-65 -2l2 13q41 2 55.5 8.5t15.5 24.5
q5 38 5 189zM166 808l9 3q45 -70 129 -122l-5 -9q-95 31 -129 51q-54 -28 -128 -51l-6 9q91 57 130 119z" />
    <glyph glyph-name="Idieresis" unicode="&#xcf;" horiz-adv-x="337" 
d="M93 231v182q0 145 -3 182q-2 19 -16 25t-56 9l1 13q11 0 64 -2t89 -2q30 0 81.5 2t63.5 2l2 -13q-41 -2 -55 -8t-16 -24q-4 -96 -4 -183v-183q0 -123 5 -188q1 -19 15 -25t57 -9l-2 -13q-14 0 -67.5 2t-84.5 2q-33 0 -87 -2t-65 -2l2 13q41 2 55.5 8.5t15.5 24.5
q5 38 5 189zM74 796h1q23 0 37 -14.5t14 -36.5q0 -25 -16.5 -40.5t-36.5 -15.5t-35 12.5t-15 38.5q0 25 14 40.5t37 15.5zM259 796h1q23 0 37 -14.5t14 -36.5q0 -25 -16.5 -40.5t-37.5 -15.5q-20 0 -34.5 12.5t-14.5 38.5q0 25 14 40.5t37 15.5z" />
    <glyph glyph-name="Eth" unicode="&#xd0;" horiz-adv-x="696" 
d="M12 327l2 27q5 0 36.5 -1t53.5 -1v72q0 95 -3 170q-1 27 -22 30l-56 6l2 12q4 0 53.5 -2t79.5 -2q20 0 81 2t100 2q143 0 202 -36q121 -75 121 -266q0 -67 -15.5 -125t-54 -108.5t-97.5 -77.5q-67 -32 -176 -32q-33 0 -97 2q-24 1 -69 1q-28 0 -75.5 -1.5t-56.5 -1.5
l1 12l42 4q19 2 25.5 8t7.5 20q7 77 7 222v67q-54 0 -92 -3zM389 354l-4 -28q-4 0 -22.5 0.5t-49 1.5t-59.5 1v-72q0 -192 4 -224q2 -20 45 -20q98 0 142 62q55 84 55 257t-54 240q-24 30 -52.5 42t-84.5 12q-50 0 -51 -21q-4 -30 -4 -192v-63q57 0 135 4z" />
    <glyph glyph-name="Ntilde" unicode="&#xd1;" horiz-adv-x="635" 
d="M11 629v12q2 0 46.5 -1.5t74.5 -1.5q67 0 98 3q2 -3 52 -84t252 -379q0 346 -8 402q-3 25 -12.5 34t-37.5 11l-41 4l5 12q14 0 51 -2t55 -2q20 0 54 2t42 2v-12q-6 -1 -22 -3t-22 -4q-22 -5 -29 -37q-16 -75 -16 -350v-236q-33 0 -85 -10q-83 135 -351 558q0 -421 8 -491
q5 -34 35 -39q1 0 23.5 -3.5t34.5 -4.5l-2 -13q-11 0 -51.5 2t-71.5 2q-27 0 -54 -2t-34 -2v13q4 0 10.5 1t16 2t15.5 2q17 4 25 16t12 38q16 148 16 501q-9 19 -18 33q-13 18 -33 21zM222 692l-14 3q6 41 25 72.5t54 31.5q23 0 64 -28q33 -24 53 -24q30 0 37 57l14 -5
q-6 -41 -24 -73t-52 -32q-25 0 -67 30q-31 22 -49 22q-15 0 -26 -15t-15 -39z" />
    <glyph glyph-name="Ograve" unicode="&#xd2;" horiz-adv-x="693" 
d="M348 655h1q144 0 227 -89.5t83 -233.5q0 -164 -82 -256.5t-231 -92.5q-150 0 -231 90.5t-81 241.5q0 147 82.5 243.5t231.5 96.5zM343 639h-1q-60 0 -94 -62q-41 -80 -41 -242q0 -86 14 -163.5t37 -113.5q34 -58 96 -58q63 0 94 62q38 78 38 253t-43 261q-32 63 -100 63z
M381 697l-7 -8q-152 56 -155 57q-25 10 -32 31q-13 32 17 43q25 10 53 -10q8 -7 61 -55.5t63 -57.5z" />
    <glyph glyph-name="Oacute" unicode="&#xd3;" horiz-adv-x="693" 
d="M348 655h1q144 0 227 -89.5t83 -233.5q0 -164 -82 -256.5t-231 -92.5q-150 0 -231 90.5t-81 241.5q0 147 82.5 243.5t231.5 96.5zM343 639h-1q-60 0 -94 -62q-41 -80 -41 -242q0 -86 14 -163.5t37 -113.5q34 -58 96 -58q63 0 94 62q38 78 38 253t-43 261q-32 63 -100 63z
M288 692l-7 9q9 7 62 50.5t71 56.5q31 24 59 12q25 -12 11 -42q-9 -21 -45 -34q-92 -33 -151 -52z" />
    <glyph glyph-name="Ocircumflex" unicode="&#xd4;" horiz-adv-x="693" 
d="M348 655h1q144 0 227 -89.5t83 -233.5q0 -164 -82 -256.5t-231 -92.5q-150 0 -231 90.5t-81 241.5q0 147 82.5 243.5t231.5 96.5zM343 639h-1q-60 0 -94 -62q-41 -80 -41 -242q0 -86 14 -163.5t37 -113.5q34 -58 96 -58q63 0 94 62q38 78 38 253t-43 261q-32 63 -100 63z
M339 816l9 3q45 -70 129 -122l-5 -9q-95 31 -129 51q-54 -28 -128 -51l-6 9q91 57 130 119z" />
    <glyph glyph-name="Otilde" unicode="&#xd5;" horiz-adv-x="693" 
d="M348 655h1q144 0 227 -89.5t83 -233.5q0 -164 -82 -256.5t-231 -92.5q-150 0 -231 90.5t-81 241.5q0 147 82.5 243.5t231.5 96.5zM343 639h-1q-60 0 -94 -62q-41 -80 -41 -242q0 -86 14 -163.5t37 -113.5q34 -58 96 -58q63 0 94 62q38 78 38 253t-43 261q-32 63 -100 63z
M234 696l-14 3q6 41 25 72.5t54 31.5q23 0 64 -28q33 -24 53 -24q30 0 37 57l14 -5q-6 -41 -24 -73t-52 -32q-25 0 -67 30q-31 22 -49 22q-15 0 -26 -15t-15 -39z" />
    <glyph glyph-name="Odieresis" unicode="&#xd6;" horiz-adv-x="693" 
d="M348 655h1q144 0 227 -89.5t83 -233.5q0 -164 -82 -256.5t-231 -92.5q-150 0 -231 90.5t-81 241.5q0 147 82.5 243.5t231.5 96.5zM343 639h-1q-60 0 -94 -62q-41 -80 -41 -242q0 -86 14 -163.5t37 -113.5q34 -58 96 -58q63 0 94 62q38 78 38 253t-43 261q-32 63 -100 63z
M251 800h1q23 0 37 -14.5t14 -36.5q0 -25 -16.5 -40.5t-36.5 -15.5t-35 12.5t-15 38.5q0 25 14 40.5t37 15.5zM436 800h1q23 0 37 -14.5t14 -36.5q0 -25 -16.5 -40.5t-37.5 -15.5q-20 0 -34.5 12.5t-14.5 38.5q0 25 14 40.5t37 15.5z" />
    <glyph glyph-name="multiply" unicode="&#xd7;" horiz-adv-x="443" 
d="M395 366l-144 -148l144 -146l-30 -32l-145 147l-143 -147l-30 32l143 146l-143 146l30 32l143 -146l145 148z" />
    <glyph glyph-name="Oslash" unicode="&#xd8;" horiz-adv-x="696" 
d="M571 669l24 -11q-30 -42 -46 -63q53 -45 82.5 -114t29.5 -149q0 -160 -85 -254.5t-232 -94.5q-103 0 -174 46q-8 -13 -23.5 -36t-20.5 -31l-25 9q17 24 49 70q-55 44 -85 114t-30 157q0 148 85.5 245.5t236.5 97.5q102 0 173 -46q28 40 41 60zM350 639h-1q-54 0 -90 -53
q-22 -36 -36.5 -110t-14.5 -152q0 -107 24 -178q58 93 232 382q-29 111 -114 111zM349 0h1q63 0 96 60q42 81 42 263q0 106 -18 172q-15 -24 -230 -381q34 -114 109 -114z" />
    <glyph glyph-name="Ugrave" unicode="&#xd9;" horiz-adv-x="640" 
d="M378 17h1q67 0 106.5 37t45.5 134q13 198 0 392q-1 26 -10.5 34.5t-30.5 10.5l-46 4l-2 13q12 0 48.5 -2t52.5 -2q20 0 49 2t42 2l4 -13l-33 -3q-20 -2 -26.5 -11t-7.5 -33q-2 -41 -5 -132t-6.5 -164t-7.5 -112q-12 -106 -77 -151q-55 -39 -152 -39q-139 0 -195 64
q-42 47 -43 155q0 48 -0.5 195t-1.5 192q-1 34 -21 35l-48 4v13q15 0 68 -2t81 -2q31 0 81.5 2t62.5 2l3 -13l-46 -5q-18 -2 -21 -24q-13 -146 -6 -393q1 -74 10.5 -107t31.5 -52q33 -31 99 -31zM403 691l-7 -8q-152 56 -155 57q-25 10 -32 31q-13 32 17 43q25 10 53 -10
q8 -7 61 -55.5t63 -57.5z" />
    <glyph glyph-name="Uacute" unicode="&#xda;" horiz-adv-x="640" 
d="M378 17h1q67 0 106.5 37t45.5 134q13 198 0 392q-1 26 -10.5 34.5t-30.5 10.5l-46 4l-2 13q12 0 48.5 -2t52.5 -2q20 0 49 2t42 2l4 -13l-33 -3q-20 -2 -26.5 -11t-7.5 -33q-2 -41 -5 -132t-6.5 -164t-7.5 -112q-12 -106 -77 -151q-55 -39 -152 -39q-139 0 -195 64
q-42 47 -43 155q0 48 -0.5 195t-1.5 192q-1 34 -21 35l-48 4v13q15 0 68 -2t81 -2q31 0 81.5 2t62.5 2l3 -13l-46 -5q-18 -2 -21 -24q-13 -146 -6 -393q1 -74 10.5 -107t31.5 -52q33 -31 99 -31zM288 686l-7 9q9 7 62 50.5t71 56.5q31 24 59 12q25 -12 11 -42
q-9 -21 -45 -34q-92 -33 -151 -52z" />
    <glyph glyph-name="Ucircumflex" unicode="&#xdb;" horiz-adv-x="640" 
d="M378 17h1q67 0 106.5 37t45.5 134q13 198 0 392q-1 26 -10.5 34.5t-30.5 10.5l-46 4l-2 13q12 0 48.5 -2t52.5 -2q20 0 49 2t42 2l4 -13l-33 -3q-20 -2 -26.5 -11t-7.5 -33q-2 -41 -5 -132t-6.5 -164t-7.5 -112q-12 -106 -77 -151q-55 -39 -152 -39q-139 0 -195 64
q-42 47 -43 155q0 48 -0.5 195t-1.5 192q-1 34 -21 35l-48 4v13q15 0 68 -2t81 -2q31 0 81.5 2t62.5 2l3 -13l-46 -5q-18 -2 -21 -24q-13 -146 -6 -393q1 -74 10.5 -107t31.5 -52q33 -31 99 -31zM344 811l9 3q45 -70 129 -122l-5 -9q-95 31 -129 51q-54 -28 -128 -51l-6 9
q91 57 130 119z" />
    <glyph glyph-name="Udieresis" unicode="&#xdc;" horiz-adv-x="640" 
d="M378 17h1q67 0 106.5 37t45.5 134q13 198 0 392q-1 26 -10.5 34.5t-30.5 10.5l-46 4l-2 13q12 0 48.5 -2t52.5 -2q20 0 49 2t42 2l4 -13l-33 -3q-20 -2 -26.5 -11t-7.5 -33q-2 -41 -5 -132t-6.5 -164t-7.5 -112q-12 -106 -77 -151q-55 -39 -152 -39q-139 0 -195 64
q-42 47 -43 155q0 48 -0.5 195t-1.5 192q-1 34 -21 35l-48 4v13q15 0 68 -2t81 -2q31 0 81.5 2t62.5 2l3 -13l-46 -5q-18 -2 -21 -24q-13 -146 -6 -393q1 -74 10.5 -107t31.5 -52q33 -31 99 -31zM253 797h1q23 0 37 -14.5t14 -36.5q0 -25 -16.5 -40.5t-36.5 -15.5t-35 12.5
t-15 38.5q0 25 14 40.5t37 15.5zM438 797h1q23 0 37 -14.5t14 -36.5q0 -25 -16.5 -40.5t-37.5 -15.5q-20 0 -34.5 12.5t-14.5 38.5q0 25 14 40.5t37 15.5z" />
    <glyph glyph-name="Yacute" unicode="&#xdd;" horiz-adv-x="542" 
d="M437 9l4 -13q-22 0 -83 2t-87 2q-43 0 -93.5 -2t-67.5 -2l-4 13q13 1 33 3.5t25 3.5q18 2 26.5 10t10.5 26q2 26 5 216q0 22 -9 41q-16 41 -62 131t-80 142q-21 30 -34 38t-48 9l-1 13q9 0 63.5 -2t82.5 -2q41 0 92 2t61 2l2 -13l-41 -4q-22 -2 -11 -28q5 -12 127 -268
q81 174 112 257q6 23 3 29t-16 8q-9 1 -30 3t-25 3l2 13q8 0 41 -2t56 -2q21 0 50 2t45 2l3 -13q-42 -2 -59 -10.5t-34 -36.5q-26 -44 -130 -257q-10 -21 -10 -50q-3 -168 5 -237q1 -19 20 -22q5 0 56 -7zM247 689l-7 9q9 7 62 50.5t71 56.5q31 24 59 12q25 -12 11 -42
q-9 -21 -45 -34q-92 -33 -151 -52z" />
    <glyph glyph-name="Thorn" unicode="&#xde;" horiz-adv-x="588" 
d="M94 263v163q0 145 -1 169q-1 20 -14.5 26t-51.5 8l3 13q10 0 28.5 -1t49.5 -1.5t57 -1.5q47 -1 95.5 1.5t50.5 2.5l1 -13q-37 -1 -49 -7.5t-14 -24.5q-3 -35 -3 -86q42 4 102 4q111 0 161 -47q48 -48 48 -131q0 -87 -49 -139q-60 -63 -183 -63q-50 0 -81 10q0 -81 2 -99
q2 -22 14.5 -27.5t63.5 -9.5l-1 -13q-13 0 -69.5 2t-91.5 2q-30 0 -84 -2t-62 -2v13q45 3 57.5 9.5t14.5 30.5q6 84 6 214zM244 402v-232q23 -19 64 -19q44 0 62 35q26 45 26 147q0 93 -25 130q-22 35 -86 35q-37 0 -39 -14q-2 -18 -2 -82z" />
    <glyph glyph-name="germandbls" unicode="&#xdf;" horiz-adv-x="572" 
d="M17 420h57v13q0 120 81 192q62 59 161 60q93 1 137.5 -39.5t44.5 -105.5q0 -31 -9 -48q-111 -29 -111 -94q0 -25 23 -53q18 -20 67 -59q39 -30 58.5 -60.5t19.5 -77.5q0 -76 -50 -118t-126 -42q-44 0 -98 13q3 36 1 89l11 4q7 -38 29 -64t62 -26q27 0 47.5 20t20.5 53
q0 37 -34 68q-42 38 -58 54q-60 53 -60 119q0 88 103 141q9 19 9 69q0 65 -22.5 103t-68.5 38q-54 0 -76.5 -71.5t-22.5 -206.5v-177q0 -137 2 -174q1 -17 7 -22.5t30 -8.5l-1 -13q-124 4 -135 4q-20 0 -55 -2t-44 -2v13q32 1 42 7.5t11 27.5q4 92 4 207v147l-57 6v16z" />
    <glyph glyph-name="agrave" unicode="&#xe0;" horiz-adv-x="489" 
d="M288 281l-1 51q0 87 -59 87q-69 0 -67 -77q0 -22 3 -37t-8 -24q-17 -14 -48 -14q-25 0 -41 13t-16 39q0 43 52 79t148 36q109 0 154 -60q14 -21 14 -49v-259q0 -23 4.5 -30t15.5 -7q13 0 26.5 21.5t19.5 52.5l15 -7q-19 -110 -126 -110q-78 0 -89 72q-67 -72 -138 -72
q-56 0 -87.5 34t-31.5 91q0 68 50 87q22 9 71.5 26t84.5 31t54 26zM173 132v-1q0 -35 13 -63t40 -28q13 0 23 4.5t16.5 14.5t9 15t6.5 16q5 25 5 42l2 133q-67 -35 -75 -40q-40 -26 -40 -93zM270 479l-11 -5q-100 94 -116 109q-24 26 -24 49q0 19 9.5 27t19.5 8q27 0 48 -35
q8 -15 37.5 -77t36.5 -76z" />
    <glyph glyph-name="aacute" unicode="&#xe1;" horiz-adv-x="489" 
d="M288 281l-1 51q0 87 -59 87q-69 0 -67 -77q0 -22 3 -37t-8 -24q-17 -14 -48 -14q-25 0 -41 13t-16 39q0 43 52 79t148 36q109 0 154 -60q14 -21 14 -49v-259q0 -23 4.5 -30t15.5 -7q13 0 26.5 21.5t19.5 52.5l15 -7q-19 -110 -126 -110q-78 0 -89 72q-67 -72 -138 -72
q-56 0 -87.5 34t-31.5 91q0 68 50 87q22 9 71.5 26t84.5 31t54 26zM173 132v-1q0 -35 13 -63t40 -28q13 0 23 4.5t16.5 14.5t9 15t6.5 16q5 25 5 42l2 133q-67 -35 -75 -40q-40 -26 -40 -93zM222 476l-11 6q12 19 47 80.5t40 70.5q23 37 53 37q27 0 25 -34q0 -22 -35 -55
q-11 -11 -119 -105z" />
    <glyph glyph-name="acircumflex" unicode="&#xe2;" horiz-adv-x="489" 
d="M288 281l-1 51q0 87 -59 87q-69 0 -67 -77q0 -22 3 -37t-8 -24q-17 -14 -48 -14q-25 0 -41 13t-16 39q0 43 52 79t148 36q109 0 154 -60q14 -21 14 -49v-259q0 -23 4.5 -30t15.5 -7q13 0 26.5 21.5t19.5 52.5l15 -7q-19 -110 -126 -110q-78 0 -89 72q-67 -72 -138 -72
q-56 0 -87.5 34t-31.5 91q0 68 50 87q22 9 71.5 26t84.5 31t54 26zM173 132v-1q0 -35 13 -63t40 -28q13 0 23 4.5t16.5 14.5t9 15t6.5 16q5 25 5 42l2 133q-67 -35 -75 -40q-40 -26 -40 -93zM240 669l11 4q31 -91 112 -187l-7 -10q-44 28 -111 95q-69 -69 -110 -95l-8 10
q82 96 113 183z" />
    <glyph glyph-name="atilde" unicode="&#xe3;" horiz-adv-x="489" 
d="M288 281l-1 51q0 87 -59 87q-69 0 -67 -77q0 -22 3 -37t-8 -24q-17 -14 -48 -14q-25 0 -41 13t-16 39q0 43 52 79t148 36q109 0 154 -60q14 -21 14 -49v-259q0 -23 4.5 -30t15.5 -7q13 0 26.5 21.5t19.5 52.5l15 -7q-19 -110 -126 -110q-78 0 -89 72q-67 -72 -138 -72
q-56 0 -87.5 34t-31.5 91q0 68 50 87q22 9 71.5 26t84.5 31t54 26zM173 132v-1q0 -35 13 -63t40 -28q13 0 23 4.5t16.5 14.5t9 15t6.5 16q5 25 5 42l2 133q-67 -35 -75 -40q-40 -26 -40 -93zM139 502l-14 4q15 105 75 105q18 0 62 -29q40 -27 54 -27q27 0 33 59l14 -5
q-14 -108 -73 -108q-21 0 -66 32q-34 24 -50 24q-27 0 -35 -55z" />
    <glyph glyph-name="adieresis" unicode="&#xe4;" horiz-adv-x="489" 
d="M288 281l-1 51q0 87 -59 87q-69 0 -67 -77q0 -22 3 -37t-8 -24q-17 -14 -48 -14q-25 0 -41 13t-16 39q0 43 52 79t148 36q109 0 154 -60q14 -21 14 -49v-259q0 -23 4.5 -30t15.5 -7q13 0 26.5 21.5t19.5 52.5l15 -7q-19 -110 -126 -110q-78 0 -89 72q-67 -72 -138 -72
q-56 0 -87.5 34t-31.5 91q0 68 50 87q22 9 71.5 26t84.5 31t54 26zM173 132v-1q0 -35 13 -63t40 -28q13 0 23 4.5t16.5 14.5t9 15t6.5 16q5 25 5 42l2 133q-67 -35 -75 -40q-40 -26 -40 -93zM157 632h1q26 0 41 -16t15 -42q0 -29 -18.5 -46t-40.5 -17q-23 0 -39.5 14.5
t-16.5 43.5q0 28 16 45.5t42 17.5zM334 632h1q26 0 41 -16t15 -41q0 -29 -18 -46.5t-40 -17.5q-24 0 -40.5 14.5t-16.5 43.5t16.5 46t41.5 17z" />
    <glyph glyph-name="aring" unicode="&#xe5;" horiz-adv-x="489" 
d="M288 281l-1 51q0 87 -59 87q-69 0 -67 -77q0 -22 3 -37t-8 -24q-17 -14 -48 -14q-25 0 -41 13t-16 39q0 43 52 79t148 36q109 0 154 -60q14 -21 14 -49v-259q0 -23 4.5 -30t15.5 -7q13 0 26.5 21.5t19.5 52.5l15 -7q-19 -110 -126 -110q-78 0 -89 72q-67 -72 -138 -72
q-56 0 -87.5 34t-31.5 91q0 68 50 87q22 9 71.5 26t84.5 31t54 26zM173 132v-1q0 -35 13 -63t40 -28q13 0 23 4.5t16.5 14.5t9 15t6.5 16q5 25 5 42l2 133q-67 -35 -75 -40q-40 -26 -40 -93zM249 649h1q37 0 59.5 -20t22.5 -58t-25 -60.5t-63 -22.5q-39 0 -62.5 20t-23.5 57
q0 40 25.5 62t65.5 22zM246 634h-1q-35 0 -35 -64q0 -66 35 -66t35 68q0 62 -34 62z" />
    <glyph glyph-name="ae" unicode="&#xe6;" horiz-adv-x="706" 
d="M173 125v-1q0 -32 13 -60t38 -28q42 0 57 48q4 12 5 46l2 133q-50 -21 -79 -43q-36 -26 -36 -95zM683 115q-23 -68 -68 -98.5t-122 -30.5q-136 0 -179 88q-2 -2 -13 -11.5t-15 -13t-15 -12.5t-18 -13t-18.5 -11.5t-20.5 -11t-20.5 -8t-23.5 -6t-24 -1.5q-56 1 -87 33.5
t-31 85.5q0 71 52 93q21 8 68 25t83 31t57 26v54q-1 42 -17.5 63.5t-44.5 21.5q-32 0 -49.5 -20.5t-15.5 -55.5q0 -7 3 -40q4 -15 -9 -24q-18 -13 -47 -13q-24 0 -40.5 13t-16.5 40q0 44 51.5 79.5t143.5 35.5q99 0 128 -54q47 54 132 54q47 0 82 -13.5t53 -32t28.5 -44.5
t13 -43.5t2.5 -36.5q0 -27 -16 -37q-14 -9 -76 -12q-64 -3 -168 -1q-3 -76 22 -132q27 -61 102 -61q83 0 123 100zM496 419h-1q-29 0 -48 -51.5t-21 -134.5q15 -3 54 -3q40 0 62 6q16 7 16 32q0 151 -62 151z" />
    <glyph glyph-name="ccedilla" unicode="&#xe7;" horiz-adv-x="448" 
d="M269 -13q-4 -6 -12.5 -18.5t-13.5 -20.5q31 -4 53.5 -20.5t22.5 -49.5q0 -39 -27 -60.5t-67 -21.5q-32 0 -58 19l7 15q21 -12 47 -12q38 0 38 34q0 17 -17.5 27.5t-46.5 10.5l-4 10q15 25 59 86q-61 0 -104.5 13.5t-76.5 52.5q-42 52 -42 149q0 104 61 168.5t175 64.5
q69 0 115.5 -27t46.5 -81q0 -32 -22.5 -46.5t-50.5 -14.5q-18 0 -31 9q-13 8 -10 23q6 34 6 45q0 78 -56 78q-40 0 -62 -54t-22 -146q0 -74 18 -122q29 -76 101 -76q84 0 120 106l14 -6q-33 -126 -161 -135z" />
    <glyph glyph-name="egrave" unicode="&#xe8;" horiz-adv-x="455" 
d="M432 122q-41 -136 -190 -136q-118 0 -171 66q-44 53 -44 151q0 101 57 166t164 65q47 0 82.5 -13.5t54.5 -33t30.5 -45t14.5 -44t3 -35.5q0 -30 -15 -38q-30 -11 -138 -12h-106q-3 -70 22 -126q28 -63 99 -63q47 0 76.5 26.5t48.5 78.5zM247 419h-1q-31 0 -50 -52
t-21 -138q19 1 55 1q41 0 59 6q19 5 19 41q0 20 -2 40.5t-8 45.5t-19 40.5t-32 15.5zM266 479l-11 -5q-100 94 -116 109q-24 26 -24 49q0 19 9.5 27t19.5 8q27 0 48 -35q8 -15 37.5 -77t36.5 -76z" />
    <glyph glyph-name="eacute" unicode="&#xe9;" horiz-adv-x="455" 
d="M432 122q-41 -136 -190 -136q-118 0 -171 66q-44 53 -44 151q0 101 57 166t164 65q47 0 82.5 -13.5t54.5 -33t30.5 -45t14.5 -44t3 -35.5q0 -30 -15 -38q-30 -11 -138 -12h-106q-3 -70 22 -126q28 -63 99 -63q47 0 76.5 26.5t48.5 78.5zM247 419h-1q-31 0 -50 -52
t-21 -138q19 1 55 1q41 0 59 6q19 5 19 41q0 20 -2 40.5t-8 45.5t-19 40.5t-32 15.5zM219 476l-11 6q12 19 47 80.5t40 70.5q23 37 53 37q27 0 25 -34q0 -22 -35 -55q-11 -11 -119 -105z" />
    <glyph glyph-name="ecircumflex" unicode="&#xea;" horiz-adv-x="455" 
d="M432 122q-41 -136 -190 -136q-118 0 -171 66q-44 53 -44 151q0 101 57 166t164 65q47 0 82.5 -13.5t54.5 -33t30.5 -45t14.5 -44t3 -35.5q0 -30 -15 -38q-30 -11 -138 -12h-106q-3 -70 22 -126q28 -63 99 -63q47 0 76.5 26.5t48.5 78.5zM247 419h-1q-31 0 -50 -52
t-21 -138q19 1 55 1q41 0 59 6q19 5 19 41q0 20 -2 40.5t-8 45.5t-19 40.5t-32 15.5zM237 669l11 4q31 -91 112 -187l-7 -10q-44 28 -111 95q-69 -69 -110 -95l-8 10q82 96 113 183z" />
    <glyph glyph-name="edieresis" unicode="&#xeb;" horiz-adv-x="455" 
d="M432 122q-41 -136 -190 -136q-118 0 -171 66q-44 53 -44 151q0 101 57 166t164 65q47 0 82.5 -13.5t54.5 -33t30.5 -45t14.5 -44t3 -35.5q0 -30 -15 -38q-30 -11 -138 -12h-106q-3 -70 22 -126q28 -63 99 -63q47 0 76.5 26.5t48.5 78.5zM247 419h-1q-31 0 -50 -52
t-21 -138q19 1 55 1q41 0 59 6q19 5 19 41q0 20 -2 40.5t-8 45.5t-19 40.5t-32 15.5zM151 632h1q26 0 41 -16t15 -42q0 -29 -18.5 -46t-40.5 -17q-23 0 -39.5 14.5t-16.5 43.5q0 28 16 45.5t42 17.5zM328 632h1q26 0 41 -16t15 -41q0 -29 -18 -46.5t-40 -17.5
q-24 0 -40.5 14.5t-16.5 43.5t16.5 46t41.5 17z" />
    <glyph glyph-name="igrave" unicode="&#xec;" horiz-adv-x="280" 
d="M263 9l-1 -13q-10 0 -52 2t-76 2q-38 0 -73 -2t-42 -2v13q31 2 40 8t11 22q3 27 3 122v109q0 88 -3 111q-1 13 -10 16.5t-39 2.5l1 14q109 4 193 19q-3 -36 -3 -159v-117q0 -83 3 -117q1 -18 9.5 -23t38.5 -8zM165 479l-11 -5q-100 94 -116 109q-24 26 -24 49
q0 19 9.5 27t19.5 8q27 0 48 -35q8 -15 37.5 -77t36.5 -76z" />
    <glyph glyph-name="iacute" unicode="&#xed;" horiz-adv-x="280" 
d="M263 9l-1 -13q-10 0 -52 2t-76 2q-38 0 -73 -2t-42 -2v13q31 2 40 8t11 22q3 27 3 122v109q0 88 -3 111q-1 13 -10 16.5t-39 2.5l1 14q109 4 193 19q-3 -36 -3 -159v-117q0 -83 3 -117q1 -18 9.5 -23t38.5 -8zM129 476l-11 6q12 19 47 80.5t40 70.5q23 37 53 37
q27 0 25 -34q0 -22 -35 -55q-11 -11 -119 -105z" />
    <glyph glyph-name="icircumflex" unicode="&#xee;" horiz-adv-x="280" 
d="M263 9l-1 -13q-10 0 -52 2t-76 2q-38 0 -73 -2t-42 -2v13q31 2 40 8t11 22q3 27 3 122v109q0 88 -3 111q-1 13 -10 16.5t-39 2.5l1 14q109 4 193 19q-3 -36 -3 -159v-117q0 -83 3 -117q1 -18 9.5 -23t38.5 -8zM135 669l11 4q31 -91 112 -187l-7 -10q-44 28 -111 95
q-69 -69 -110 -95l-8 10q82 96 113 183z" />
    <glyph glyph-name="idieresis" unicode="&#xef;" horiz-adv-x="280" 
d="M263 9l-1 -13q-10 0 -52 2t-76 2q-38 0 -73 -2t-42 -2v13q31 2 40 8t11 22q3 27 3 122v109q0 88 -3 111q-1 13 -10 16.5t-39 2.5l1 14q109 4 193 19q-3 -36 -3 -159v-117q0 -83 3 -117q1 -18 9.5 -23t38.5 -8zM52 632h1q26 0 41 -16t15 -42q0 -29 -18.5 -46t-40.5 -17
q-23 0 -39.5 14.5t-16.5 43.5q0 28 16 45.5t42 17.5zM229 632h1q26 0 41 -16t15 -41q0 -29 -18 -46.5t-40 -17.5q-24 0 -40.5 14.5t-16.5 43.5t16.5 46t41.5 17z" />
    <glyph glyph-name="eth" unicode="&#xf0;" horiz-adv-x="519" 
d="M92 670l4 15q128 3 234 -73q22 13 110 62l10 -24q-12 -6 -46.5 -23.5t-55.5 -28.5q68 -57 103.5 -143.5t35.5 -181.5q0 -132 -62 -209.5t-180 -77.5q-98 0 -158 58t-60 158q0 102 63 167t165 65q46 0 80 -22q-7 88 -53 151q-79 -43 -132 -75l-12 24q60 28 131 68
q-34 41 -82 65.5t-95 24.5zM257 419h-1q-32 0 -49 -30q-28 -45 -28 -178q0 -93 18 -152q21 -58 66 -58q42 0 62 49q22 56 20 217q0 60 -9 105q-26 47 -79 47z" />
    <glyph glyph-name="ntilde" unicode="&#xf1;" horiz-adv-x="554" 
d="M20 -4v13q33 2 41 6.5t9 23.5q4 43 4 115v109q0 97 -3 122q-1 11 -9 14.5t-37 4.5v12q89 0 182 14q6 -43 7 -67q24 21 40 33.5t47.5 25t63.5 12.5q79 0 108 -52q15 -26 15 -55v-289q0 -16 8.5 -20.5t42.5 -8.5v-13q-14 0 -55 2t-64 2q-34 0 -75 -2t-42 -2v13q26 1 33.5 7
t8.5 21q4 40 4 149q1 109 -0.5 137t-7.5 39q-14 26 -45 26q-46 0 -72 -42q-11 -18 -11 -44v-153q0 -85 2 -114q2 -14 10 -19t37 -7l-1 -13q-9 0 -53 2t-69 2q-31 0 -71 -2t-48 -2zM171 502l-14 4q15 105 75 105q18 0 62 -29q40 -27 54 -27q27 0 33 59l14 -5
q-14 -108 -73 -108q-21 0 -66 32q-34 24 -50 24q-27 0 -35 -55z" />
    <glyph glyph-name="ograve" unicode="&#xf2;" horiz-adv-x="524" 
d="M266 434h1q107 0 168.5 -58t61.5 -162q0 -109 -64.5 -168.5t-172.5 -59.5q-113 0 -173 59.5t-60 160.5q0 105 63 166.5t176 61.5zM261 419h-1q-36 0 -58 -42q-23 -46 -23 -155q0 -111 25 -174q21 -47 66 -47q42 0 59 45q19 55 19 157q0 112 -24 169q-20 47 -63 47z
M287 479l-11 -5q-100 94 -116 109q-24 26 -24 49q0 19 9.5 27t19.5 8q27 0 48 -35q8 -15 37.5 -77t36.5 -76z" />
    <glyph glyph-name="oacute" unicode="&#xf3;" horiz-adv-x="524" 
d="M266 434h1q107 0 168.5 -58t61.5 -162q0 -109 -64.5 -168.5t-172.5 -59.5q-113 0 -173 59.5t-60 160.5q0 105 63 166.5t176 61.5zM261 419h-1q-36 0 -58 -42q-23 -46 -23 -155q0 -111 25 -174q21 -47 66 -47q42 0 59 45q19 55 19 157q0 112 -24 169q-20 47 -63 47z
M242 476l-11 6q12 19 47 80.5t40 70.5q23 37 53 37q27 0 25 -34q0 -22 -35 -55q-11 -11 -119 -105z" />
    <glyph glyph-name="ocircumflex" unicode="&#xf4;" horiz-adv-x="524" 
d="M266 434h1q107 0 168.5 -58t61.5 -162q0 -109 -64.5 -168.5t-172.5 -59.5q-113 0 -173 59.5t-60 160.5q0 105 63 166.5t176 61.5zM261 419h-1q-36 0 -58 -42q-23 -46 -23 -155q0 -111 25 -174q21 -47 66 -47q42 0 59 45q19 55 19 157q0 112 -24 169q-20 47 -63 47z
M265 669l11 4q31 -91 112 -187l-7 -10q-44 28 -111 95q-69 -69 -110 -95l-8 10q82 96 113 183z" />
    <glyph glyph-name="otilde" unicode="&#xf5;" horiz-adv-x="524" 
d="M266 434h1q107 0 168.5 -58t61.5 -162q0 -109 -64.5 -168.5t-172.5 -59.5q-113 0 -173 59.5t-60 160.5q0 105 63 166.5t176 61.5zM261 419h-1q-36 0 -58 -42q-23 -46 -23 -155q0 -111 25 -174q21 -47 66 -47q42 0 59 45q19 55 19 157q0 112 -24 169q-20 47 -63 47z
M154 502l-14 4q15 105 75 105q19 0 62 -29q40 -27 54 -27q27 0 33 59l14 -5q-14 -108 -73 -108q-21 0 -66 32q-34 24 -50 24q-27 0 -35 -55z" />
    <glyph glyph-name="odieresis" unicode="&#xf6;" horiz-adv-x="524" 
d="M266 434h1q107 0 168.5 -58t61.5 -162q0 -109 -64.5 -168.5t-172.5 -59.5q-113 0 -173 59.5t-60 160.5q0 105 63 166.5t176 61.5zM261 419h-1q-36 0 -58 -42q-23 -46 -23 -155q0 -111 25 -174q21 -47 66 -47q42 0 59 45q19 55 19 157q0 112 -24 169q-20 47 -63 47z
M171 632h1q26 0 41 -16t15 -42q0 -29 -18.5 -46t-40.5 -17q-23 0 -39.5 14.5t-16.5 43.5q0 28 16 45.5t42 17.5zM348 632h1q26 0 41 -16t15 -41q0 -29 -18 -46.5t-40 -17.5q-24 0 -40.5 14.5t-16.5 43.5t16.5 46t41.5 17z" />
    <glyph glyph-name="divide" unicode="&#xf7;" horiz-adv-x="443" 
d="M222 129h1q15 0 25.5 -11t10.5 -26q0 -14 -10.5 -25t-26.5 -11q-14 0 -25.5 11t-11.5 25q0 15 11.5 26t25.5 11zM222 304h-1q-14 0 -25 11t-11 26q0 14 11.5 25t25.5 11q16 0 26.5 -10.5t10.5 -25.5q0 -16 -10.5 -26.5t-26.5 -10.5zM42 238h359v-42h-359v42z" />
    <glyph glyph-name="oslash" unicode="&#xf8;" horiz-adv-x="525" 
d="M423 451l27 -8l-38 -48q86 -59 86 -180q0 -102 -67.5 -165.5t-174.5 -63.5q-76 0 -126 28l-32 -44l-27 9l39 48q-40 27 -61.5 74t-21.5 100q0 104 66 168.5t176 64.5q74 0 122 -27zM179 208v-1q0 -53 9 -88q83 121 147 223q-22 77 -69 77q-36 1 -60 -42q-27 -50 -27 -169
zM349 216v1q0 43 -8 94q-131 -200 -148 -226q6 -18 9 -26t12 -25t21.5 -25t28.5 -8q44 0 62 42q23 55 23 173z" />
    <glyph glyph-name="ugrave" unicode="&#xf9;" horiz-adv-x="546" 
d="M287 405l-1 14q75 0 124 4q16 1 32.5 2t26.5 2t15 1q-4 -46 -4 -134v-126q0 -89 4 -125q2 -18 11 -22.5t44 -3.5l-1 -14q-14 0 -29.5 -1t-37.5 -3t-39 -3q-60 -6 -90 -10q-2 54 -2 83q-78 -83 -165 -83q-44 0 -69 16t-33 35q-9 23 -9 55q1 40 2 116.5t1 108.5q1 27 -2 70
q-1 13 -9.5 16t-39.5 3v14q46 0 114 4q60 3 84 7q-11 -44 -11 -201q0 -135 5 -165q5 -35 36 -35q61 0 89 72q8 22 8 54v139q0 68 -3 91q-1 11 -11.5 14.5t-39.5 4.5zM298 479l-11 -5q-100 94 -116 109q-24 26 -24 49q0 19 9.5 27t19.5 8q27 0 48 -35q8 -15 37.5 -77
t36.5 -76z" />
    <glyph glyph-name="uacute" unicode="&#xfa;" horiz-adv-x="546" 
d="M287 405l-1 14q75 0 124 4q16 1 32.5 2t26.5 2t15 1q-4 -46 -4 -134v-126q0 -89 4 -125q2 -18 11 -22.5t44 -3.5l-1 -14q-14 0 -29.5 -1t-37.5 -3t-39 -3q-60 -6 -90 -10q-2 54 -2 83q-78 -83 -165 -83q-44 0 -69 16t-33 35q-9 23 -9 55q1 40 2 116.5t1 108.5q1 27 -2 70
q-1 13 -9.5 16t-39.5 3v14q46 0 114 4q60 3 84 7q-11 -44 -11 -201q0 -135 5 -165q5 -35 36 -35q61 0 89 72q8 22 8 54v139q0 68 -3 91q-1 11 -11.5 14.5t-39.5 4.5zM249 476l-11 6q12 19 47 80.5t40 70.5q23 37 53 37q27 0 25 -34q0 -22 -35 -55q-11 -11 -119 -105z" />
    <glyph glyph-name="ucircumflex" unicode="&#xfb;" horiz-adv-x="546" 
d="M287 405l-1 14q75 0 124 4q16 1 32.5 2t26.5 2t15 1q-4 -46 -4 -134v-126q0 -89 4 -125q2 -18 11 -22.5t44 -3.5l-1 -14q-14 0 -29.5 -1t-37.5 -3t-39 -3q-60 -6 -90 -10q-2 54 -2 83q-78 -83 -165 -83q-44 0 -69 16t-33 35q-9 23 -9 55q1 40 2 116.5t1 108.5q1 27 -2 70
q-1 13 -9.5 16t-39.5 3v14q46 0 114 4q60 3 84 7q-11 -44 -11 -201q0 -135 5 -165q5 -35 36 -35q61 0 89 72q8 22 8 54v139q0 68 -3 91q-1 11 -11.5 14.5t-39.5 4.5zM267 669l11 4q31 -91 112 -187l-7 -10q-44 28 -111 95q-69 -69 -110 -95l-8 10q82 96 113 183z" />
    <glyph glyph-name="udieresis" unicode="&#xfc;" horiz-adv-x="546" 
d="M287 405l-1 14q75 0 124 4q16 1 32.5 2t26.5 2t15 1q-4 -46 -4 -134v-126q0 -89 4 -125q2 -18 11 -22.5t44 -3.5l-1 -14q-14 0 -29.5 -1t-37.5 -3t-39 -3q-60 -6 -90 -10q-2 54 -2 83q-78 -83 -165 -83q-44 0 -69 16t-33 35q-9 23 -9 55q1 40 2 116.5t1 108.5q1 27 -2 70
q-1 13 -9.5 16t-39.5 3v14q46 0 114 4q60 3 84 7q-11 -44 -11 -201q0 -135 5 -165q5 -35 36 -35q61 0 89 72q8 22 8 54v139q0 68 -3 91q-1 11 -11.5 14.5t-39.5 4.5zM185 632h1q26 0 41 -16t15 -42q0 -29 -18.5 -46t-40.5 -17q-23 0 -39.5 14.5t-16.5 43.5q0 28 16 45.5
t42 17.5zM362 632h1q26 0 41 -16t15 -41q0 -29 -18 -46.5t-40 -17.5q-24 0 -40.5 14.5t-16.5 43.5t16.5 46t41.5 17z" />
    <glyph glyph-name="yacute" unicode="&#xfd;" horiz-adv-x="437" 
d="M-14 410v13q56 -3 117 -3q57 0 129 3l3 -13l-27 -4q-13 -1 -15.5 -5.5t1.5 -16.5q10 -29 31.5 -82.5t43.5 -105t26 -62.5q40 110 73 230q6 22 0 30t-30 12l-35 4l1 13q9 0 36.5 -1.5t42.5 -1.5q13 0 43 1.5t42 1.5l-1 -13q-33 -2 -45 -11t-29 -48q-73 -185 -163 -447
q-27 -80 -53 -114.5t-68 -34.5q-29 0 -47 18t-18 47q0 28 16.5 43.5t38.5 15.5q25 0 34 -22q6 -16 11.5 -22t16.5 -6q28 0 70 140q-22 13 -34 47q-118 288 -155 358q-9 18 -15.5 24.5t-18.5 8.5zM233 476l-11 6q12 19 47 80.5t40 70.5q23 37 53 37q27 0 25 -34
q0 -22 -35 -55q-11 -11 -119 -105z" />
    <glyph glyph-name="thorn" unicode="&#xfe;" horiz-adv-x="539" 
d="M-15 -235l4 14q39 5 50 10t12 20q7 84 7 232v449q0 84 -3 141q-1 15 -10 19t-44 4l5 13q26 0 98.5 5.5t95.5 12.5q-2 -17 -2 -318q84 67 159 67t115 -55q40 -56 40 -146q0 -124 -59.5 -185.5t-161.5 -61.5q-61 0 -95 26q0 -162 2 -197q2 -19 13 -25.5t54 -8.5l-5 -12
q-4 0 -23.5 0.5t-49 1t-61.5 0.5q-81 -1 -141 -6zM273 2h1q28 0 47 23t27 61.5t11 70t3 64.5q0 96 -25 138q-21 33 -57 33q-49 0 -73 -53q-9 -18 -9 -42q-2 -59 -2 -216q0 -26 11 -43q27 -36 66 -36z" />
    <glyph glyph-name="ydieresis" unicode="&#xff;" horiz-adv-x="437" 
d="M-14 410v13q56 -3 117 -3q57 0 129 3l3 -13l-27 -4q-13 -1 -15.5 -5.5t1.5 -16.5q10 -29 31.5 -82.5t43.5 -105t26 -62.5q40 110 73 230q6 22 0 30t-30 12l-35 4l1 13q9 0 36.5 -1.5t42.5 -1.5q13 0 43 1.5t42 1.5l-1 -13q-33 -2 -45 -11t-29 -48q-73 -185 -163 -447
q-27 -80 -53 -114.5t-68 -34.5q-29 0 -47 18t-18 47q0 28 16.5 43.5t38.5 15.5q25 0 34 -22q6 -16 11.5 -22t16.5 -6q28 0 70 140q-22 13 -34 47q-118 288 -155 358q-9 18 -15.5 24.5t-18.5 8.5zM156 632h1q26 0 41 -16t15 -42q0 -29 -18.5 -46t-40.5 -17q-23 0 -39.5 14.5
t-16.5 43.5q0 28 16 45.5t42 17.5zM333 632h1q26 0 41 -16t15 -41q0 -29 -18 -46.5t-40 -17.5q-24 0 -40.5 14.5t-16.5 43.5t16.5 46t41.5 17z" />
    <glyph glyph-name="dotlessi" unicode="&#x131;" horiz-adv-x="280" 
d="M263 9l-1 -13q-10 0 -52 2t-76 2q-38 0 -73 -2t-42 -2v13q31 2 40 8t11 22q3 27 3 122v109q0 88 -3 111q-1 13 -10 16.5t-39 2.5l1 14q109 4 193 19q-3 -36 -3 -159v-117q0 -83 3 -117q1 -18 9.5 -23t38.5 -8z" />
    <glyph glyph-name="Lslash" unicode="&#x141;" horiz-adv-x="541" 
d="M43 629l1 13q9 0 61.5 -2t80.5 -2q29 0 75.5 2t66.5 2l3 -13l-46 -4q-15 -1 -20.5 -6.5t-6.5 -19.5q-4 -140 -4 -167v-67q73 48 94 63l18 -16q-1 -1 -45 -28t-67 -43v-88q0 -191 3 -218q1 -18 37 -18q66 0 98.5 7.5t54.5 30.5q44 48 68 136l12 -3q-4 -25 -11.5 -99
t-9.5 -94q-11 1 -123 5q-59 1 -205 1q-25 0 -85.5 -2t-67.5 -2v12l43 4q16 1 22.5 6.5t8.5 18.5q5 42 5 156v70q-51 -31 -62 -39l-19 15q5 3 35.5 20.5t45.5 27.5v149q0 123 -2 167q-1 12 -6.5 16t-18.5 6z" />
    <glyph glyph-name="lslash" unicode="&#x142;" horiz-adv-x="283" 
d="M26 661l1 13q61 1 195 14q-5 -75 -5 -213v-57q8 4 28 16t24 14l16 -16q-2 -1 -68 -38v-182q0 -143 1 -169q1 -21 9.5 -27t42.5 -7v-13q-12 0 -57 2t-72 2q-31 0 -72.5 -2t-49.5 -2v13q32 1 41.5 7t11.5 27q6 75 6 198v87q-5 -3 -23 -13.5t-26 -15.5l-13 18q6 3 29.5 16
t32.5 19v133q0 129 -1 148q-2 19 -10 23.5t-41 4.5z" />
    <glyph glyph-name="OE" unicode="&#x152;" horiz-adv-x="996" 
d="M209 311v-1q0 -156 48 -231q41 -67 118 -67q42 0 70.5 15t50.5 52q15 24 22 73t7 168q0 173 -12 204q-16 46 -51.5 79.5t-91.5 33.5q-36 0 -59 -12t-42 -41q-60 -92 -60 -273zM609 638h172q41 0 89 2q40 3 52 8q-4 -29 -4 -184h-13q-9 62 -29 103q-17 34 -48.5 44
t-104.5 10h-28q-18 0 -19 -16q-7 -56 -7 -166v-95q12 -1 55 -1q54 0 79 21.5t33 73.5h12q-13 -127 -4 -226l-12 1q-10 60 -31.5 86t-79.5 26q-40 0 -52 -2v-78q0 -150 3 -204q2 -15 13 -19.5t52 -4.5q60 0 92.5 6t57.5 27q45 37 74 138l12 -4q-3 -49 -27 -190q-14 2 -82 4
q-72 2 -140 2h-96q-103 0 -114 -2q0 30 1 67q-64 -81 -185 -81q-105 0 -168 38q-128 81 -128 285q0 97 35 176.5t99 122.5q72 48 176 48q118 0 177 -71q0 43 -1 57q50 -2 89 -2z" />
    <glyph glyph-name="oe" unicode="&#x153;" horiz-adv-x="768" 
d="M270 419h-1q-39 1 -62 -41q-27 -50 -27 -170q0 -103 21 -160q16 -47 59 -47q48 0 67 44q21 55 21 179q0 104 -17 152q-15 43 -61 43zM746 117q-38 -131 -186 -131q-109 0 -151 69q-53 -69 -160 -69t-164.5 58t-57.5 157q0 101 64.5 167t169.5 66q111 0 161 -72
q56 72 151 72q45 0 79 -13.5t51.5 -32t28 -43.5t13 -43t2.5 -35q0 -31 -16 -40q-14 -8 -81 -12q-43 -2 -162 -2q-3 -70 22 -132q25 -60 100 -60q85 0 124 101zM559 419h-1q-31 0 -49 -49.5t-20 -136.5q16 -3 54 -3q42 0 61 7q17 9 17 41q0 141 -62 141z" />
    <glyph glyph-name="Scaron" unicode="&#x160;" horiz-adv-x="487" 
d="M43 202l12 5q-2 -81 43.5 -143.5t127.5 -62.5q51 0 80 29t29 82q0 57 -47 87q-10 7 -151 94q-95 56 -95 160q0 95 57 148.5t154 53.5q41 0 78.5 -11.5t56.5 -30.5l22 48l9 -3q-17 -102 -14 -199l-12 -4q-5 80 -44 132t-96 52q-48 0 -75 -30t-27 -80q0 -62 52 -93
q32 -23 160 -96q48 -25 70 -60.5t22 -90.5q0 -100 -69.5 -153t-180.5 -53q-40 0 -89 10.5t-79 23.5q6 64 6 185zM250 693l-8 -3q-41 66 -130 122l5 9q91 -30 129 -51q61 30 128 51l6 -9q-81 -51 -130 -119z" />
    <glyph glyph-name="scaron" unicode="&#x161;" horiz-adv-x="386" 
d="M325 285l-12 -5q-1 51 -33 94.5t-83 43.5q-35 0 -54 -18t-19 -45q0 -32 30 -49q17 -9 73 -31.5t71 -30.5q63 -32 63 -101q0 -80 -52 -118t-132 -38q-70 0 -139 26q2 60 -2 152l11 3q9 -54 27 -88q17 -35 48.5 -55.5t67.5 -20.5q77 0 77 65q0 32 -33 48q-53 26 -108 49
q-86 36 -86 120q0 69 47 108.5t117 39.5q30 0 61 -8.5t44 -21.5l15 39l9 -6q-10 -74 -8 -152zM202 480l-11 -4q-33 93 -112 188l7 9q49 -31 111 -95q66 66 110 95l8 -9q-80 -95 -113 -184z" />
    <glyph glyph-name="Ydieresis" unicode="&#x178;" horiz-adv-x="542" 
d="M437 9l4 -13q-22 0 -83 2t-87 2q-43 0 -93.5 -2t-67.5 -2l-4 13q13 1 33 3.5t25 3.5q18 2 26.5 10t10.5 26q2 26 5 216q0 22 -9 41q-16 41 -62 131t-80 142q-21 30 -34 38t-48 9l-1 13q9 0 63.5 -2t82.5 -2q41 0 92 2t61 2l2 -13l-41 -4q-22 -2 -11 -28q5 -12 127 -268
q81 174 112 257q6 23 3 29t-16 8q-9 1 -30 3t-25 3l2 13q8 0 41 -2t56 -2q21 0 50 2t45 2l3 -13q-42 -2 -59 -10.5t-34 -36.5q-26 -44 -130 -257q-10 -21 -10 -50q-3 -168 5 -237q1 -19 20 -22q5 0 56 -7zM210 800h1q23 0 37 -14.5t14 -36.5q0 -25 -16.5 -40.5t-36.5 -15.5
t-35 12.5t-15 38.5q0 25 14 40.5t37 15.5zM395 800h1q23 0 37 -14.5t14 -36.5q0 -25 -16.5 -40.5t-37.5 -15.5q-20 0 -34.5 12.5t-14.5 38.5q0 25 14 40.5t37 15.5z" />
    <glyph glyph-name="Zcaron" unicode="&#x17d;" horiz-adv-x="600" 
d="M259 638h73q88 0 121 1q30 0 102 4q-9 -35 -30 -73q-89 -155 -142 -249q-37 -69 -90 -164t-76 -140q121 0 175.5 4.5t74.5 13t39 31.5q34 41 61 142l10 -5q-1 -10 -7 -54t-10.5 -84t-5.5 -72q-48 5 -112 5q-44 2 -129 2h-184q-65 0 -99 -3l-4 12q25 43 102 173.5
t145 247.5t108 191h-87q-97 0 -133 -13.5t-54 -47.5q-20 -37 -40 -120l-12 6q15 101 11 201q34 -7 70 -8q25 -1 123 -1zM310 691l-8 -3q-41 66 -130 122l5 9q91 -30 129 -51q61 30 128 51l6 -9q-81 -51 -130 -119z" />
    <glyph glyph-name="zcaron" unicode="&#x17e;" horiz-adv-x="439" 
d="M53 272l-13 1q9 69 11 160q18 -8 44 -11q36 -2 64 -2h94q51 0 155 2q-5 -24 -21 -50q-98 -191 -190 -357q77 0 119 8q38 5 58 33t38 102l11 -9q-18 -108 -17 -154q-110 5 -267 5q-16 0 -40 -0.5t-32 -0.5q-36 -2 -38 -2l-6 10q45 66 124.5 211.5t95.5 185.5
q-52 2 -102 -5q-27 -4 -39.5 -12t-22.5 -30q-12 -27 -26 -85zM237 480l-11 -4q-33 93 -112 188l7 9q49 -31 111 -95q66 66 110 95l8 -9q-80 -95 -113 -184z" />
    <glyph glyph-name="longs" unicode="&#x17f;" horiz-adv-x="275" 
d="M16 403l2 15h57v48q0 107 56 163q54 56 129 56q57 0 83 -22t26 -54q0 -21 -16.5 -37t-46.5 -16q-29 0 -29 30q2 82 -32 82q-29 0 -32 -54v-203v-178q0 -147 2 -188q3 -30 20 -32q22 -4 36 -4l-3 -13q-10 0 -51 2t-71 2q-3 0 -131 -4l2 13q33 1 42.5 6t10.5 19q4 58 4 143
v220z" />
    <glyph glyph-name="florin" unicode="&#x192;" horiz-adv-x="500" 
d="M36 325l11 27q57 -3 83 -3q13 93 33 142.5t48 79.5q66 71 158 71q42 0 69.5 -20t27.5 -52q0 -29 -16.5 -42.5t-42.5 -13.5q-11 0 -22.5 6.5t-9.5 17.5q3 16 3 36q0 51 -30 51q-25 0 -38 -54q-12 -54 -32 -222q68 0 122 3l-9 -28q-78 3 -116 3q-20 -167 -40 -269
q-14 -84 -44 -133t-80 -80q-53 -34 -123 -34q-36 0 -60 17t-24 42q0 24 16 40t41 16q26 0 32 -28q15 -62 44 -62q17 0 24.5 15t14.5 57q10 73 28.5 226.5t23.5 192.5q-8 0 -92 -2z" />
    <glyph glyph-name="circumflex" unicode="&#x2c6;" horiz-adv-x="456" 
d="M223 669l11 4q31 -91 112 -187l-7 -10q-44 28 -111 95q-69 -69 -110 -95l-8 10q82 96 113 183z" />
    <glyph glyph-name="caron" unicode="&#x2c7;" horiz-adv-x="456" 
d="M233 480l-11 -4q-33 93 -112 188l7 9q49 -31 111 -95q66 66 110 95l8 -9q-80 -95 -113 -184z" />
    <glyph glyph-name="uni02C9" unicode="&#x2c9;" horiz-adv-x="456" 
d="M118 523l10 57h211l-8 -57h-213z" />
    <glyph glyph-name="breve" unicode="&#x2d8;" horiz-adv-x="456" 
d="M130 633h13q6 -46 31 -62q18 -14 54 -14t55 14q25 20 30 62h13q0 -66 -20 -104.5t-78 -38.5q-61 0 -80 37.5t-18 105.5z" />
    <glyph glyph-name="dotaccent" unicode="&#x2d9;" horiz-adv-x="342" 
d="M171 638h1q27 0 43.5 -18t16.5 -45q0 -31 -19.5 -48.5t-43.5 -17.5t-41.5 16t-17.5 47q0 28 17.5 47t43.5 19z" />
    <glyph glyph-name="ring" unicode="&#x2da;" horiz-adv-x="382" 
d="M195 649h1q37 0 59.5 -20t22.5 -58t-25 -60.5t-63 -22.5q-39 0 -62.5 20t-23.5 57q0 40 25.5 62t65.5 22zM192 634h-1q-35 0 -35 -64q0 -66 35 -66t35 68q0 62 -34 62z" />
    <glyph glyph-name="ogonek" unicode="&#x2db;" horiz-adv-x="456" 
d="M270 9h15q-85 -61 -85 -138q0 -23 13.5 -37.5t35.5 -14.5q35 0 59 27l7 -10q-48 -70 -119 -70q-31 0 -51 18.5t-20 52.5q0 48 44.5 94.5t100.5 77.5z" />
    <glyph glyph-name="tilde" unicode="&#x2dc;" horiz-adv-x="456" 
d="M122 502l-14 4q15 105 75 105q19 0 62 -29q40 -27 54 -27q27 0 33 59l14 -5q-14 -108 -73 -108q-21 0 -66 32q-34 24 -50 24q-27 0 -35 -55z" />
    <glyph glyph-name="hungarumlaut" unicode="&#x2dd;" horiz-adv-x="456" 
d="M155 477l-11 6q6 18 20.5 68.5t18.5 62.5q14 43 45 43q12 0 18.5 -9t6.5 -22q0 -19 -21 -48q-18 -26 -77 -101zM289 477l-12 5q25 85 39 130q14 44 46 44q24 0 24 -30q0 -22 -20 -50q-5 -7 -15.5 -20.5t-28.5 -36.5t-33 -42z" />
    <glyph glyph-name="pi" unicode="&#x3c0;" horiz-adv-x="468" 
d="M236 378h-107q-1 -164 -1 -250q0 -84 -17.5 -113t-50.5 -29q-46 0 -46 48q0 13 4.5 20.5t12.5 6.5q18 -3 24 -2q23 1 36 18t14 65q4 126 -1 236q-25 0 -44 -1.5t-27 -3.5t-21 -5.5t-16 -4.5q-5 8 -5 10q24 17 33.5 23t36.5 15t57 9h209q85 0 130 7l-7 -52q-6 0 -33.5 1.5
t-40.5 1.5v-315q0 -41 18 -41q13 0 27.5 15.5t21.5 51.5l14 -16q-32 -86 -137 -86q-48 0 -66.5 23t-18.5 71z" />
    <glyph glyph-name="uni2010" unicode="&#x2010;" horiz-adv-x="303" 
d="M33 196l11 56q112 -3 226 0l-10 -56q-116 3 -227 0z" />
    <glyph glyph-name="figuredash" unicode="&#x2012;" horiz-adv-x="303" 
d="M33 287l11 56q112 -3 226 0l-10 -56q-116 3 -227 0z" />
    <glyph glyph-name="endash" unicode="&#x2013;" horiz-adv-x="531" 
d="M48 199l11 49q210 -2 425 0l-11 -49q-206 2 -425 0z" />
    <glyph glyph-name="emdash" unicode="&#x2014;" horiz-adv-x="917" 
d="M48 199l11 49q93 -1 403.5 -1t408.5 1l-11 -49q-94 1 -404 1t-408 -1z" />
    <glyph glyph-name="quoteleft" unicode="&#x2018;" horiz-adv-x="206" 
d="M176 705l5 -13q-52 -5 -85 -33.5t-33 -74.5q0 -13 8 -5q16 14 44 14q25 0 42 -16.5t17 -45.5q0 -25 -20.5 -43t-46.5 -18q-39 0 -59.5 26.5t-20.5 68.5q0 65 46 100.5t103 39.5z" />
    <glyph glyph-name="quoteright" unicode="&#x2019;" horiz-adv-x="206" 
d="M31 466l-5 13q51 6 84.5 34.5t32.5 73.5q0 4 -1 6t-2.5 1.5t-3.5 -2.5q-16 -14 -44 -14q-25 0 -42.5 16.5t-16.5 45.5q0 25 19.5 43t46.5 18q40 0 60.5 -26t20.5 -69q0 -65 -46 -100.5t-103 -39.5z" />
    <glyph glyph-name="quotesinglbase" unicode="&#x201a;" horiz-adv-x="220" 
d="M30 -108l-5 14q56 6 92 37t36 80q0 12 -9 5q-13 -13 -45 -13q-29 0 -48.5 17.5t-18.5 48.5q0 27 22 47t51 20q43 0 65.5 -29.5t22.5 -75.5q0 -71 -50.5 -109.5t-112.5 -41.5z" />
    <glyph glyph-name="quotedblleft" unicode="&#x201c;" horiz-adv-x="389" 
d="M358 705l5 -13q-51 -6 -84.5 -34.5t-32.5 -73.5q0 -13 8 -5q14 14 43 14q25 0 42.5 -16.5t16.5 -45.5q0 -25 -19.5 -43t-46.5 -18q-39 0 -60 26.5t-21 68.5q0 65 46 100.5t103 39.5zM176 705l5 -13q-52 -6 -85.5 -34.5t-32.5 -73.5q0 -13 8 -5q16 14 44 14q25 0 42 -16.5
t17 -45.5q0 -25 -20.5 -43t-46.5 -18q-39 0 -59.5 26.5t-20.5 68.5q0 65 46 100.5t103 39.5z" />
    <glyph glyph-name="quotedblright" unicode="&#x201d;" horiz-adv-x="389" 
d="M31 466l-5 13q51 5 84 33.5t33 74.5q0 4 -1 6t-2.5 1.5t-3.5 -2.5q-16 -14 -44 -14q-25 0 -42.5 16.5t-16.5 45.5q0 25 19.5 43t46.5 18q40 0 60.5 -26t20.5 -69q0 -65 -46 -100.5t-103 -39.5zM213 466l-5 13q51 6 84.5 34.5t32.5 73.5q0 13 -8 5q-14 -14 -43 -14
q-25 0 -42.5 16.5t-17.5 45.5q0 25 20.5 43t46.5 18q40 0 60.5 -26t20.5 -69q0 -65 -46 -100.5t-103 -39.5z" />
    <glyph glyph-name="quotedblbase" unicode="&#x201e;" horiz-adv-x="422" 
d="M30 -108l-5 14q56 6 92 37t36 80q0 12 -9 5q-13 -13 -45 -13q-29 0 -48.5 17.5t-18.5 48.5q0 27 22 47t51 20q43 0 65.5 -29.5t22.5 -75.5q0 -71 -50.5 -109.5t-112.5 -41.5zM230 -108l-5 14q56 6 92.5 37.5t36.5 79.5q0 5 -3 6.5t-5 -1.5q-14 -13 -46 -13
q-28 0 -48 17.5t-19 48.5q0 26 22 46.5t50 20.5q43 0 66 -29.5t23 -75.5q0 -71 -50.5 -109.5t-113.5 -41.5z" />
    <glyph glyph-name="dagger" unicode="&#x2020;" horiz-adv-x="456" 
d="M230 574q21 -31 52 -48q9 -4 2 -11q-49 -57 -52 -153q35 1 70 16.5t50 37.5q6 10 12 -1q3 -9 17 -26t27 -26q9 -7 0 -14q-13 -9 -27.5 -25.5t-18.5 -26.5q-1 -4 -5 -4t-6 4q-16 22 -50.5 37t-68.5 16q0 -224 44 -366q1 -9 -3 -10q-21 -8 -45 -27q-2 -2 -7 0
q-30 22 -44 27q-4 3 -3 10q43 152 43 366q-34 -1 -68 -16t-51 -37q-2 -4 -6 -4t-6 4q-4 10 -18 26.5t-26 25.5q-10 7 0 14q31 24 44 52q4 11 12 1q16 -22 50 -37.5t69 -16.5q-1 50 -17 91t-35 62q-7 7 2 11q22 10 53 47q5 4 10 1z" />
    <glyph glyph-name="daggerdbl" unicode="&#x2021;" horiz-adv-x="456" 
d="M228 574q29 -34 52 -43q6 -3 2 -11q-19 -21 -34.5 -57t-16.5 -76q34 1 68.5 16t49.5 34q3 3 6.5 3t4.5 -4q6 -19 44 -48q10 -6 -1 -14q-36 -28 -43 -48q-4 -9 -12 -1q-16 20 -50 34.5t-67 15.5q0 -65 45 -106q-41 -45 -45 -101q34 1 68.5 16t49.5 36q3 4 6.5 4t4.5 -4
q3 -9 17 -25.5t27 -26.5q11 -5 -1 -14q-33 -23 -43 -47q-2 -4 -5.5 -4.5t-6.5 3.5q-16 20 -50 34.5t-67 15.5q1 -49 17 -92t34 -65q6 -7 -3 -11q-16 -7 -51 -42q-4 -4 -10 0q-34 34 -50 41q-8 6 -3 12q48 65 51 157q-34 -1 -68 -15.5t-51 -34.5q-2 -4 -5.5 -3.5t-4.5 4.5
q-13 25 -45 47q-9 8 -1 14q13 9 27 26t17 26q2 4 5.5 4t5.5 -4q16 -21 50.5 -36t69.5 -16q-4 53 -46 101q46 41 46 106q-34 -1 -68 -15.5t-51 -34.5q-1 -3 -5.5 -3t-5.5 4q-4 9 -17.5 24t-27.5 24q-9 7 0 14q37 27 44 48q1 4 5 4t6 -3q16 -19 51 -34t69 -16q-1 73 -51 133
q-5 8 1 10q28 14 52 44q6 4 10 0z" />
    <glyph glyph-name="bullet" unicode="&#x2022;" horiz-adv-x="303" 
d="M152 329h1q45 0 75.5 -32.5t30.5 -80.5q0 -49 -30.5 -80t-76.5 -31q-45 0 -76.5 31t-31.5 80q0 48 31.5 80.5t76.5 32.5z" />
    <glyph glyph-name="onedotenleader" unicode="&#x2024;" horiz-adv-x="341" 
d="M171 143h1q31 0 53 -23t22 -56t-22 -55.5t-54 -22.5t-54 22.5t-22 55.5q0 34 22 56.5t54 22.5z" />
    <glyph glyph-name="twodotenleader" unicode="&#x2025;" horiz-adv-x="527" 
d="M132 143h1q31 0 53 -23t22 -56t-22 -55.5t-54 -22.5t-54 22.5t-22 55.5q0 34 22 56.5t54 22.5zM396 143h1q32 0 53.5 -22.5t21.5 -56.5q0 -33 -22 -55.5t-54 -22.5t-54 22.5t-22 55.5q0 34 22 56.5t54 22.5z" />
    <glyph glyph-name="ellipsis" unicode="&#x2026;" horiz-adv-x="819" 
d="M137 143h1q31 0 52.5 -22.5t21.5 -56.5q0 -33 -22 -55.5t-53 -22.5q-32 0 -54 22.5t-22 55.5q0 34 22 56.5t54 22.5zM410 143h1q31 0 52.5 -22.5t21.5 -56.5q0 -33 -22 -55.5t-53 -22.5q-32 0 -54 22.5t-22 55.5q0 34 22 56.5t54 22.5zM683 143h1q31 0 52.5 -22.5
t21.5 -56.5q0 -33 -22 -55.5t-53 -22.5q-32 0 -54 22.5t-22 55.5q0 34 22 56.5t54 22.5z" />
    <glyph glyph-name="perthousand" unicode="&#x2030;" horiz-adv-x="937" 
d="M122 0l-17 21q190 273 382 568q-22 -13 -33.5 -19t-37.5 -12.5t-59 -6.5q-48 0 -76 12q14 -35 14 -87q0 -73 -34.5 -119.5t-96.5 -46.5q-63 0 -97.5 39t-34.5 115q0 78 41.5 122.5t106.5 44.5q31 0 60 -16l15 8q38 -53 118 -53q91 0 131 56q3 3 24 31l37 4
q-328 -479 -443 -661zM188 611h-1q-23 0 -36 -19q-24 -36 -25 -123q-2 -87 22 -119q15 -20 42 -20q28 0 50 38t22 113q0 130 -74 130zM494 339h1q63 0 91.5 -44t28.5 -112q0 -71 -33.5 -117t-94.5 -46q-64 0 -99 39.5t-35 111.5q0 79 39 123.5t102 44.5zM513 320h-1
q-30 0 -42 -22q-23 -36 -23 -120q-1 -89 24 -121q12 -18 38 -18q31 0 52 38t21 109q0 52 -17 93t-52 41zM785 339h1q63 0 92 -43.5t29 -112.5q0 -73 -33.5 -118t-94.5 -45q-64 0 -99.5 40.5t-35.5 110.5q0 79 39 123.5t102 44.5zM805 320h-1q-30 0 -43 -22q-21 -36 -22 -120
q-2 -89 24 -121q13 -18 37 -18q32 0 53 38t21 107q0 55 -17 95.5t-52 40.5z" />
    <glyph glyph-name="guilsinglleft" unicode="&#x2039;" horiz-adv-x="290" 
d="M235 397l11 -8q-22 -92 -84 -179q70 -96 84 -175l-9 -7q-31 65 -88.5 114t-104.5 61l4 11q52 16 105 68.5t82 114.5z" />
    <glyph glyph-name="guilsinglright" unicode="&#x203a;" horiz-adv-x="290" 
d="M55 28l-11 8q22 92 84 179q-70 96 -84 175l9 7q31 -65 88.5 -114t104.5 -61l-4 -11q-52 -16 -105 -68.5t-82 -114.5z" />
    <glyph glyph-name="fraction" unicode="&#x2044;" horiz-adv-x="89" 
d="M240 672l17 -17q-267 -405 -421 -651l-17 18q243 365 421 650z" />
    <glyph glyph-name="zero.superior" unicode="&#x2070;" horiz-adv-x="334" 
d="M181 788h1q68 0 104 -45t36 -120q0 -78 -38 -124t-110 -46q-70 0 -105.5 44t-35.5 121q0 75 38.5 122.5t109.5 47.5zM180 775h-1q-20 0 -32 -27q-16 -36 -16 -128q0 -84 14 -123q11 -31 34 -31q19 0 32 30q15 40 15 127q0 89 -15 126q-12 26 -31 26z" />
    <glyph glyph-name="four.superior" unicode="&#x2074;" horiz-adv-x="334" 
d="M171 568q5 81 5 169q-16 -22 -56 -76t-61 -83q42 -10 112 -10zM29 556l-7 15q108 123 157 199q42 4 90 18l4 -2q-3 -65 -3 -170v-47q41 4 62 16l1 -11q-20 -18 -63 -25q0 -42 2 -88q-70 -1 -104 -9l-4 4q3 15 6 89q-95 0 -141 11z" />
    <glyph glyph-name="five.superior" unicode="&#x2075;" horiz-adv-x="334" 
d="M67 589l-11 15q11 29 18 93t6 88q30 -13 104 -13q58 0 83.5 5.5t37.5 27.5l8 -5q-13 -70 -53 -90q-26 -14 -79 -14q-61 0 -91 6q-9 -54 -16 -85q26 16 47 23q30 11 64 11q129 0 129 -93q0 -39 -25 -64q-37 -41 -130 -41q-56 0 -90 18.5t-34 48.5q0 20 15.5 31.5
t38.5 11.5q21 0 23 -27q6 -70 49 -70q47 0 47 84q0 52 -28 69q-14 9 -34 9q-57 0 -79 -39z" />
    <glyph glyph-name="six.superior" unicode="&#x2076;" horiz-adv-x="334" 
d="M292 783l2 -15q-15 6 -34 6q-56 0 -89 -39t-37 -103q17 16 43 27q24 12 46 12q51 0 77 -25.5t26 -70.5q0 -61 -43 -91.5t-107 -30.5q-68 0 -106 34.5t-38 103.5q0 103 74 158q53 39 143 39q25 0 43 -5zM179 466h1q48 0 48 99q0 29 -9.5 54t-32.5 25q-34 0 -52 -37
q-4 -13 -4 -40q0 -35 11.5 -68t37.5 -33z" />
    <glyph glyph-name="seven.superior" unicode="&#x2077;" horiz-adv-x="334" 
d="M48 643l-11 3q10 35 15.5 81t3.5 61q34 -8 137 -8q111 0 124 2l3 -5q-13 -50 -36 -83q-96 -143 -95 -237l-5 -4q-38 0 -65 9q-21 9 -21 27q0 13 11 32q15 31 83 97.5t76 79.5q-20 2 -98 2q-62 0 -80.5 -3.5t-23.5 -12.5q-7 -13 -18 -41z" />
    <glyph glyph-name="eight.superior" unicode="&#x2078;" horiz-adv-x="334" 
d="M188 788h1q43 0 77 -21t34 -59q0 -21 -18 -35q-18 -12 -46 -26q50 -22 66.5 -42t16.5 -48q0 -48 -38 -74q-42 -30 -108 -30q-60 0 -96.5 22t-36.5 61q0 30 26 46q8 4 24 11.5t24 11.5q-32 16 -46 33t-14 46q0 33 22 60q36 44 112 44zM174 775h-1q-20 0 -35.5 -12.5
t-15.5 -34.5q0 -20 20 -36q20 -13 81 -39q21 16 21 51q0 32 -18.5 51.5t-51.5 19.5zM184 466h1q24 0 42 12.5t18 36.5q0 17 -24.5 35.5t-93.5 48.5q-25 -15 -25 -53q0 -31 21 -55.5t61 -24.5z" />
    <glyph glyph-name="nine.superior" unicode="&#x2079;" horiz-adv-x="334" 
d="M61 460l1 12q36 -6 61 1q84 18 96 130q-34 -36 -87 -36q-50 0 -76.5 27t-26.5 71q0 58 41 90.5t108 32.5q71 0 108 -39.5t37 -110.5q0 -99 -72 -149q-55 -36 -138 -36q-15 0 -52 7zM175 775h-1q-25 0 -35.5 -31.5t-10.5 -68.5q0 -34 10.5 -58t32.5 -24q31 0 46 32
q7 16 7 42q0 108 -49 108z" />
    <glyph glyph-name="parenleft.superior" unicode="&#x207d;" horiz-adv-x="233" 
d="M215 375l-6 -13q-52 22 -88 60q-69 74 -69 202q0 131 69 203q28 30 88 59l6 -12q-61 -24 -80 -122q-7 -46 -7 -128t7 -128q18 -96 80 -121z" />
    <glyph glyph-name="parenright.superior" unicode="&#x207e;" horiz-adv-x="233" 
d="M38 873l7 13q53 -23 88 -59q69 -73 69 -203q0 -131 -69 -203q-35 -35 -88 -59l-7 12q65 27 81 123q7 45 7 127t-7 128q-16 96 -81 121z" />
    <glyph glyph-name="n.superior" unicode="&#x207f;" horiz-adv-x="399" 
d="M17 311v12q26 2 32.5 4.5t7.5 14.5q1 15 1 68v56q0 37 -2 71q-2 6 -8 8t-31 2l1 12q57 -1 132 8q5 -34 8 -47q53 47 107 47q49 0 69 -31q10 -17 10 -51v-94q0 -23 2 -51q1 -10 7.5 -13.5t30.5 -4.5l-2 -11q-6 0 -38 1t-50 1q-24 0 -49 -1t-28 -1v12q16 2 20.5 5t5.5 15
q2 32 2 66q0 98 -6 111q-6 17 -25 17q-31 0 -49 -36q-8 -15 -8 -35v-73q0 -38 2 -54q1 -8 6.5 -11.5t23.5 -4.5l-1 -12q-4 0 -33 1t-47 1q-20 0 -52 -1t-39 -1z" />
    <glyph glyph-name="zero.inferior" unicode="&#x2080;" horiz-adv-x="334" 
d="M131 236h1q68 0 104 -45t36 -120q0 -78 -38 -124t-110 -46q-70 0 -105.5 44t-35.5 121q0 75 38.5 122.5t109.5 47.5zM130 223h-1q-20 0 -32 -27q-16 -36 -16 -128q0 -84 14 -123q11 -31 34 -31q19 0 32 30q15 40 15 127q0 89 -15 126q-12 26 -31 26z" />
    <glyph glyph-name="one.inferior" unicode="&#x2081;" horiz-adv-x="334" 
d="M235 -80l1 -14q-17 0 -55 1.5t-57 1.5q-23 0 -56.5 -1.5t-43.5 -1.5l-3 13l39 4q20 1 22 14q3 42 3 81v103q0 61 -2 75q-1 7 -8 6q-5 -1 -21 -3.5t-30 -5.5l5 16q126 18 150 27l3 -2q-3 -54 -3 -113v-102q0 -43 2 -83q2 -11 15 -12z" />
    <glyph glyph-name="two.inferior" unicode="&#x2082;" horiz-adv-x="334" 
d="M267 38l12 -6q-21 -65 -24 -126q-51 3 -195 3q-50 0 -76 -2l-2 5q3 8 10.5 27t9.5 24q114 50 137 123q8 27 8 67q0 69 -37 69t-37 -62q0 -5 4 -33q0 -12 -9 -18q-10 -7 -28 -7q-50 0 -50 45q0 32 39 61q36 28 96 28q59 0 89 -20q41 -27 41 -78q0 -46 -43 -74
q-15 -11 -144 -82q134 4 165 7q12 1 17 11q10 18 17 38z" />
    <glyph glyph-name="three.inferior" unicode="&#x2083;" horiz-adv-x="334" 
d="M128 236h1q49 0 85.5 -18.5t36.5 -58.5q0 -41 -45 -58q-22 -8 -76 -20v-3q77 -3 110 -24q29 -18 29 -53q0 -46 -44 -73t-115 -27q-55 0 -90.5 19.5t-35.5 49.5q0 18 16 31t36 13q13 0 17.5 -6t5.5 -19q4 -75 54 -75q47 0 47 76q0 79 -63 79q-20 0 -34 -5l-11 14l2 3
q49 -2 69 12q29 18 29 63q0 66 -42 66q-41 0 -41 -57q0 -10 2 -24q1 -10 -7 -15t-22 -5q-46 0 -46 36q0 29 35 54t97 25z" />
    <glyph glyph-name="four.inferior" unicode="&#x2084;" horiz-adv-x="334" 
d="M121 16q5 81 5 169q-16 -22 -56 -76t-61 -83q43 -10 112 -10zM-21 4l-7 15q108 123 157 199q42 4 90 18l4 -2q-3 -64 -3 -170v-47q41 4 62 16l1 -11q-20 -18 -63 -25q0 -42 2 -88q-70 -1 -104 -9l-4 4q3 15 6 89q-95 0 -141 11z" />
    <glyph glyph-name="five.inferior" unicode="&#x2085;" horiz-adv-x="334" 
d="M17 37l-11 15q11 29 18 93t6 88q30 -13 104 -13q58 0 83.5 5.5t37.5 27.5l8 -5q-13 -70 -53 -90q-26 -14 -79 -14q-61 0 -91 6q-9 -54 -16 -85q53 34 111 34q129 0 129 -93q0 -39 -25 -64q-37 -41 -130 -41q-56 0 -90 18.5t-34 48.5q0 20 15.5 31.5t38.5 11.5
q21 0 23 -27q6 -70 49 -70q47 0 47 84q0 52 -28 69q-13 9 -34 9q-57 0 -79 -39z" />
    <glyph glyph-name="six.inferior" unicode="&#x2086;" horiz-adv-x="334" 
d="M242 231l2 -15q-15 6 -34 6q-56 0 -89 -39t-37 -103q18 16 43.5 27.5t45.5 11.5q51 0 77 -25.5t26 -70.5q0 -61 -43 -91.5t-107 -30.5q-68 0 -106 34.5t-38 103.5q0 103 74 158q53 39 143 39q25 0 43 -5zM129 -86h1q48 0 48 99q0 29 -9.5 54t-32.5 25q-34 0 -52 -37
q-4 -13 -4 -40q0 -35 11.5 -68t37.5 -33z" />
    <glyph glyph-name="seven.inferior" unicode="&#x2087;" horiz-adv-x="334" 
d="M-2 91l-11 3q10 35 15.5 81t3.5 61q34 -8 137 -8q111 0 124 2l3 -5q-13 -50 -36 -83q-96 -143 -95 -237l-5 -4q-38 0 -65 9q-21 9 -21 27q0 13 11 32q15 31 83 97.5t76 79.5q-20 2 -98 2q-62 0 -80.5 -3.5t-23.5 -12.5q-7 -13 -18 -41z" />
    <glyph glyph-name="eight.inferior" unicode="&#x2088;" horiz-adv-x="334" 
d="M138 236h1q43 0 77 -21t34 -59q0 -21 -18 -35q-18 -12 -46 -26q50 -22 66.5 -42t16.5 -48q0 -48 -38 -74q-42 -30 -108 -30q-60 0 -96.5 22t-36.5 61q0 30 26 46q8 4 24 11.5t24 11.5q-32 16 -46 33t-14 46q0 33 22 60q36 44 112 44zM124 223h-1q-20 0 -35.5 -12.5
t-15.5 -34.5q0 -20 20 -36q20 -13 81 -39q21 16 21 51q0 32 -18.5 51.5t-51.5 19.5zM134 -86h1q24 0 42 12.5t18 36.5q0 17 -24.5 35.5t-93.5 48.5q-25 -15 -25 -53q0 -31 21 -55.5t61 -24.5z" />
    <glyph glyph-name="nine.inferior" unicode="&#x2089;" horiz-adv-x="334" 
d="M11 -92l1 12q36 -6 61 1q84 18 96 130q-34 -36 -87 -36q-50 0 -76.5 27t-26.5 71q0 58 41 90.5t108 32.5q71 0 108 -39.5t37 -110.5q0 -99 -72 -149q-55 -36 -138 -36q-15 0 -52 7zM125 223h-1q-25 0 -35.5 -31.5t-10.5 -68.5q0 -34 10.5 -58t32.5 -24q31 0 46 32
q7 16 7 42q0 108 -49 108z" />
    <glyph glyph-name="parenleft.inferior" unicode="&#x208d;" horiz-adv-x="233" 
d="M165 -177l-6 -13q-52 22 -88 60q-69 74 -69 202q0 131 69 203q28 30 88 59l6 -12q-61 -24 -80 -122q-7 -46 -7 -128t7 -128q18 -96 80 -121z" />
    <glyph glyph-name="parenright.inferior" unicode="&#x208e;" horiz-adv-x="233" 
d="M-12 321l7 13q53 -23 88 -59q69 -73 69 -203q0 -131 -69 -203q-35 -35 -88 -59l-7 12q65 27 81 123q7 45 7 127t-7 128q-16 96 -81 121z" />
    <glyph glyph-name="colonmonetary" unicode="&#x20a1;" horiz-adv-x="501" 
d="M181 310v-1q0 -206 62 -253q6 94 21 276t21 276q-33 -8 -55.5 -45t-32 -89t-13 -90.5t-3.5 -73.5zM373 623q42 -9 72 -33t30 -61q0 -52 -46 -52q-13 0 -20 6q-9 12 -7 19q5 28 5 36q0 57 -37 66q-9 -107 -41 -569q102 11 136 122l13 -7q-15 -58 -54.5 -94.5t-96.5 -47.5
l-6 -95l-26 -9l10 101q-29 -2 -44 0q-1 -8 -3 -40t-4 -52l-25 -9l10 105q-59 8 -101.5 36t-65 71t-33 90t-10.5 102q0 130 66 221.5t191 98.5l6 83l24 5l-8 -86q12 0 25.5 -1.5t18.5 -1.5l6 84l25 5zM351 608q-16 6 -45 4q-14 -156 -44 -568q23 -12 44 -10q5 65 14.5 180.5
t17 211.5t13.5 182z" />
    <glyph glyph-name="Euro" unicode="&#x20ac;" horiz-adv-x="500" 
d="M225 364l203 2l-6 -25l-198 1v-51l180 2l-6 -26l-173 2q1 -41 6 -77.5t17 -78.5t37.5 -66.5t62.5 -24.5q48 0 77 23.5t49 85.5l12 -7q-24 -78 -66.5 -108t-116.5 -30q-117 0 -168.5 76.5t-59.5 206.5h-59l8 22h49q0 19 2 51h-42l8 22h36q13 118 76.5 193t176.5 75
q82 0 117 -29t35 -67q0 -28 -18.5 -44t-41.5 -16q-19 0 -27 7q-12 10 -9 24q5 18 5 42q0 36 -17 52t-43 16q-30 0 -51.5 -28t-32.5 -74t-15.5 -80.5t-6.5 -70.5z" />
    <glyph glyph-name="uni2113" unicode="&#x2113;" horiz-adv-x="385" 
d="M356 135l12 -5q-17 -77 -55 -107.5t-96 -30.5q-78 0 -104.5 42t-26.5 126v46q-10 -6 -30.5 -16t-23.5 -12l-8 13q53 33 60 38v193q0 80 14.5 135.5t38.5 81.5t46.5 36t46.5 10q87 0 87 -131q0 -157 -120 -282v-97q0 -75 13.5 -106t47.5 -31q38 0 60 20.5t38 76.5z
M197 532v-223q78 104 78 255q0 36 -10.5 71t-34.5 35q-11 0 -17.5 -9.5t-11 -41.5t-4.5 -87z" />
    <glyph glyph-name="trademark" unicode="&#x2122;" horiz-adv-x="249" 
d="M47 608h16q33 0 39 2v-4q-1 -3 -1.5 -7t-0.5 -10.5t1 -13.5l-4 -2q-3 20 -7 24q-5 6 -22 5v-44v-22l1 -11q2 -5 18 -5v-6q-2 0 -14.5 0.5t-21.5 0.5q-4 0 -13 -0.5t-14 -0.5l-1 6q16 0 18 5q0 1 0.5 11.5t0.5 22.5v43q-18 0 -22 -6q-2 -4 -8 -24l-5 1q2 8 3 23l2 14
q10 -2 35 -2zM108 603v6q15 -1 25 -1q14 0 17 1q1 -2 6.5 -13.5t10.5 -24t9 -20.5q18 33 24 59q5 -1 19 -1q6 0 13 0.5t9 0.5v-6q-12 -1 -13 -5t-1 -17q0 -46 3 -56q0 -6 14 -6l-1 -6h-11q-10 1 -17 1q-6 0 -16 -0.5t-12 -0.5v6q13 0 14 6q0 4 2 72h-1q-6 -15 -13 -33.5
t-11.5 -30.5t-7.5 -17l-9 -3q-3 10 -15.5 40t-15.5 41h-1q-2 -28 -2 -61q0 -13 7 -14h10l-1 -6q-3 0 -10.5 0.5t-11.5 0.5q-5 0 -12.5 -0.5t-8.5 -0.5v6q17 1 18 12q0 1 2.5 25.5t3.5 39.5l-1 3q0 2 -4 2z" />
    <glyph glyph-name="Omega" unicode="&#x2126;" horiz-adv-x="708" 
d="M285 92v5q-227 61 -227 279q0 136 81 207.5t222 71.5q135 0 212.5 -71.5t77.5 -205.5q0 -111 -59.5 -178t-168.5 -103v-5h125q60 0 82.5 15.5t40.5 69.5l13 -1q-1 -26 -16 -93.5t-24 -85.5q-10 0 -30 1.5t-53 1.5h-185l-5 6q2 9 9 43.5t9 43.5q44 27 69.5 102t25.5 175
q0 137 -30 203t-100 66q-65 0 -97 -64t-32 -211q0 -210 91 -271q2 -11 7.5 -47.5t5.5 -39.5l-3 -6h-176q-33 0 -59.5 -1.5t-37.5 -1.5q-7 18 -17 83t-12 92l14 4q20 -56 41 -70t82 -14h124z" />
    <glyph glyph-name="estimated" unicode="&#x212e;" horiz-adv-x="829" 
d="M760 288h-559q-5 0 -5 -4v-169q0 -12 8 -20q86 -91 212 -91q134 0 222 103h49q-48 -56 -119.5 -88.5t-153.5 -32.5q-143 0 -244 90.5t-101 219.5t101 220t244 91t244.5 -91t101.5 -220v-8zM633 309v171q0 12 -9 21q-86 88 -208 88q-124 0 -211 -90q-9 -9 -9 -22v-168
q0 -4 5 -4h428q4 0 4 4z" />
    <glyph glyph-name="onethird" unicode="&#x2153;" horiz-adv-x="678" 
d="M256 324l1 -14q-17 0 -55 1.5t-57 1.5q-23 0 -56.5 -1.5t-43.5 -1.5l-3 13l39 4q20 1 22 14q3 39 3 81v102q0 62 -2 76q-1 7 -8 6q-4 -1 -20.5 -3.5t-30.5 -5.5l5 16q126 18 150 27l3 -2q-3 -54 -3 -114v-102q0 -44 2 -82q2 -11 15 -12zM531 670l17 -17
q-258 -393 -418 -647l-17 19q208 309 418 645zM510 379h1q48 0 84.5 -18t36.5 -58q0 -41 -45 -58q-22 -8 -76 -20v-3q77 -3 110 -24q29 -17 29 -53q0 -45 -44 -73q-44 -27 -115 -27q-55 0 -90.5 19.5t-35.5 49.5q0 18 16 31t36 13q13 0 17.5 -6t5.5 -19q4 -75 54 -75
q47 0 47 76q0 79 -63 79q-19 0 -35 -4l-10 13l2 3q49 -2 69 12q29 18 29 63q0 65 -41 65q-42 0 -42 -56q0 -10 2 -24q1 -10 -7 -15t-22 -5q-46 0 -46 35q0 30 35 54.5t98 24.5z" />
    <glyph glyph-name="twothirds" unicode="&#x2154;" horiz-adv-x="678" 
d="M303 442l12 -6q-21 -65 -24 -126q-51 3 -195 3q-50 0 -76 -2l-2 5q3 8 10.5 27t9.5 24q114 50 137 123q8 27 8 67q0 69 -37 69t-37 -62q0 -5 4 -33q0 -12 -9 -18q-10 -7 -28 -7q-50 0 -50 45q0 32 39 61q36 28 96 28q59 0 89 -20q41 -27 41 -78q0 -46 -43 -74
q-15 -11 -144 -82q134 4 165 7q12 1 17 10q13 26 17 39zM553 670l17 -17q-281 -427 -419 -647l-17 19q222 330 419 645zM516 379h1q48 0 84.5 -18t36.5 -58q0 -41 -45 -58q-22 -8 -76 -20v-3q77 -3 110 -24q29 -17 29 -53q0 -45 -44 -73q-44 -27 -115 -27q-55 0 -90.5 19.5
t-35.5 49.5q0 18 16 31t36 13q13 0 17.5 -6t5.5 -19q4 -75 54 -75q47 0 47 76q0 79 -63 79q-19 0 -35 -4l-10 13l2 3q49 -2 69 12q29 18 29 63q0 65 -41 65q-42 0 -42 -56q0 -10 2 -24q1 -10 -7 -15t-22 -5q-46 0 -46 35q0 29 35 54t98 25z" />
    <glyph glyph-name="oneeighth" unicode="&#x215b;" horiz-adv-x="678" 
d="M255 324l1 -14q-17 0 -55 1.5t-57 1.5q-23 0 -56.5 -1.5t-43.5 -1.5l-3 13l39 4q20 1 22 14q3 39 3 81v103q0 61 -2 75q-1 7 -8 6q-5 -1 -21 -3.5t-30 -5.5l5 16q126 18 150 27l3 -2q-3 -54 -3 -114v-101q0 -45 2 -83q2 -11 15 -12zM530 670l16 -17q-258 -393 -418 -647
l-16 18q237 356 418 646zM504 380h1q43 0 76.5 -20.5t33.5 -58.5q0 -22 -19 -37q-15 -11 -45 -25q50 -22 67 -42t17 -48q0 -45 -38 -74q-42 -30 -109 -30q-60 0 -96.5 22t-36.5 62q0 28 27 45q4 2 49 23q-33 17 -47 34t-14 46q0 33 21 59q37 44 113 44zM490 367h-1
q-20 0 -35.5 -12.5t-15.5 -34.5q0 -21 21 -36q21 -14 80 -39q21 17 21 52q0 31 -18.5 50.5t-51.5 19.5zM500 58h1q24 0 41.5 12.5t17.5 36.5q0 17 -24.5 35.5t-93.5 48.5q-25 -14 -25 -53q0 -31 21.5 -55.5t61.5 -24.5z" />
    <glyph glyph-name="threeeighths" unicode="&#x215c;" horiz-adv-x="678" 
d="M172 640h1q49 0 85.5 -18.5t36.5 -58.5q0 -41 -45 -58q-22 -8 -76 -20v-3q77 -3 110 -24q29 -18 29 -53q0 -45 -44 -73q-44 -27 -116 -27q-55 0 -90.5 19.5t-35.5 49.5q0 18 16 31t36 13q13 0 17.5 -6t5.5 -19q4 -75 55 -75q47 0 47 76q0 79 -63 79q-21 0 -35 -5l-11 14
l2 3q50 -2 70 12q29 18 29 63q0 66 -42 66t-42 -57q0 -10 2 -24q1 -10 -7 -15t-22 -5q-46 0 -46 36q0 29 35 54t98 25zM546 670l16 -17q-233 -354 -418 -647l-17 18q228 340 419 646zM516 380h1q43 0 76.5 -20.5t33.5 -58.5q0 -22 -19 -37q-11 -8 -45 -24q50 -23 67 -43
t17 -48q0 -45 -38 -74q-42 -30 -109 -30q-59 0 -95.5 22t-36.5 62q0 28 27 45q4 2 49 23q-33 17 -47 34t-14 46q0 33 21 59q37 44 112 44zM502 367h-1q-20 0 -35 -12.5t-15 -34.5q0 -20 21 -35q23 -17 79 -40q21 19 21 52q0 31 -18.5 50.5t-51.5 19.5zM512 58h1q25 0 42 12
t17 37q0 17 -24.5 35.5t-92.5 48.5q-25 -14 -25 -53q0 -31 21.5 -55.5t60.5 -24.5z" />
    <glyph glyph-name="fiveeighths" unicode="&#x215d;" horiz-adv-x="678" 
d="M67 441l-11 15q11 29 18 93t6 88q30 -13 104 -13q58 0 83.5 5.5t37.5 26.5l8 -4q-13 -70 -53 -90q-26 -14 -79 -14q-61 0 -91 6q-9 -54 -16 -85q53 34 111 34q129 0 129 -93q0 -39 -25 -64q-37 -41 -130 -41q-56 0 -90 18.5t-34 48.5q0 20 15.5 31.5t38.5 11.5
q21 0 23 -27q6 -70 49 -70q47 0 47 84q0 52 -28 69q-14 9 -34 9q-57 0 -79 -39zM548 670l16 -18q-235 -355 -419 -646l-16 18q217 323 419 646zM518 380h1q43 0 76.5 -20.5t33.5 -58.5q0 -22 -19 -37q-13 -9 -46 -24q50 -23 67 -43t17 -48q0 -45 -38 -74q-42 -30 -109 -30
q-59 0 -95.5 22t-36.5 62q0 28 27 45q4 2 49 23q-33 17 -47 34t-14 46q0 33 21 59q37 44 113 44zM504 367h-1q-20 0 -35.5 -12.5t-15.5 -34.5q0 -20 21 -35q25 -17 80 -40q21 19 21 52q0 31 -18.5 50.5t-51.5 19.5zM513 58h1q25 0 42 12t17 37q0 17 -24.5 35.5t-92.5 48.5
q-25 -14 -25 -53q0 -31 21.5 -55.5t60.5 -24.5z" />
    <glyph glyph-name="seveneighths" unicode="&#x215e;" horiz-adv-x="678" 
d="M58 495l-11 3q10 35 15.5 81t3.5 61q34 -8 137 -8q112 0 125 2l3 -5q-17 -55 -36 -83q-97 -142 -96 -239l-5 -4q-44 1 -65 10q-21 7 -21 26q0 14 11 33q16 32 84 99t76 79q-21 2 -99 2q-62 0 -80.5 -3.5t-23.5 -12.5q-9 -18 -18 -41zM510 670l16 -17q-221 -334 -419 -647
l-16 18q220 332 419 646zM500 380h1q43 0 76.5 -21t33.5 -59q0 -23 -19 -36q-11 -9 -45 -25q50 -22 67 -42t17 -48q0 -46 -38 -74q-42 -30 -109 -30q-60 0 -96.5 22t-36.5 62q0 28 27 45q4 2 49 23q-33 17 -47 34t-14 46q0 33 21 59q37 44 113 44zM486 367h-1
q-20 0 -35.5 -12.5t-15.5 -34.5q0 -21 21 -36q21 -14 80 -39q21 17 21 52q0 31 -18.5 50.5t-51.5 19.5zM496 58h1q24 0 41.5 12.5t17.5 36.5q0 17 -24.5 35.5t-93.5 48.5q-25 -14 -25 -53q0 -31 21.5 -55.5t61.5 -24.5z" />
    <glyph glyph-name="uni2190" unicode="&#x2190;" horiz-adv-x="482" 
d="M457 209h-347l161 -144l-27 -35l-219 200v1l219 200l27 -35l-161 -144h347v-43z" />
    <glyph glyph-name="uni2192" unicode="&#x2192;" horiz-adv-x="482" 
d="M25 252h347l-160 144l27 35l218 -200v-1l-218 -200l-27 35l160 144h-347v43z" />
    <glyph glyph-name="partialdiff" unicode="&#x2202;" horiz-adv-x="494" 
d="M57 554q-7 10 1 40t18 40q33 28 118 28q48 0 93.5 -21t83.5 -60.5t61.5 -105.5t23.5 -149q0 -151 -66.5 -244t-185.5 -93q-84 0 -128.5 45t-44.5 126q0 83 51 135t139 52q74 0 108 -47h2q10 58 10 135q0 103 -30 153.5t-99 50.5q-82 0 -152 -85h-3zM217 7h1q70 0 109 269
q-19 39 -62 39q-42 0 -73 -49.5t-31 -136.5q0 -122 56 -122z" />
    <glyph glyph-name="Delta" unicode="&#x2206;" horiz-adv-x="578" 
d="M549 -3l-35 2q-36 2 -95 1h-389v14q17 47 57.5 165t85 250t49.5 147q8 24 11 54q85 3 128 20q58 -237 188 -637v-16zM237 564q-6 -21 -68 -216t-84 -274q-6 -29 17 -32q42 -7 127 -7q88 0 116 4q19 2 21 8q3 6 -1 21q-53 203 -128 496z" />
    <glyph glyph-name="product" unicode="&#x220f;" horiz-adv-x="677" 
d="M99 178v239q0 157 -2 191q-1 20 -11 25t-48 7l2 13q12 0 58.5 -2t68.5 -2h335q58 0 138 4l1 -13q-38 -1 -48 -6.5t-10 -22.5q0 -11 -1.5 -44.5t-2.5 -69t-1 -68.5v-272q0 -164 6 -220q2 -13 12.5 -17.5t49.5 -6.5l-4 -12q-9 0 -56.5 1.5t-82.5 1.5q-34 0 -79.5 -1.5
t-56.5 -1.5l1 12q36 3 45.5 8.5t11.5 23.5q5 115 5 184v470q0 17 -4.5 22.5t-19.5 7.5q-22 3 -70 3q-37 0 -64 -3q-15 -2 -20 -8.5t-5 -24.5v-473q0 -126 4 -178q2 -19 12 -25t48 -7v-13q-15 0 -63 2t-82 2q-25 0 -70.5 -2t-63.5 -2v13q38 1 48.5 7t12.5 26q6 69 6 232z" />
    <glyph glyph-name="summation" unicode="&#x2211;" horiz-adv-x="533" 
d="M28 640v11q16 0 73.5 -1.5t81.5 -1.5h144q97 0 128 7q-6 -70 -3 -172h-13q-12 58 -36 100q-13 25 -36.5 36.5t-83.5 11.5h-75q-10 0 -15 -5t-3 -10l140 -288q-36 -52 -201 -310q-2 -5 0.5 -8t12.5 -4q32 -6 133 -6q148 0 175 24q30 27 47 91l12 -4q-3 -28 -18.5 -112.5
t-22.5 -103.5q-67 5 -189 5h-68q-38 0 -105 -1.5t-79 -1.5v15q76 103 206 311z" />
    <glyph glyph-name="minus" unicode="&#x2212;" horiz-adv-x="443" 
d="M42 237h359v-42h-359v42z" />
    <glyph glyph-name="uni2215" unicode="&#x2215;" horiz-adv-x="89" 
d="M240 672l17 -17q-267 -405 -421 -651l-17 18q243 365 421 650z" />
    <glyph glyph-name="uni2219" unicode="&#x2219;" horiz-adv-x="245" 
d="M123 299h1q31 0 52.5 -22.5t21.5 -56.5t-21.5 -56t-53.5 -22t-54 22.5t-22 55.5q0 34 22 56.5t54 22.5z" />
    <glyph glyph-name="radical" unicode="&#x221a;" horiz-adv-x="522" 
d="M505 777l-192 -924h-12l-191 429l-64 -32l-8 18l136 69l100 -236q32 -75 42 -109h2q7 49 18 101l139 684h30z" />
    <glyph glyph-name="infinity" unicode="&#x221e;" horiz-adv-x="581" 
d="M425 99h-1q-27 0 -53.5 15.5t-39 28t-41.5 45.5q-26 -30 -40 -44t-42.5 -29.5t-58.5 -15.5q-47 0 -77 31t-30 84q0 48 34 81.5t81 33.5q15 0 29.5 -4.5t24 -9t23.5 -16.5t18.5 -17t19.5 -22t18 -20q24 28 40 43.5t44.5 30.5t57.5 15q46 0 76.5 -32t30.5 -82
q0 -48 -34 -82t-80 -34zM156 137h1q23 0 45.5 13.5t32 24t31.5 36.5q-7 7 -24.5 26.5t-27.5 28.5t-26.5 18t-32.5 9q-33 0 -52.5 -22.5t-19.5 -55.5q0 -35 21 -56.5t52 -21.5zM426 137h1q31 0 50.5 22.5t19.5 55.5q0 36 -18.5 57t-50.5 21q-7 0 -14.5 -1.5t-13 -3t-13 -6
t-12 -6.5t-12 -8.5t-10 -9l-10.5 -10.5l-9.5 -9.5t-9.5 -10.5t-9 -10q2 -2 12 -14t13 -15.5t12 -13t13.5 -13t13 -10t15 -9t15 -4.5t17.5 -2z" />
    <glyph glyph-name="integral" unicode="&#x222b;" horiz-adv-x="341" 
d="M332 728v-1q0 -35 -38 -35q-18 0 -27 13t-16.5 25.5t-23.5 12.5q-37 0 -33 -119q1 -30 13 -217.5t13 -276.5q2 -145 -39.5 -233.5t-120.5 -88.5q-29 0 -46 12.5t-17 34.5q0 16 11.5 28.5t31.5 12.5q16 0 25.5 -8t13 -17.5t12 -17.5t23.5 -8q37 0 34 151q-2 69 -11.5 232
t-10.5 178q-10 192 30 280.5t117 88.5q27 0 43 -13.5t16 -33.5z" />
    <glyph glyph-name="approxequal" unicode="&#x2248;" horiz-adv-x="446" 
d="M370 334l33 -16q-13 -43 -37.5 -62t-65.5 -19q-39 0 -95 33q-38 22 -64 22q-48 0 -68 -52l-32 17q29 75 102 75q36 0 94 -32q41 -24 69 -24q48 0 64 58zM370 203l33 -16q-24 -82 -105 -82q-34 0 -93 34q-40 22 -65 22q-47 0 -67 -51l-32 16q30 75 104 75q42 0 94 -33
q39 -23 68 -23q47 0 63 58z" />
    <glyph glyph-name="notequal" unicode="&#x2260;" horiz-adv-x="443" 
d="M42 312h204q6 12 45 93q5 -2 16.5 -7.5t16.5 -8.5l-38 -77h114v-42h-133l-50 -106h183v-43h-203q-22 -48 -43 -89q-16 9 -33 15l35 74h-114v43h134l50 106h-184v42z" />
    <glyph glyph-name="lessequal" unicode="&#x2264;" horiz-adv-x="436" 
d="M53 244v41l330 164v-50l-279 -133v-3l279 -134v-50zM53 49h330v-42h-330v42z" />
    <glyph glyph-name="greaterequal" unicode="&#x2265;" horiz-adv-x="436" 
d="M383 284v-40l-330 -165v50l278 134v2l-278 135v49zM53 49h330v-42h-330v42z" />
    <glyph glyph-name="uni25A0" unicode="&#x25a0;" horiz-adv-x="285" 
d="M45 334h195v-200h-195v200z" />
    <glyph glyph-name="uni25B6" unicode="&#x25b6;" horiz-adv-x="409" 
d="M50 74q1 310 0 310h1l324 -153v-1l-324 -157z" />
    <glyph glyph-name="uni25B7" unicode="&#x25b7;" horiz-adv-x="409" 
d="M86 329l1 -197l207 100zM50 76q1 310 0 310h1l324 -153v-1l-324 -157z" />
    <glyph glyph-name="uni25C0" unicode="&#x25c0;" horiz-adv-x="409" 
d="M359 383q-1 -310 0 -310h-1l-324 153v1l324 157z" />
    <glyph glyph-name="uni25C1" unicode="&#x25c1;" horiz-adv-x="409" 
d="M322 132v197l-208 -100zM359 385q-1 -310 0 -310h-1l-324 153v1l324 157z" />
    <glyph glyph-name="uni25C6" unicode="&#x25c6;" horiz-adv-x="335" 
d="M29 236l137 137l140 -141l-137 -137z" />
    <glyph glyph-name="uni25C9" unicode="&#x25c9;" horiz-adv-x="331" 
d="M166 376h1q54 0 91.5 -39t37.5 -94t-38 -94t-92 -39q-55 0 -93 38.5t-38 94.5t38 94.5t93 38.5zM166 340h-1q-38 0 -63 -28.5t-25 -68.5t25.5 -68.5t63.5 -28.5t63 28.5t25 68.5t-25 68.5t-63 28.5zM166 295h-1q-21 0 -34.5 -15.5t-13.5 -36.5q0 -22 14 -37.5t35 -15.5
t34.5 15.5t13.5 37.5q0 21 -13.5 36.5t-34.5 15.5z" />
    <glyph glyph-name="lozenge" unicode="&#x25ca;" horiz-adv-x="524" 
d="M477 300l-197 -344h-46l-187 339l186 349h51zM423 294l-163 310h-2q-16 -33 -55 -109t-71 -135l-31 -60l157 -299h1z" />
    <glyph glyph-name="uni2610" unicode="&#x2610;" horiz-adv-x="687" 
d="M101 542h498v-506l-38 -36h-495v509zM88 503v-480h468v480h-468z" />
    <glyph glyph-name="uni2611" unicode="&#x2611;" horiz-adv-x="687" 
d="M101 542h498v-506l-38 -36h-495v509zM88 503v-480h468v480h-468zM427 439q9 12 33 22.5t46 12.5v-2q-25 -27 -50.5 -63.5t-54.5 -89.5t-45 -83t-49 -97t-39 -79h-1q-18 15 -63.5 96t-45.5 99q5 10 19.5 23.5t23.5 15.5h1q5 -25 29.5 -85.5t40.5 -90.5q95 240 155 321z
" />
    <glyph glyph-name="A.sc" unicode="&#xe000;" horiz-adv-x="508" 
d="M527 10v-14q-21 0 -66 2t-68 2q-29 0 -76 -2t-66 -2l-1 14q36 4 44.5 8.5t5.5 16.5q-18 72 -43 157q-20 2 -67 2q-51 0 -68 -2q-39 -137 -39 -144q-2 -18 12.5 -26t62.5 -12v-14q-13 0 -43.5 2t-48.5 2q-10 0 -41 -2t-49 -2v14q35 3 49 12t26 37q22 49 126 369
q7 19 13 54q21 -2 66 2t61 12q97 -348 146 -461q9 -19 31 -22zM195 427q-49 -157 -65 -214q30 -2 62 -2q44 0 59 2q-3 11 -25 95t-31 119z" />
    <glyph glyph-name="AE.sc" unicode="&#xe001;" horiz-adv-x="707" 
d="M369 486h166q80 0 114 6q-5 -32 -3 -156l-12 -4q-8 54 -26 89q-15 27 -41 37t-82 10h-22q-13 0 -14 -11q-4 -22 -4 -124v-87h46q38 0 59 18.5t27 62.5h11q-10 -115 -4 -200l-12 1q-6 47 -23 73t-62 26q-33 0 -42 -1v-41q0 -110 3 -149q2 -11 9 -15t34 -4q98 0 128 33
q41 48 58 131l12 -5q-1 -15 -5.5 -53.5t-9.5 -80t-6 -48.5q-66 6 -179 6h-121q-15 0 -41 -0.5t-57.5 -2t-42.5 -1.5v14l40 4q26 3 27 22q5 67 5 157v34q-103 0 -131 -2q-72 -135 -88 -182q-5 -13 1 -19t28 -8l54 -6v-14q-25 0 -55.5 2t-42.5 2q-19 0 -51.5 -2t-51.5 -2v14
q38 4 55 12.5t36 39.5q68 116 215 394q7 13 -10 15l-76 5l-2 14q144 -4 189 -4zM299 246v216h-7q-35 -61 -113 -216q39 -2 120 0z" />
    <glyph glyph-name="Aacute.sc" unicode="&#xe002;" horiz-adv-x="508" 
d="M527 10v-14q-21 0 -66 2t-68 2q-29 0 -76 -2t-66 -2l-1 14q36 4 44.5 8.5t5.5 16.5q-18 72 -43 157q-20 2 -67 2q-51 0 -68 -2q-39 -137 -39 -144q-2 -18 12.5 -26t62.5 -12v-14q-13 0 -43.5 2t-48.5 2q-10 0 -41 -2t-49 -2v14q35 3 49 12t26 37q22 49 126 369
q7 19 13 54q21 -2 66 2t61 12q97 -348 146 -461q9 -19 31 -22zM195 427q-49 -157 -65 -214q30 -2 62 -2q44 0 59 2q-3 11 -25 95t-31 119zM232 543l-9 8q13 17 49.5 67.5t44.5 61.5q30 33 53 33q30 0 30 -29q0 -30 -43 -59q-7 -5 -25 -16.5t-47 -30.5t-53 -35z" />
    <glyph glyph-name="Acircumflex.sc" unicode="&#xe003;" horiz-adv-x="508" 
d="M527 10v-14q-21 0 -66 2t-68 2q-29 0 -76 -2t-66 -2l-1 14q36 4 44.5 8.5t5.5 16.5q-18 72 -43 157q-20 2 -67 2q-51 0 -68 -2q-39 -137 -39 -144q-2 -18 12.5 -26t62.5 -12v-14q-13 0 -43.5 2t-48.5 2q-10 0 -41 -2t-49 -2v14q35 3 49 12t26 37q22 49 126 369
q7 19 13 54q21 -2 66 2t61 12q97 -348 146 -461q9 -19 31 -22zM195 427q-49 -157 -65 -214q30 -2 62 -2q44 0 59 2q-3 11 -25 95t-31 119zM248 715l10 4q26 -74 116 -174l-7 -8q-68 38 -114 81q-54 -47 -114 -81l-8 8q45 48 75.5 95t41.5 75z" />
    <glyph glyph-name="Adieresis.sc" unicode="&#xe004;" horiz-adv-x="508" 
d="M527 10v-14q-21 0 -66 2t-68 2q-29 0 -76 -2t-66 -2l-1 14q36 4 44.5 8.5t5.5 16.5q-18 72 -43 157q-20 2 -67 2q-51 0 -68 -2q-39 -137 -39 -144q-2 -18 12.5 -26t62.5 -12v-14q-13 0 -43.5 2t-48.5 2q-10 0 -41 -2t-49 -2v14q35 3 49 12t26 37q22 49 126 369
q7 19 13 54q21 -2 66 2t61 12q97 -348 146 -461q9 -19 31 -22zM195 427q-49 -157 -65 -214q30 -2 62 -2q44 0 59 2q-3 11 -25 95t-31 119zM171 675h1q24 0 38.5 -16t14.5 -40q0 -29 -17 -45.5t-39 -16.5q-23 0 -38.5 14t-15.5 43q0 27 15.5 44t40.5 17zM347 675h1
q24 0 38.5 -15.5t14.5 -40.5q0 -29 -17 -45.5t-39 -16.5q-23 0 -38.5 14t-15.5 43q0 27 15.5 44t40.5 17z" />
    <glyph glyph-name="Agrave.sc" unicode="&#xe005;" horiz-adv-x="508" 
d="M527 10v-14q-21 0 -66 2t-68 2q-29 0 -76 -2t-66 -2l-1 14q36 4 44.5 8.5t5.5 16.5q-18 72 -43 157q-20 2 -67 2q-51 0 -68 -2q-39 -137 -39 -144q-2 -18 12.5 -26t62.5 -12v-14q-13 0 -43.5 2t-48.5 2q-10 0 -41 -2t-49 -2v14q35 3 49 12t26 37q22 49 126 369
q7 19 13 54q21 -2 66 2t61 12q97 -348 146 -461q9 -19 31 -22zM195 427q-49 -157 -65 -214q30 -2 62 -2q44 0 59 2q-3 11 -25 95t-31 119zM274 543q-102 66 -122 81q-39 24 -39 54q0 15 9.5 24.5t23.5 9.5q22 0 48 -30q12 -15 89 -131z" />
    <glyph glyph-name="Aring.sc" unicode="&#xe006;" horiz-adv-x="508" 
d="M527 10v-14q-21 0 -66 2t-68 2q-29 0 -76 -2t-66 -2l-1 14q36 4 44.5 8.5t5.5 16.5q-18 72 -43 157q-20 2 -67 2q-51 0 -68 -2q-39 -137 -39 -144q-2 -18 12.5 -26t62.5 -12v-14q-13 0 -43.5 2t-48.5 2q-10 0 -41 -2t-49 -2v14q35 3 49 12t26 37q22 49 126 369
q7 19 13 54q21 -2 66 2t61 12q97 -348 146 -461q9 -19 31 -22zM195 427q-49 -157 -65 -214q30 -2 62 -2q44 0 59 2q-3 11 -25 95t-31 119zM255 702h1q37 0 60.5 -21.5t23.5 -59.5q0 -41 -26 -64t-64 -23q-39 0 -63 21t-24 59q0 41 26 64.5t66 23.5zM252 685h-1
q-37 0 -37 -65q0 -69 37 -69q38 0 38 70q0 64 -37 64z" />
    <glyph glyph-name="Atilde.sc" unicode="&#xe007;" horiz-adv-x="508" 
d="M527 10v-14q-21 0 -66 2t-68 2q-29 0 -76 -2t-66 -2l-1 14q36 4 44.5 8.5t5.5 16.5q-18 72 -43 157q-20 2 -67 2q-51 0 -68 -2q-39 -137 -39 -144q-2 -18 12.5 -26t62.5 -12v-14q-13 0 -43.5 2t-48.5 2q-10 0 -41 -2t-49 -2v14q35 3 49 12t26 37q22 49 126 369
q7 19 13 54q21 -2 66 2t61 12q97 -348 146 -461q9 -19 31 -22zM195 427q-49 -157 -65 -214q30 -2 62 -2q44 0 59 2q-3 11 -25 95t-31 119zM148 554l-15 4q14 108 79 108q21 0 68 -30q37 -24 54 -24q29 0 38 57l14 -5q-14 -108 -77 -108q-22 0 -70 31q-35 24 -49 24
q-33 0 -42 -57z" />
    <glyph glyph-name="B.sc" unicode="&#xe008;" horiz-adv-x="549" 
d="M11 -3l-1 13q41 2 53.5 6.5t13.5 16.5q4 80 4 153v131q0 114 -3 137q-2 22 -63 22v14q12 0 58.5 -2t69.5 -2q30 0 96.5 2t85.5 2q58 0 86.5 -7t48.5 -23q32 -24 32 -76q0 -72 -64 -97q-42 -17 -101 -22v-5q101 -5 147 -29q49 -26 49 -91q0 -70 -55 -106t-180 -36
q-23 0 -164 3q-18 0 -60.5 -2t-52.5 -2zM226 363v-95q9 -1 35 -1q42 0 62.5 25t20.5 83q0 46 -18 70q-20 28 -67 28q-28 0 -30 -12q-3 -33 -3 -98zM226 250v-109q0 -88 3 -107q2 -20 38 -20q55 0 76 30q24 32 24 91q0 68 -28 92q-28 25 -77 25q-24 0 -36 -2z" />
    <glyph glyph-name="C.sc" unicode="&#xe009;" horiz-adv-x="536" 
d="M493 302l-14 -2q-6 83 -45 135q-36 47 -98 47q-53 0 -87 -39q-51 -62 -51 -198q0 -58 13.5 -108t36.5 -74q40 -43 107 -43q98 0 148 120l12 -9q-27 -79 -80.5 -112.5t-140.5 -33.5q-144 0 -206 71q-57 65 -57 179q0 135 89 206q72 59 196 59q114 0 158 -47l16 52l11 -4
q-11 -88 -8 -199z" />
    <glyph glyph-name="Ccedilla.sc" unicode="&#xe00a;" horiz-adv-x="533" 
d="M328 -13q-5 -7 -14 -21t-12 -19q76 -12 76 -71q0 -39 -27 -60.5t-67 -21.5q-32 0 -58 19l7 15q21 -12 47 -12q38 0 38 34q0 17 -17.5 27.5t-46.5 10.5l-5 11q10 14 30 43t30 43h-14q-144 0 -208 73q-56 64 -56 178q0 63 23 117.5t66 88.5q72 59 197 59q51 0 94 -13.5
t63 -35.5l16 54l11 -5q-11 -88 -8 -198l-14 -2q-6 80 -44 134q-38 48 -99 48q-54 0 -87 -40q-51 -60 -51 -199q0 -59 14 -108t37 -73q40 -43 106 -43q99 0 150 119l11 -9q-24 -70 -70 -104t-118 -39z" />
    <glyph glyph-name="D.sc" unicode="&#xe00b;" horiz-adv-x="606" 
d="M85 192v137q0 78 -2 122q-2 18 -19 20l-48 6l1 13q7 0 60.5 -2t68.5 -2q32 0 86 2t71 2q118 0 178 -34q44 -24 68.5 -76.5t24.5 -124.5q0 -188 -153 -239q-60 -19 -149 -19q-22 0 -66 1.5t-64 1.5q-27 0 -77.5 -1.5t-55.5 -1.5l1 13l39 3q17 2 23 6t8 14q5 40 5 159z
M230 320v-133q0 -129 3 -156q2 -18 37 -18q76 0 111 48q39 58 39 189q0 132 -40 180q-34 43 -110 43q-33 0 -35 -16q-5 -37 -5 -137z" />
    <glyph glyph-name="E.sc" unicode="&#xe00c;" horiz-adv-x="494" 
d="M20 476v14q9 0 59 -2t75 -2h162q84 0 120 9q-6 -39 -4 -156l-12 -4q-8 49 -27 85q-15 29 -40 38.5t-79 9.5h-24q-16 0 -17 -11q-3 -33 -3 -100v-96h41q77 0 88 82h11q-10 -104 -3 -197l-13 1q-4 43 -23 68.5t-63 25.5q-31 0 -38 -1v-70q0 -108 2 -136q1 -10 9 -13.5
t34 -3.5q54 0 83.5 7t47.5 26q34 37 60 117l10 -4q-8 -93 -24 -169q-68 6 -180 6h-116q-23 0 -77 -2t-67 -2v14l39 3q29 4 30 23q4 52 4 141v162q0 84 -2 112q0 11 -4.5 15.5t-18.5 5.5z" />
    <glyph glyph-name="Eacute.sc" unicode="&#xe00d;" horiz-adv-x="494" 
d="M20 476v14q9 0 59 -2t75 -2h162q84 0 120 9q-6 -39 -4 -156l-12 -4q-8 49 -27 85q-15 29 -40 38.5t-79 9.5h-24q-16 0 -17 -11q-3 -33 -3 -100v-96h41q77 0 88 82h11q-10 -104 -3 -197l-13 1q-4 43 -23 68.5t-63 25.5q-31 0 -38 -1v-70q0 -108 2 -136q1 -10 9 -13.5
t34 -3.5q54 0 83.5 7t47.5 26q34 37 60 117l10 -4q-8 -93 -24 -169q-68 6 -180 6h-116q-23 0 -77 -2t-67 -2v14l39 3q29 4 30 23q4 52 4 141v162q0 84 -2 112q0 11 -4.5 15.5t-18.5 5.5zM226 543l-9 8q13 17 49.5 67.5t44.5 61.5q30 33 53 33q30 0 30 -29q0 -30 -43 -59
q-7 -5 -25 -16.5t-47 -30.5t-53 -35z" />
    <glyph glyph-name="Ecircumflex.sc" unicode="&#xe00e;" horiz-adv-x="494" 
d="M20 476v14q9 0 59 -2t75 -2h162q84 0 120 9q-6 -39 -4 -156l-12 -4q-8 49 -27 85q-15 29 -40 38.5t-79 9.5h-24q-16 0 -17 -11q-3 -33 -3 -100v-96h41q77 0 88 82h11q-10 -104 -3 -197l-13 1q-4 43 -23 68.5t-63 25.5q-31 0 -38 -1v-70q0 -108 2 -136q1 -10 9 -13.5
t34 -3.5q54 0 83.5 7t47.5 26q34 37 60 117l10 -4q-8 -93 -24 -169q-68 6 -180 6h-116q-23 0 -77 -2t-67 -2v14l39 3q29 4 30 23q4 52 4 141v162q0 84 -2 112q0 11 -4.5 15.5t-18.5 5.5zM252 715l10 4q26 -74 116 -174l-7 -8q-68 38 -114 81q-54 -47 -114 -81l-8 8
q45 48 75.5 95t41.5 75z" />
    <glyph glyph-name="Edieresis.sc" unicode="&#xe00f;" horiz-adv-x="494" 
d="M20 476v14q9 0 59 -2t75 -2h162q84 0 120 9q-6 -39 -4 -156l-12 -4q-8 49 -27 85q-15 29 -40 38.5t-79 9.5h-24q-16 0 -17 -11q-3 -33 -3 -100v-96h41q77 0 88 82h11q-10 -104 -3 -197l-13 1q-4 43 -23 68.5t-63 25.5q-31 0 -38 -1v-70q0 -108 2 -136q1 -10 9 -13.5
t34 -3.5q54 0 83.5 7t47.5 26q34 37 60 117l10 -4q-8 -93 -24 -169q-68 6 -180 6h-116q-23 0 -77 -2t-67 -2v14l39 3q29 4 30 23q4 52 4 141v162q0 84 -2 112q0 11 -4.5 15.5t-18.5 5.5zM169 671h1q24 0 38.5 -16t14.5 -40q0 -29 -17 -45.5t-39 -16.5q-23 0 -38.5 14
t-15.5 43q0 27 15.5 44t40.5 17zM345 671h1q24 0 38.5 -15.5t14.5 -40.5q0 -29 -17 -45.5t-39 -16.5q-23 0 -38.5 14t-15.5 43q0 27 15.5 44t40.5 17z" />
    <glyph glyph-name="Egrave.sc" unicode="&#xe010;" horiz-adv-x="494" 
d="M20 476v14q9 0 59 -2t75 -2h162q84 0 120 9q-6 -39 -4 -156l-12 -4q-8 49 -27 85q-15 29 -40 38.5t-79 9.5h-24q-16 0 -17 -11q-3 -33 -3 -100v-96h41q77 0 88 82h11q-10 -104 -3 -197l-13 1q-4 43 -23 68.5t-63 25.5q-31 0 -38 -1v-70q0 -108 2 -136q1 -10 9 -13.5
t34 -3.5q54 0 83.5 7t47.5 26q34 37 60 117l10 -4q-8 -93 -24 -169q-68 6 -180 6h-116q-23 0 -77 -2t-67 -2v14l39 3q29 4 30 23q4 52 4 141v162q0 84 -2 112q0 11 -4.5 15.5t-18.5 5.5zM275 543q-102 66 -122 81q-39 24 -39 54q0 15 9.5 24.5t23.5 9.5q22 0 48 -30
q12 -15 89 -131z" />
    <glyph glyph-name="Eth.sc" unicode="&#xe011;" horiz-adv-x="619" 
d="M27 248l2 23q4 0 28 -1t41 -1v52q0 87 -2 131q0 16 -17 19l-53 6l1 13q8 0 62 -2t69 -2q31 0 72 2t74 2q134 0 192 -33q91 -51 91 -199q0 -191 -154 -241q-60 -20 -145 -20q-31 0 -77.5 1.5t-60.5 1.5q-31 0 -77.5 -1.5t-52.5 -1.5l1 12l41 4q28 2 31 20q5 38 5 164v54
q-38 0 -71 -3zM344 271l-5 -24q-1 0 -96 2v-62q0 -128 3 -155q2 -18 33 -18q84 0 116 47q39 56 39 189q0 132 -38 179q-19 23 -42.5 33.5t-69.5 10.5q-35 0 -37 -15q0 -4 -1 -20.5t-2 -49.5t-1 -76v-43q26 -1 101 2z" />
    <glyph glyph-name="Euro.fitted" unicode="&#xe012;" horiz-adv-x="500" 
d="M225 364l203 2l-6 -25l-198 1v-51l180 2l-6 -26l-173 2q1 -41 6 -77.5t17 -78.5t37.5 -66.5t62.5 -24.5q48 0 77 23.5t49 85.5l12 -7q-24 -78 -66.5 -108t-116.5 -30q-117 0 -168.5 76.5t-59.5 206.5h-59l8 22h49q0 19 2 51h-42l8 22h36q13 118 76.5 193t176.5 75
q82 0 117 -29t35 -67q0 -28 -18.5 -44t-41.5 -16q-19 0 -27 7q-12 10 -9 24q5 18 5 42q0 36 -17 52t-43 16q-30 0 -51.5 -28t-32.5 -74t-15.5 -80.5t-6.5 -70.5z" />
    <glyph glyph-name="Euro.oldstyle" unicode="&#xe013;" horiz-adv-x="489" 
d="M218 305l190 1l-6 -23l-185 1v-49l168 1l-6 -24l-162 1q5 -192 119 -192q45 0 75 22.5t48 80.5l14 -8q-24 -71 -67 -100.5t-116 -29.5q-112 0 -164.5 63.5t-57.5 163.5h-56l8 22h47q0 35 2 49h-39l8 21h33q15 94 74 154.5t167 60.5q80 0 117.5 -28.5t37.5 -66.5
q0 -29 -18 -43t-41 -14q-16 0 -24 8q-12 10 -9 22q5 15 5 40q0 34 -18 50.5t-46 16.5q-29 0 -49 -22.5t-30 -59.5t-13.5 -63t-5.5 -55z" />
    <glyph glyph-name="F.sc" unicode="&#xe014;" horiz-adv-x="469" 
d="M17 476v14q9 0 73 -2q62 -2 86 -2h120q84 0 148 8q-3 -36 -3 -162h-12q-7 54 -30 92q-13 24 -37.5 34.5t-79.5 10.5h-34q-15 0 -15 -10q-3 -21 -3 -130v-80q8 -1 51 -1q45 0 68 16.5t27 61.5l13 -2q-3 -44 -2.5 -107.5t3.5 -85.5h-12q-8 52 -27 75.5t-71 23.5
q-34 0 -50 -2v-81q0 -97 2 -112q1 -18 20 -19q54 -6 57 -6l-2 -14q-13 0 -69 2t-82 2t-77.5 -2t-63.5 -2l-2 14l40 4q25 2 27 19q5 50 5 144v155q0 109 -3 124q-1 14 -22 16z" />
    <glyph glyph-name="G.sc" unicode="&#xe015;" horiz-adv-x="568" 
d="M495 305l-13 -1q-4 83 -47 131t-103 48q-66 0 -98 -51q-44 -68 -44 -191q0 -119 33 -178q35 -61 99 -61q45 0 50 39q4 32 1 131q0 28 -9 37t-39 12l-28 2l-2 13q15 0 62.5 -1.5t66.5 -1.5q71 0 129 4l2 -13q-24 -2 -33 -7.5t-10 -20.5q-2 -21 -2 -89q0 -52 5 -82
q-12 -3 -41 -10.5t-44 -11.5q-74 -18 -126 -18q-151 0 -214 73q-58 64 -58 181q0 68 27 123.5t76 89.5q70 49 182 49q62 0 103.5 -15.5t59.5 -32.5l18 48l9 -10q-15 -81 -12 -186z" />
    <glyph glyph-name="H.sc" unicode="&#xe016;" horiz-adv-x="618" 
d="M85 166v153q0 109 -1 132q-1 14 -12.5 19t-49.5 6l1 14q11 0 56 -2t69 -2q12 0 138 4l-1 -14q-32 -1 -41.5 -6.5t-11.5 -20.5q0 -5 -1 -45t-1 -70v-68q20 -1 84 -1q61 0 74 1v78q0 86 -1 111q-1 11 -12 15.5t-42 5.5l1 14q9 0 56.5 -2t71.5 -2q27 0 77 2t55 2v-14
q-37 -2 -46.5 -7.5t-11.5 -23.5q-3 -60 -3 -119v-145q0 -117 4 -149q1 -12 12.5 -16.5t49.5 -5.5l-5 -14q-18 0 -63.5 2t-68.5 2q-4 0 -132 -4l1 14q34 2 43.5 8t11.5 22q2 70 2 134v70q-34 2 -77 2q-41 0 -81 -2v-80q0 -111 2 -130q2 -12 12 -17t42 -7v-14q-12 0 -59 2
t-79 2q-20 0 -66 -2t-65 -2v14q38 1 50.5 6.5t13.5 19.5q4 46 4 130z" />
    <glyph glyph-name="I.sc" unicode="&#xe017;" horiz-adv-x="316" 
d="M85 161v166q0 111 -2 127q-1 12 -10 16t-47 6l1 14q6 0 50.5 -2t75.5 -2q37 0 82.5 2t52.5 2l1 -14q-36 -2 -45 -6.5t-11 -16.5q-3 -51 -3 -124v-168q0 -100 3 -127q2 -13 11 -17t48 -7l-2 -14q-11 0 -63 2t-76 2q-28 0 -74 -2t-55 -2v14q39 3 49 7t11 17q3 29 3 127z
" />
    <glyph glyph-name="Iacute.sc" unicode="&#xe018;" horiz-adv-x="316" 
d="M85 161v166q0 111 -2 127q-1 12 -10 16t-47 6l1 14q6 0 50.5 -2t75.5 -2q37 0 82.5 2t52.5 2l1 -14q-36 -2 -45 -6.5t-11 -16.5q-3 -51 -3 -124v-168q0 -100 3 -127q2 -13 11 -17t48 -7l-2 -14q-11 0 -63 2t-76 2q-28 0 -74 -2t-55 -2v14q39 3 49 7t11 17q3 29 3 127z
M144 543l-9 8q13 17 49.5 67.5t44.5 61.5q30 33 53 33q30 0 30 -29q0 -30 -43 -59q-7 -5 -25 -16.5t-47 -30.5t-53 -35z" />
    <glyph glyph-name="Icircumflex.sc" unicode="&#xe019;" horiz-adv-x="316" 
d="M85 161v166q0 111 -2 127q-1 12 -10 16t-47 6l1 14q6 0 50.5 -2t75.5 -2q37 0 82.5 2t52.5 2l1 -14q-36 -2 -45 -6.5t-11 -16.5q-3 -51 -3 -124v-168q0 -100 3 -127q2 -13 11 -17t48 -7l-2 -14q-11 0 -63 2t-76 2q-28 0 -74 -2t-55 -2v14q39 3 49 7t11 17q3 29 3 127z
M148 715l10 4q26 -74 116 -174l-7 -8q-68 38 -114 81q-54 -47 -114 -81l-8 8q45 48 75.5 95t41.5 75z" />
    <glyph glyph-name="Idieresis.sc" unicode="&#xe01a;" horiz-adv-x="316" 
d="M85 161v166q0 111 -2 127q-1 12 -10 16t-47 6l1 14q6 0 50.5 -2t75.5 -2q37 0 82.5 2t52.5 2l1 -14q-36 -2 -45 -6.5t-11 -16.5q-3 -51 -3 -124v-168q0 -100 3 -127q2 -13 11 -17t48 -7l-2 -14q-11 0 -63 2t-76 2q-28 0 -74 -2t-55 -2v14q39 3 49 7t11 17q3 29 3 127z
M72 671h1q24 0 38.5 -16t14.5 -40q0 -29 -17 -45.5t-39 -16.5q-23 0 -38.5 14t-15.5 43q0 27 15.5 44t40.5 17zM248 671h1q24 0 38.5 -15.5t14.5 -40.5q0 -29 -17 -45.5t-39 -16.5q-23 0 -38.5 14t-15.5 43q0 27 15.5 44t40.5 17z" />
    <glyph glyph-name="Igrave.sc" unicode="&#xe01b;" horiz-adv-x="316" 
d="M85 161v166q0 111 -2 127q-1 12 -10 16t-47 6l1 14q6 0 50.5 -2t75.5 -2q37 0 82.5 2t52.5 2l1 -14q-36 -2 -45 -6.5t-11 -16.5q-3 -51 -3 -124v-168q0 -100 3 -127q2 -13 11 -17t48 -7l-2 -14q-11 0 -63 2t-76 2q-28 0 -74 -2t-55 -2v14q39 3 49 7t11 17q3 29 3 127z
M178 543q-102 66 -122 81q-39 24 -39 54q0 15 9.5 24.5t23.5 9.5q22 0 48 -30q12 -15 89 -131z" />
    <glyph glyph-name="J.sc" unicode="&#xe01c;" horiz-adv-x="304" 
d="M19 476l3 14q14 0 59 -2t70 -2q27 0 77 2t58 2l-1 -14l-23 -3q-18 -1 -22.5 -5t-6.5 -15q-3 -26 -3 -319q0 -75 -16 -125q-18 -52 -56 -93q-35 -38 -79.5 -58.5t-84.5 -20.5q-29 0 -47 12.5t-18 27.5q0 18 15.5 33t28.5 15t22 -16q27 -44 53 -44q27 0 31 64q6 103 6 270
v147q0 85 -1 105q-2 11 -6 15.5t-16 5.5q-8 0 -43 4z" />
    <glyph glyph-name="K.sc" unicode="&#xe01d;" horiz-adv-x="584" 
d="M86 165v137q0 99 -2 149q-1 14 -10 18t-49 7l2 14q8 0 58.5 -2t76.5 -2q32 0 76 2t51 2l1 -14q-36 -2 -45 -6t-11 -18q-3 -54 -3 -146v-55q53 18 122 91.5t84 106.5q8 16 -10 19l-61 8l4 12q6 0 41.5 -0.5t56.5 -0.5q9 0 105 3l2 -13q-63 -6 -89 -25q-25 -19 -133 -132
q31 -61 97 -162t92 -128q9 -9 20 -12.5t46 -6.5l-3 -13q-67 2 -142 0q-53 -3 -82 -6q-9 19 -128 224q-14 22 -22 23v-60q0 -108 2 -146q2 -11 12 -15t51 -8l-1 -14q-12 0 -58 2t-74 2q-26 0 -80.5 -2t-65.5 -2l1 14q42 4 52.5 8t11.5 15q4 68 4 132z" />
    <glyph glyph-name="L.sc" unicode="&#xe01e;" horiz-adv-x="471" 
d="M443 177l12 -4q-7 -38 -20 -178q-23 4 -105 4q-49 1 -165 1q-28 0 -85 -1.5t-68 -1.5v13l45 4q24 1 24 19q5 42 5 164v142q0 82 -2 114q-1 18 -22 19l-40 4l1 14q9 0 57 -2t82 -2q27 0 72.5 2t70.5 2l3 -14l-51 -4q-20 -3 -21 -19q-4 -116 -4 -157l-1 -102
q-2 -129 2 -164q0 -13 28 -13q93 0 122 32q42 45 60 128z" />
    <glyph glyph-name="Lslash.sc" unicode="&#xe01f;" horiz-adv-x="479" 
d="M33 476v14q12 0 61.5 -2t80.5 -2q22 0 68.5 2t73.5 2l3 -14l-53 -4q-19 -1 -20 -19q-4 -40 -4 -159q65 35 78 45l15 -16q-81 -43 -94 -51v-74q0 -127 2 -167q2 -14 31 -14q85 0 118 34q41 43 60 122l13 -5q-4 -20 -8 -52t-7 -69.5t-5 -50.5q-8 1 -105 3q-50 1 -164 1
q-31 0 -89 -2t-69 -2v15l49 4q24 2 25 18q5 60 5 163q-12 -6 -54 -28l-14 15q27 13 69 36l-1 124q0 89 -3 111q-1 10 -4.5 13.5t-14.5 4.5z" />
    <glyph glyph-name="M.sc" unicode="&#xe020;" horiz-adv-x="711" 
d="M340 8l-61 -11q-16 47 -81.5 215.5t-85.5 224.5h-3q0 -114 4 -358q2 -36 9.5 -48.5t35.5 -16.5l36 -4v-14q-14 0 -48 2t-52 2q-23 0 -52 -2t-36 -2v14q7 1 19.5 2.5t15.5 1.5q19 3 27 16t12 45q18 216 13 373q-2 8 -4 11q-3 12 -21 13l-45 4l1 14q110 -4 118 -4
q72 0 99 3q7 -20 29.5 -72.5t52.5 -121.5t47 -109q27 69 63.5 172t44.5 131q8 -2 23 -3h47q22 0 46.5 0.5t50.5 2t37 1.5l4 -14q-13 -1 -30.5 -3t-18.5 -2q-11 0 -13 -18q-2 -24 -2 -84q0 -288 6 -332q1 -13 5.5 -17t17.5 -6l41 -4l-1 -14q-3 0 -52 2t-88 2
q-20 0 -45.5 -0.5t-54 -2t-40.5 -1.5l3 14q37 3 47 8.5t10 20.5q10 162 11 401h-3q-64 -189 -139 -432z" />
    <glyph glyph-name="N.sc" unicode="&#xe021;" horiz-adv-x="560" 
d="M11 476v14q5 0 40 -2t63 -2q74 0 117 4q11 -22 39 -64q84 -128 196 -279q0 228 -9 291q-2 19 -13 26.5t-35 9.5l-30 2l3 14q21 0 49.5 -2t44.5 -2q15 0 45.5 2t40.5 2v-14q-33 -5 -34 -5q-23 -4 -32 -34q-10 -46 -10 -259v-179q-74 0 -100 -8q-159 246 -277 420
q0 -322 8 -359q7 -31 32 -35l49 -7l-2 -14q-12 0 -48 2t-58 2q-13 0 -43.5 -2t-44.5 -2v14q12 0 36 4q32 4 39 45q13 82 13 375q-1 2 -3.5 6.5t-5 8.5t-4.5 7q-8 13 -23 16z" />
    <glyph glyph-name="Ntilde.sc" unicode="&#xe022;" horiz-adv-x="560" 
d="M11 476v14q5 0 40 -2t63 -2q74 0 117 4q11 -22 39 -64q84 -128 196 -279q0 228 -9 291q-2 19 -13 26.5t-35 9.5l-30 2l3 14q21 0 49.5 -2t44.5 -2q15 0 45.5 2t40.5 2v-14q-33 -5 -34 -5q-23 -4 -32 -34q-10 -46 -10 -259v-179q-74 0 -100 -8q-159 246 -277 420
q0 -322 8 -359q7 -31 32 -35l49 -7l-2 -14q-12 0 -48 2t-58 2q-13 0 -43.5 -2t-44.5 -2v14q12 0 36 4q32 4 39 45q13 82 13 375q-1 2 -3.5 6.5t-5 8.5t-4.5 7q-8 13 -23 16zM184 554l-15 4q14 108 79 108q21 0 68 -30q37 -24 54 -24q29 0 38 57l14 -5q-14 -108 -77 -108
q-22 0 -70 31q-35 24 -49 24q-33 0 -42 -57z" />
    <glyph glyph-name="O.sc" unicode="&#xe023;" horiz-adv-x="590" 
d="M300 501h1q124 0 190.5 -69.5t66.5 -182.5q0 -122 -66.5 -193t-197.5 -71q-134 0 -198 67t-64 183q0 52 14 97.5t43.5 84.5t83.5 61.5t127 22.5zM296 485h-1q-40 0 -64 -41q-32 -57 -32 -185q0 -149 31 -209q24 -49 72 -49q47 0 67 49q24 50 24 185q0 150 -30 207
q-24 43 -67 43z" />
    <glyph glyph-name="OE.sc" unicode="&#xe024;" horiz-adv-x="851" 
d="M446 246v1q0 123 -9 153q-12 40 -38 59t-71 19q-51 0 -81 -41q-45 -61 -45 -192q0 -120 36 -181q32 -52 92 -52q58 0 86 38q17 21 23.5 63.5t6.5 132.5zM522 486h158q79 0 115 6q-6 -39 -4 -157l-12 -4q-7 61 -24 94q-15 26 -40.5 35t-82.5 9h-23q-13 0 -14 -11
q-6 -44 -6 -127v-66q9 -1 44 -1q39 0 59.5 17t26.5 60h12q-10 -110 -4 -193h-13q-5 45 -22.5 71t-62.5 26q-31 0 -40 -1v-57q0 -102 4 -152q1 -11 8 -14.5t33 -3.5q102 0 132 34q40 45 58 120l10 -3q-2 -51 -21 -172q-68 4 -180 4h-120q-58 0 -70 -2v51q-60 -64 -158 -64
q-103 0 -159 38q-93 60 -93 211q0 72 25.5 130t71.5 91q63 46 163 46q101 0 150 -57v45q42 -3 79 -3z" />
    <glyph glyph-name="Oacute.sc" unicode="&#xe025;" horiz-adv-x="590" 
d="M300 501h1q124 0 190.5 -69.5t66.5 -182.5q0 -122 -66.5 -193t-197.5 -71q-134 0 -198 67t-64 183q0 52 14 97.5t43.5 84.5t83.5 61.5t127 22.5zM296 485h-1q-40 0 -64 -41q-32 -57 -32 -185q0 -149 31 -209q24 -49 72 -49q47 0 67 49q24 50 24 185q0 150 -30 207
q-24 43 -67 43zM270 543l-9 8q13 17 49.5 67.5t44.5 61.5q30 33 53 33q30 0 30 -29q0 -30 -43 -59q-7 -5 -25 -16.5t-47 -30.5t-53 -35z" />
    <glyph glyph-name="Ocircumflex.sc" unicode="&#xe026;" horiz-adv-x="590" 
d="M300 501h1q124 0 190.5 -69.5t66.5 -182.5q0 -122 -66.5 -193t-197.5 -71q-134 0 -198 67t-64 183q0 52 14 97.5t43.5 84.5t83.5 61.5t127 22.5zM296 485h-1q-40 0 -64 -41q-32 -57 -32 -185q0 -149 31 -209q24 -49 72 -49q47 0 67 49q24 50 24 185q0 150 -30 207
q-24 43 -67 43zM289 715l10 4q26 -74 116 -174l-7 -8q-68 38 -114 81q-54 -47 -114 -81l-8 8q45 48 75.5 95t41.5 75z" />
    <glyph glyph-name="Odieresis.sc" unicode="&#xe027;" horiz-adv-x="590" 
d="M300 501h1q124 0 190.5 -69.5t66.5 -182.5q0 -122 -66.5 -193t-197.5 -71q-134 0 -198 67t-64 183q0 52 14 97.5t43.5 84.5t83.5 61.5t127 22.5zM296 485h-1q-40 0 -64 -41q-32 -57 -32 -185q0 -149 31 -209q24 -49 72 -49q47 0 67 49q24 50 24 185q0 150 -30 207
q-24 43 -67 43zM210 673h1q24 0 38.5 -16t14.5 -40q0 -29 -17 -45.5t-39 -16.5q-23 0 -38.5 14t-15.5 43q0 27 15.5 44t40.5 17zM386 673h1q24 0 38.5 -15.5t14.5 -40.5q0 -29 -17 -45.5t-39 -16.5q-23 0 -38.5 14t-15.5 43q0 27 15.5 44t40.5 17z" />
    <glyph glyph-name="Ograve.sc" unicode="&#xe028;" horiz-adv-x="590" 
d="M300 501h1q124 0 190.5 -69.5t66.5 -182.5q0 -122 -66.5 -193t-197.5 -71q-134 0 -198 67t-64 183q0 52 14 97.5t43.5 84.5t83.5 61.5t127 22.5zM296 485h-1q-40 0 -64 -41q-32 -57 -32 -185q0 -149 31 -209q24 -49 72 -49q47 0 67 49q24 50 24 185q0 150 -30 207
q-24 43 -67 43zM317 543q-102 66 -122 81q-39 24 -39 54q0 15 9.5 24.5t23.5 9.5q22 0 48 -30q12 -15 89 -131z" />
    <glyph glyph-name="Oslash.sc" unicode="&#xe029;" horiz-adv-x="590" 
d="M480 525l24 -9l-42 -56q42 -30 69.5 -86t27.5 -124q0 -129 -72 -197t-197 -68q-94 0 -152 34l-42 -56l-26 7l48 60q-86 61 -86 203q0 123 73.5 195.5t197.5 72.5q77 0 139 -31q5 8 18.5 27t19.5 28zM301 484h-1q-46 0 -70 -44q-35 -68 -35 -194q0 -50 11 -113
q23 32 91 137t81 124q-26 90 -77 90zM290 1h1q46 0 72 44q33 55 33 203q0 80 -11 119q-16 -23 -83.5 -128.5t-88.5 -135.5q20 -66 40 -86q16 -16 37 -16z" />
    <glyph glyph-name="Otilde.sc" unicode="&#xe02a;" horiz-adv-x="590" 
d="M300 501h1q124 0 190.5 -69.5t66.5 -182.5q0 -122 -66.5 -193t-197.5 -71q-134 0 -198 67t-64 183q0 52 14 97.5t43.5 84.5t83.5 61.5t127 22.5zM296 485h-1q-40 0 -64 -41q-32 -57 -32 -185q0 -149 31 -209q24 -49 72 -49q47 0 67 49q24 50 24 185q0 150 -30 207
q-24 43 -67 43zM183 553l-15 4q14 108 79 108q21 0 68 -30q37 -24 54 -24q29 0 38 57l14 -5q-14 -108 -77 -108q-22 0 -70 31q-34 24 -49 24q-33 0 -42 -57z" />
    <glyph glyph-name="P.sc" unicode="&#xe02b;" horiz-adv-x="534" 
d="M85 213v114q0 100 -2 124q-1 21 -22 22l-45 4l5 13q2 0 53.5 -2t79.5 -2q35 0 88 2t68 2q73 0 105 -9.5t54 -29.5q40 -35 40 -106q0 -69 -41 -108q-50 -50 -157 -50q-29 0 -53 8l2 15q22 -9 37 -7q13 0 25 8.5t18 22.5q17 40 17 104q0 77 -25 108q-22 27 -70 27
q-17 0 -22 -3t-6 -12q-4 -28 -4 -155v-91v-81q0 -66 2 -94q1 -11 8 -15.5t24 -6.5l48 -5v-14q-6 0 -57 2t-100 2q-33 0 -82.5 -2t-60.5 -2v14l36 3q20 2 26 7t7 22q4 74 4 171z" />
    <glyph glyph-name="Q.alt" unicode="&#xe02c;" horiz-adv-x="694" 
d="M1058 -147l7 -11q-46 -67 -109 -99t-158 -32q-108 0 -280 128q-16 12 -62 48t-75 57q-56 38 -118 52q-105 24 -167 101.5t-62 211.5q0 157 81 251.5t236 94.5q141 0 224.5 -88.5t83.5 -241.5q0 -81 -23 -145t-62 -102t-81 -59.5t-88 -28.5v-4q74 -23 179 -77
q208 -106 328 -106q105 0 146 50zM345 640h-1q-57 0 -91 -57q-46 -81 -46 -256q0 -90 14 -165t38 -112q35 -57 95 -57t89 55q42 82 42 273q0 178 -44 261q-34 58 -96 58z" />
    <glyph glyph-name="Q.sc" unicode="&#xe02d;" horiz-adv-x="591" 
d="M627 -90l1 -7q-44 -57 -140 -57q-44 0 -83.5 25t-104.5 81q-30 26 -85 38q-183 43 -183 244q0 124 73.5 195.5t194.5 71.5q114 0 186 -66.5t72 -187.5q0 -63 -18 -112t-49 -78.5t-65.5 -46t-72.5 -22.5v-3q40 -10 133 -49q84 -33 141 -26zM298 485h-1q-42 0 -66 -42
q-33 -59 -33 -196q0 -56 9.5 -115t22.5 -86q23 -48 72 -48q46 0 66 49q25 55 25 188q0 146 -30 206q-23 44 -65 44z" />
    <glyph glyph-name="Q.scalt" unicode="&#xe02e;" horiz-adv-x="590" 
d="M938 -146l6 -12q-46 -56 -102.5 -83t-139.5 -27q-108 0 -239 104q-14 11 -43 35.5t-52 42t-46 32.5q-51 34 -107 47q-79 18 -131 75.5t-52 165.5q0 125 73 195.5t195 70.5q114 0 186 -66.5t72 -187.5q0 -120 -60.5 -182t-153.5 -73v-4q51 -7 189 -75q5 -2 29.5 -13.5
t30.5 -14.5t28 -13t30 -13t27.5 -11t29.5 -10.5t27.5 -7.5t29.5 -7t27 -3.5t29 -1.5q79 0 117 37zM299 484h-1q-43 0 -67 -41q-33 -59 -33 -197q0 -130 32 -198q23 -48 72 -48q47 0 67 49q24 53 24 186q0 145 -30 205q-24 44 -64 44z" />
    <glyph glyph-name="R.sc" unicode="&#xe02f;" horiz-adv-x="568" 
d="M85 181v126q0 116 -2 146q-1 18 -27 19l-41 4l4 13q6 0 57.5 -2t74.5 -2q30 0 86 2t92 2q92 0 130.5 -24.5t38.5 -87.5q0 -33 -16.5 -57.5t-41.5 -36.5q-45 -24 -118 -29v-5q100 -8 141.5 -35t45.5 -83q4 -50 4 -74q0 -50 34 -50q13 0 26 4l-2 -13q-33 -9 -89 -9
q-67 0 -96.5 24t-31.5 77q0 23 -2 63q-1 53 -27.5 70.5t-80.5 17.5h-14v-65q0 -87 3 -141q1 -13 11.5 -16.5t56.5 -7.5l-1 -14q-11 0 -55 1.5t-68 1.5q-27 0 -88.5 -1.5t-71.5 -1.5v14q43 3 54 7t12 17q0 4 0.5 23.5t1 52.5t0.5 70zM230 321v-63h16q50 0 71 14q32 23 32 97
q0 48 -15 72q-18 31 -65 31q-20 0 -27 -2q-10 -2 -10 -17v-7t-0.5 -16.5t-1 -25t-0.5 -36.5v-47z" />
    <glyph glyph-name="S.sc" unicode="&#xe030;" horiz-adv-x="460" 
d="M40 189l13 5q-1 -90 49 -141.5t116 -51.5q49 0 73.5 20.5t23.5 53.5q0 23 -11 37.5t-38 28.5q-15 8 -70.5 32t-77.5 36q-78 40 -78 123q0 84 60 130q51 39 137 39q84 0 131 -36l23 46l10 -5q-14 -78 -12 -188l-12 -1q-6 67 -46 117t-102 50q-38 0 -60 -19.5t-22 -55.5
q0 -46 59 -71q148 -61 171 -78q54 -37 55 -108q1 -64 -45 -110q-56 -58 -176 -58q-54 0 -117 13q-15 3 -62 12q8 52 8 180z" />
    <glyph glyph-name="Scaron.sc" unicode="&#xe031;" horiz-adv-x="460" 
d="M40 189l13 5q-1 -90 49 -141.5t116 -51.5q49 0 73.5 20.5t23.5 53.5q0 23 -11 37.5t-38 28.5q-15 8 -70.5 32t-77.5 36q-78 40 -78 123q0 84 60 130q51 39 137 39q84 0 131 -36l23 46l10 -5q-14 -78 -12 -188l-12 -1q-6 67 -46 117t-102 50q-38 0 -60 -19.5t-22 -55.5
q0 -46 59 -71q148 -61 171 -78q54 -37 55 -108q1 -64 -45 -110q-56 -58 -176 -58q-54 0 -117 13q-15 3 -62 12q8 52 8 180zM240 542l-10 -4q-26 74 -116 174l7 8q70 -41 114 -81q48 42 114 81l8 -8q-45 -48 -75.5 -95t-41.5 -75z" />
    <glyph glyph-name="T.sc" unicode="&#xe032;" horiz-adv-x="498" 
d="M322 365v-150q0 -119 3 -173q1 -24 21 -26l30 -2.5l30 -2.5v-14q-8 0 -70.5 1.5t-108.5 1.5q-25 0 -69.5 -1.5t-64.5 -1.5l-3 14q30 2 56 5q25 2 26 25q5 60 5 175v136q0 98 -2 119q-53 0 -74.5 -11t-35.5 -39q-24 -50 -38 -102l-12 7q12 86 17 171q21 -7 64 -8
q44 -3 104 -3h102q150 0 179 11q-8 -113 -7 -169l-12 -9q-11 81 -34 118q-11 19 -31 26.5t-74 7.5q-1 -20 -1 -106z" />
    <glyph glyph-name="Thorn.sc" unicode="&#xe034;" horiz-adv-x="531" 
d="M85 220v116q0 93 -1 114q-1 14 -12 19t-54 7l5 14q3 0 53 -2t77 -2q35 -1 83 1.5t57 2.5l1 -14q-39 -1 -48.5 -6t-11.5 -19q-3 -20 -3 -54q43 3 104 3q94 0 133 -36q38 -33 38 -105q0 -73 -45 -116q-51 -50 -163 -50q-35 0 -69 10q0 -46 2 -64q2 -14 13.5 -19.5
t61.5 -9.5l1 -14q-14 0 -61.5 2t-91.5 2q-30 0 -78 -2t-64 -2l1 14q44 3 54.5 8t12.5 23q5 93 5 179zM230 374l-1 -252q24 -11 46 -11q39 0 55 29q23 38 23 109q0 79 -23 110q-17 25 -64 25q-36 0 -36 -10z" />
    <glyph glyph-name="U.sc" unicode="&#xe035;" horiz-adv-x="548" 
d="M16 476v14q13 0 53.5 -2t73.5 -2q71 0 135 4l2 -14l-39 -5q-18 -2 -19 -20q-4 -50 -4.5 -156t3.5 -177q3 -53 36 -80q25 -20 74 -20q51 0 80.5 25.5t37.5 102.5q15 141 1 294q-1 16 -9 22.5t-28 8.5l-41 5l-2 14q11 0 40 -2t51 -2q23 0 50 2t35 2l2 -14l-31 -4
q-18 -2 -23 -8t-7 -23q-2 -34 -6 -150t-7 -140q-13 -98 -72 -136q-47 -30 -128 -30q-104 0 -153 44q-46 43 -46 123q0 269 -2 297q-1 22 -18 23z" />
    <glyph glyph-name="Uacute.sc" unicode="&#xe036;" horiz-adv-x="548" 
d="M16 476v14q13 0 53.5 -2t73.5 -2q71 0 135 4l2 -14l-39 -5q-18 -2 -19 -20q-4 -50 -4.5 -156t3.5 -177q3 -53 36 -80q25 -20 74 -20q51 0 80.5 25.5t37.5 102.5q15 141 1 294q-1 16 -9 22.5t-28 8.5l-41 5l-2 14q11 0 40 -2t51 -2q23 0 50 2t35 2l2 -14l-31 -4
q-18 -2 -23 -8t-7 -23q-2 -34 -6 -150t-7 -140q-13 -98 -72 -136q-47 -30 -128 -30q-104 0 -153 44q-46 43 -46 123q0 269 -2 297q-1 22 -18 23zM283 543l-9 8q13 17 49.5 67.5t44.5 61.5q30 33 53 33q30 0 30 -29q0 -30 -43 -59q-7 -5 -25 -16.5t-47 -30.5t-53 -35z" />
    <glyph glyph-name="Ucircumflex.sc" unicode="&#xe037;" horiz-adv-x="548" 
d="M16 476v14q13 0 53.5 -2t73.5 -2q71 0 135 4l2 -14l-39 -5q-18 -2 -19 -20q-4 -50 -4.5 -156t3.5 -177q3 -53 36 -80q25 -20 74 -20q51 0 80.5 25.5t37.5 102.5q15 141 1 294q-1 16 -9 22.5t-28 8.5l-41 5l-2 14q11 0 40 -2t51 -2q23 0 50 2t35 2l2 -14l-31 -4
q-18 -2 -23 -8t-7 -23q-2 -34 -6 -150t-7 -140q-13 -98 -72 -136q-47 -30 -128 -30q-104 0 -153 44q-46 43 -46 123q0 269 -2 297q-1 22 -18 23zM295 715l10 4q26 -74 116 -174l-7 -8q-68 38 -114 81q-54 -47 -114 -81l-8 8q45 48 75.5 95t41.5 75z" />
    <glyph glyph-name="Udieresis.sc" unicode="&#xe038;" horiz-adv-x="548" 
d="M16 476v14q13 0 53.5 -2t73.5 -2q71 0 135 4l2 -14l-39 -5q-18 -2 -19 -20q-4 -50 -4.5 -156t3.5 -177q3 -53 36 -80q25 -20 74 -20q51 0 80.5 25.5t37.5 102.5q15 141 1 294q-1 16 -9 22.5t-28 8.5l-41 5l-2 14q11 0 40 -2t51 -2q23 0 50 2t35 2l2 -14l-31 -4
q-18 -2 -23 -8t-7 -23q-2 -34 -6 -150t-7 -140q-13 -98 -72 -136q-47 -30 -128 -30q-104 0 -153 44q-46 43 -46 123q0 269 -2 297q-1 22 -18 23zM213 675h1q24 0 38.5 -16t14.5 -40q0 -29 -17 -45.5t-39 -16.5q-23 0 -38.5 14t-15.5 43q0 27 15.5 44t40.5 17zM389 675h1
q24 0 38.5 -15.5t14.5 -40.5q0 -29 -17 -45.5t-39 -16.5q-23 0 -38.5 14t-15.5 43q0 27 15.5 44t40.5 17z" />
    <glyph glyph-name="Ugrave.sc" unicode="&#xe039;" horiz-adv-x="548" 
d="M16 476v14q13 0 53.5 -2t73.5 -2q71 0 135 4l2 -14l-39 -5q-18 -2 -19 -20q-4 -50 -4.5 -156t3.5 -177q3 -53 36 -80q25 -20 74 -20q51 0 80.5 25.5t37.5 102.5q15 141 1 294q-1 16 -9 22.5t-28 8.5l-41 5l-2 14q11 0 40 -2t51 -2q23 0 50 2t35 2l2 -14l-31 -4
q-18 -2 -23 -8t-7 -23q-2 -34 -6 -150t-7 -140q-13 -98 -72 -136q-47 -30 -128 -30q-104 0 -153 44q-46 43 -46 123q0 269 -2 297q-1 22 -18 23zM333 543q-102 66 -122 81q-39 24 -39 54q0 15 9.5 24.5t23.5 9.5q22 0 48 -30q12 -15 89 -131z" />
    <glyph glyph-name="V.sc" unicode="&#xe03a;" horiz-adv-x="530" 
d="M-19 476v14q10 0 64 -2t75 -2q20 0 70 2t80 2l5 -14l-45 -5q-18 0 -10 -21q35 -112 119 -343q89 243 110 340q4 19 -16 22q-53 6 -64 7l-4 14q7 0 43.5 -2t51.5 -2q13 0 45 2t53 2l5 -14q-37 -2 -53 -11t-30 -37q-41 -81 -161 -438q-11 2 -47 2t-47 -2q-106 305 -169 450
q-11 22 -24 28.5t-51 7.5z" />
    <glyph glyph-name="W.sc" unicode="&#xe03b;" horiz-adv-x="752" 
d="M609 477l-4 13q12 0 43 -2t48 -2q12 0 39.5 2t44.5 2v-13q-36 -4 -47.5 -13t-22.5 -37q-22 -52 -65 -192t-72 -245q-18 2 -48 2t-40 -2q-8 28 -116 369q-79 -310 -92 -369q-7 2 -42 2t-44 -2q-111 378 -134 434q-14 35 -25 43.5t-46 9.5v13q11 0 57.5 -2t75.5 -2
q21 0 66 2t70 2l2 -13l-33 -5q-19 -3 -16 -16q35 -141 84 -317q19 69 50 197.5t35 151.5q27 -3 102 0q10 -35 52.5 -170.5t60.5 -193.5q76 239 87 324q5 21 -21 24z" />
    <glyph glyph-name="X.sc" unicode="&#xe03c;" horiz-adv-x="512" 
d="M508 14l35 -4l2 -14q-13 0 -41.5 1.5t-56.5 2t-55 0.5q-34 0 -78.5 -2t-67.5 -2l-1 14q33 4 40.5 9.5t2.5 17.5q-19 41 -86 167q-58 -84 -93 -152q-10 -20 -6 -27t23 -9l52 -6l3 -14q-11 0 -45 2t-60 2q-18 0 -48.5 -2t-45.5 -2l-3 14q35 2 49 7.5t31 24.5q25 26 133 179
q-85 168 -133 236q-10 16 -67 19l-4 14q21 0 69.5 -2t77.5 -2q23 0 70.5 2t67.5 2l5 -13l-37 -4q-17 -3 -11 -17q21 -49 72 -138q57 77 82 129q11 22 -22 26l-34 3l4 14q17 0 46.5 -2t38.5 -2q18 0 47.5 2t46.5 2l4 -14q-43 -3 -62.5 -11t-39.5 -28q-10 -10 -25 -30
t-37.5 -52t-38.5 -53q133 -235 151 -259q24 -27 45 -29z" />
    <glyph glyph-name="Y.sc" unicode="&#xe03d;" horiz-adv-x="492" 
d="M414 10l3 -14q-24 0 -83 2t-96 2q-34 0 -80.5 -2t-69.5 -2l-2 14q17 1 63 7q23 1 28 26q6 46 6 154q0 15 -10 35q-13 29 -54.5 103t-66.5 108q-15 20 -29 25.5t-48 7.5v14q3 0 61.5 -2t90.5 -2q37 0 81.5 2t55.5 2l2 -14l-39 -4q-17 -1 -12 -19q6 -13 46.5 -93.5
t57.5 -114.5q64 124 92 203q7 21 -13 23q-38 4 -54 5l1 14q9 0 41 -2t50 -2q16 0 43.5 2t45.5 2l3 -14q-36 -1 -51.5 -8.5t-31.5 -28.5q-11 -15 -27.5 -43.5t-28 -50.5t-30 -58.5t-21.5 -43.5q-10 -21 -10 -39q-3 -127 6 -172q3 -15 21 -16q2 0 22 -2.5t37 -3.5z" />
    <glyph glyph-name="Yacute.sc" unicode="&#xe03e;" horiz-adv-x="492" 
d="M414 10l3 -14q-24 0 -83 2t-96 2q-34 0 -80.5 -2t-69.5 -2l-2 14q17 1 63 7q23 1 28 26q6 46 6 154q0 15 -10 35q-13 29 -54.5 103t-66.5 108q-15 20 -29 25.5t-48 7.5v14q3 0 61.5 -2t90.5 -2q37 0 81.5 2t55.5 2l2 -14l-39 -4q-17 -1 -12 -19q6 -13 46.5 -93.5
t57.5 -114.5q64 124 92 203q7 21 -13 23q-38 4 -54 5l1 14q9 0 41 -2t50 -2q16 0 43.5 2t45.5 2l3 -14q-36 -1 -51.5 -8.5t-31.5 -28.5q-11 -15 -27.5 -43.5t-28 -50.5t-30 -58.5t-21.5 -43.5q-10 -21 -10 -39q-3 -127 6 -172q3 -15 21 -16q2 0 22 -2.5t37 -3.5zM249 543
l-9 8q13 17 49.5 67.5t44.5 61.5q30 33 53 33q30 0 30 -29q0 -30 -43 -59q-7 -5 -25 -16.5t-47 -30.5t-53 -35z" />
    <glyph glyph-name="Ydieresis.sc" unicode="&#xe03f;" horiz-adv-x="492" 
d="M414 10l3 -14q-24 0 -83 2t-96 2q-34 0 -80.5 -2t-69.5 -2l-2 14q17 1 63 7q23 1 28 26q6 46 6 154q0 15 -10 35q-13 29 -54.5 103t-66.5 108q-15 20 -29 25.5t-48 7.5v14q3 0 61.5 -2t90.5 -2q37 0 81.5 2t55.5 2l2 -14l-39 -4q-17 -1 -12 -19q6 -13 46.5 -93.5
t57.5 -114.5q64 124 92 203q7 21 -13 23q-38 4 -54 5l1 14q9 0 41 -2t50 -2q16 0 43.5 2t45.5 2l3 -14q-36 -1 -51.5 -8.5t-31.5 -28.5q-11 -15 -27.5 -43.5t-28 -50.5t-30 -58.5t-21.5 -43.5q-10 -21 -10 -39q-3 -127 6 -172q3 -15 21 -16q2 0 22 -2.5t37 -3.5zM180 675h1
q24 0 38.5 -16t14.5 -40q0 -29 -17 -45.5t-39 -16.5q-23 0 -38.5 14t-15.5 43q0 27 15.5 44t40.5 17zM356 675h1q24 0 38.5 -15.5t14.5 -40.5q0 -29 -17 -45.5t-39 -16.5q-23 0 -38.5 14t-15.5 43q0 27 15.5 44t40.5 17z" />
    <glyph glyph-name="Z.sc" unicode="&#xe040;" horiz-adv-x="517" 
d="M57 296l-10 5q17 129 10 194q13 -3 62 -9q19 -1 123 -1q84 0 126 1q25 1 114 3q-10 -42 -23 -61l-115 -190q-92 -149 -136 -221q108 0 156.5 10.5t68.5 36.5q38 53 57 139l11 -6q-12 -135 -13 -202q-16 2 -94 4q-34 1 -102 1h-179q-52 0 -82 -1l-7 13q123 182 286 456
h-54q-72 0 -106.5 -14.5t-50.5 -44.5q-19 -35 -42 -113z" />
    <glyph glyph-name="Zcaron.sc" unicode="&#xe041;" horiz-adv-x="517" 
d="M57 296l-10 5q17 129 10 194q13 -3 62 -9q19 -1 123 -1q84 0 126 1q25 1 114 3q-10 -42 -23 -61l-115 -190q-92 -149 -136 -221q108 0 156.5 10.5t68.5 36.5q38 53 57 139l11 -6q-12 -135 -13 -202q-16 2 -94 4q-34 1 -102 1h-179q-52 0 -82 -1l-7 13q123 182 286 456
h-54q-72 0 -106.5 -14.5t-50.5 -44.5q-19 -35 -42 -113zM273 542l-10 -4q-26 74 -116 174l7 8q70 -41 114 -81q48 42 114 81l8 -8q-45 -48 -75.5 -95t-41.5 -75z" />
    <glyph glyph-name="c_t" unicode="&#xe042;" horiz-adv-x="777" 
d="M770 418l-3 -16l-110 -7q-3 -108 -3 -172q0 -140 4 -176q3 -30 30 -30q31 0 52.5 29t25.5 62h5l11 -25q-14 -44 -55 -70t-98 -26q-68 0 -97 34q-17 21 -18 61q-1 54 -0.5 94.5t2.5 115t2 104.5l-59 6l5 16h55v95q0 18 -9 27q-6 6 -34 11t-46 5q-61 0 -82 -17.5t-21 -62.5
q0 -30 17 -55q38 -9 58 -35t20 -57q0 -30 -21 -44t-47 -14q-17 0 -30 9q-12 7 -9 22q6 32 6 42q0 76 -60 76q-40 0 -62 -54t-22 -146q0 -74 18 -122q29 -76 101 -76q85 0 120 106l14 -6q-38 -136 -185 -136q-68 0 -107.5 15.5t-68.5 51.5q-42 50 -42 148q0 104 61 168.5
t175 64.5q31 0 57 -7q-21 23 -21 52q0 41 34.5 72t122.5 31q65 0 77 -6q81 16 128 33l3 -4q-6 -87 -6 -187h112z" />
    <glyph glyph-name="cent.fitted" unicode="&#xe043;" horiz-adv-x="500" 
d="M446 237l1 -33q-24 -42 -67.5 -65.5t-85.5 -26.5l-3 -84l-27 -9l6 92q-118 1 -170 56q-53 51 -53 146q0 105 68.5 165.5t177.5 62.5l3 77l27 7l-6 -85q66 -3 101.5 -29.5t35.5 -67.5q0 -24 -14.5 -38t-35.5 -14q-17 0 -28 8.5t-5 23.5q6 22 6 37q0 55 -62 64
q-17 -307 -19 -387q108 2 141 102zM189 327v-1q0 -110 28 -150q18 -29 56 -38q1 22 9 166t10 222q-29 -3 -50.5 -23.5t-32.5 -52t-15.5 -62t-4.5 -61.5z" />
    <glyph glyph-name="currency.taboldstyle" unicode="&#xe044;" horiz-adv-x="479" 
d="M238 380h-1q-49 0 -76 -42t-27 -108q0 -76 28.5 -115t74.5 -39q51 0 77 41t26 109q0 66 -24 110t-78 44zM242 409h1q59 0 100 -31l55 71l40 -39l-69 -59q40 -40 40 -124q0 -79 -42 -124l71 -63l-38 -40l-61 78q-42 -32 -102 -32q-61 0 -104 29l-56 -73l-36 40l66 60
q-42 43 -42 123q0 82 47 128l-68 57l38 40l57 -72q44 31 103 31z" />
    <glyph glyph-name="dollar.fitted" unicode="&#xe045;" horiz-adv-x="500" 
d="M368 122v1q0 37 -22.5 56.5t-84.5 51.5l-8 -201q52 2 83.5 26t31.5 66zM149 503v-1q0 -35 24.5 -57t75.5 -46l9 196q-57 -1 -83 -27.5t-26 -64.5zM262 686l25 6l-6 -82q87 -4 127 -39l16 43l10 -6q-22 -112 -22 -196l-14 3q1 75 -29 122t-89 57l-12 -204q128 -64 142 -74
q54 -39 54 -121q0 -69 -41 -112q-62 -65 -171 -69l-2 -87l-28 -9l6 96q-23 0 -50.5 3t-43 6t-47.5 9.5t-39 7.5q11 70 16 185l13 5q-2 -101 41 -148.5t112 -50.5l10 209q-78 36 -112 57q-71 45 -71 135q0 82 61 133q54 45 141 45z" />
    <glyph glyph-name="dotlessi.sc" unicode="&#xe046;" horiz-adv-x="316" 
d="M85 161v166q0 111 -2 127q-1 12 -10 16t-47 6l1 14q6 0 50.5 -2t75.5 -2q37 0 82.5 2t52.5 2l1 -14q-36 -2 -45 -6.5t-11 -16.5q-3 -51 -3 -124v-168q0 -100 3 -127q2 -13 11 -17t48 -7l-2 -14q-11 0 -63 2t-76 2q-28 0 -74 -2t-55 -2v14q39 3 49 7t11 17q3 29 3 127z
" />
    <glyph glyph-name="egrave.superior" unicode="&#xe047;" horiz-adv-x="332" 
d="M197 597l-10 -6l-35 28t-33 26t-16 13q-14 11 -16 28q0 12 8.5 19.5t17.5 7.5q18 0 32 -19q5 -7 25.5 -47t26.5 -50zM305 387q-24 -82 -136 -82q-78 0 -114 37q-29 29 -29 86q0 61 38.5 99.5t113.5 38.5q40 0 68 -10.5t40 -28t16.5 -31t4.5 -27.5q0 -19 -10 -23t-53 -8
q-14 -1 -33.5 -1t-44 0.5t-35.5 0.5q-1 -38 13 -69q16 -39 64 -39q63 0 87 62zM177 555h-1q-19 0 -30.5 -27.5t-13.5 -73.5q20 -2 36 -2q25 0 37 3q10 3 10 16q0 84 -38 84z" />
    <glyph glyph-name="florin.fitted" unicode="&#xe04a;" horiz-adv-x="500" 
d="M36 325l11 27q57 -3 83 -3q13 93 33 142.5t48 79.5q66 71 158 71q42 0 69.5 -20t27.5 -52q0 -29 -16.5 -42.5t-42.5 -13.5q-11 0 -22.5 6.5t-9.5 17.5q3 16 3 36q0 51 -30 51q-25 0 -38 -54q-12 -54 -32 -222q68 0 122 3l-9 -28q-78 3 -116 3q-20 -167 -40 -269
q-14 -84 -44 -133t-80 -80q-53 -34 -123 -34q-36 0 -60 17t-24 42q0 24 16 40t41 16q26 0 32 -28q15 -62 44 -62q17 0 24.5 15t14.5 57q10 73 28.5 226.5t23.5 192.5q-8 0 -92 -2z" />
    <glyph glyph-name="florin.oldstyle" unicode="&#xe04b;" horiz-adv-x="486" 
d="M51 297l10 26q13 -2 76 -2q21 143 75 202q59 64 156 64q39 0 64.5 -19t25.5 -49q0 -27 -16.5 -40.5t-40.5 -13.5q-11 0 -22.5 6.5t-9.5 16.5q3 33 3 34q0 49 -25 49q-26 0 -36 -47q-11 -46 -29 -203q88 0 112 2l-8 -26q-46 2 -108 2q-19 -156 -34 -240
q-25 -144 -114 -200q-51 -32 -115 -32q-39 0 -63 16.5t-24 41.5q0 22 16 38.5t39 16.5q22 0 31 -31q14 -60 36 -60q17 0 24.5 13.5t14.5 54.5q9 66 25 204.5t21 177.5q-38 0 -84 -2z" />
    <glyph glyph-name="g.superior" unicode="&#xe04c;" horiz-adv-x="346" 
d="M93 267l3 -7q-22 -9 -22 -31q0 -20 25.5 -35.5t71.5 -15.5q56 0 83 19t27 43q0 31 -42 31h-123q-60 0 -86 31q-16 18 -16 46q0 40 46 72q-22 20 -22 52q0 49 40 71.5t91 22.5q55 0 76 -14q42 33 69 33q12 0 22.5 -7t10.5 -14q-2 -6 -12 -17.5t-16 -12.5q-18 12 -38 12
q-15 0 -22 -2q36 -23 36 -65q0 -33 -22 -54t-50 -28.5t-60 -7.5q-65 0 -91 20q-22 -5 -22 -28t34 -23q18 0 72 1t99 1q33 0 56 -17q28 -21 28 -60q0 -59 -56 -91t-134 -32q-62 0 -96.5 17.5t-34.5 45.5q0 17 29 32q20 10 46 12zM166 552h-1q-30 0 -30 -72q0 -78 32 -78
q30 0 30 75t-31 75z" />
    <glyph glyph-name="germandbls.sc" unicode="&#xe04d;" horiz-adv-x="920" 
d="M40 189l13 5q-1 -90 49 -141.5t116 -51.5q49 0 73.5 20.5t23.5 53.5q0 23 -11 37.5t-38 28.5q-15 8 -70.5 32t-77.5 36q-78 40 -78 123q0 84 60 130q51 39 137 39q84 0 131 -36l23 46l10 -5q-14 -78 -12 -188l-12 -1q-6 67 -46 117t-102 50q-38 0 -60 -19.5t-22 -55.5
q0 -46 59 -71q148 -61 171 -78q54 -37 55 -108q1 -64 -45 -110q-56 -58 -176 -58q-54 0 -117 13q-15 3 -62 12q8 52 8 180zM500 189l13 5q-1 -90 49 -141.5t116 -51.5q49 0 73.5 20.5t23.5 53.5q0 23 -11 37.5t-38 28.5q-15 8 -70.5 32t-77.5 36q-78 40 -78 123q0 84 60 130
q51 39 137 39q84 0 131 -36l23 46l10 -5q-14 -78 -12 -188l-12 -1q-6 67 -46 117t-102 50q-38 0 -60 -19.5t-22 -55.5q0 -46 59 -71q148 -61 171 -78q54 -37 55 -108q1 -64 -45 -110q-56 -58 -176 -58q-54 0 -117 13q-15 3 -62 12q8 52 8 180z" />
    <glyph glyph-name="numbersign.oldstyle" unicode="&#xe04e;" horiz-adv-x="455" 
d="M288 277h-101l-24 -96h102zM206 471l33 3q-8 -20 -35 -124h101q23 101 26 121l34 3q-19 -52 -36 -124q21 0 52.5 0.5t38.5 0.5q-10 -36 -17 -75h-90l-25 -94q96 2 103 2q-10 -36 -17 -76q-8 0 -41 0.5t-60 1.5q-5 -25 -14.5 -72t-13.5 -66l-34 -4q7 25 37 142h-102
q-13 -53 -31 -138l-32 -6q6 17 38 144q-16 -1 -46 -1.5t-41 -0.5q9 30 15 75q4 0 90 -2l24 96q-38 1 -102 -1q9 28 16 75q9 0 47.5 -0.5t55.5 -0.5q18 69 26 121z" />
    <glyph glyph-name="bullet.001" unicode="&#xe04f;" horiz-adv-x="865" 
d="M501 422q75 9 75 66q0 39 -37 64q-14 10 -8 21q4 8 17 12.5t24 1.5q-4 5 -29 45q-15 27 -4.5 36t34.5 2q44 -11 65 -43t21 -69q0 -56 -42 -101t-118 -51q-5 -50 -24 -107q-2 -5 0 -8.5t6 -3t9 7.5q49 69 114 69q55 0 83 -45t36 -147q4 -53 14.5 -70.5t28.5 -17.5
q13 0 22.5 13t9.5 37q0 20 -9 32t-17 16q-12 5 -4 13q18 20 37 20q12 0 23.5 -12.5t11.5 -37.5q0 -41 -54 -95q-39 -39 -78 -39q-81 0 -108 123q-17 76 -78 76q-15 0 -24 -9.5t-5 -16.5q20 -40 20 -77q0 -48 -63 -131q-36 -48 -36 -88q0 -17 5.5 -23t16.5 -6q19 0 54 63
q8 12 15 -7q2 -7 2 -12q1 -31 -18 -49.5t-43 -18.5q-31 0 -54 23q-9 10 -30 17q-24 7 -45.5 30.5t-21.5 64.5q0 59 64 131q44 50 41 79q0 15 -14 28.5t-38 13.5q-33 0 -51 -19.5t-50 -79.5q-37 -66 -109 -66q-41 0 -77 30.5t-36 69.5q0 20 8 34.5t15.5 19.5t14.5 6q4 1 4 -1
t-2 -11q-9 -31 8 -51t48 -20q36 0 48.5 37t-4.5 78q-6 13 7 33q9 14 23.5 28.5t47 30.5t69.5 16q72 0 101 -58q5 -11 13 -12t13 7q31 41 38 91q-137 12 -137 112q0 26 18.5 47.5t47.5 29.5q-27 22 -83 22q-61 0 -99 -33.5t-38 -82.5q0 -14 26 -33q11 -8 11 -18
q0 -5 -6.5 -8.5t-12.5 -0.5q-16 2 -18.5 2.5t-16 -3.5t-15.5 -5q-8 -5 -17 6q-6 11 -6 35q0 53 37 97q60 72 155 72q47 0 84 -22t56.5 -55.5t29 -65.5t9.5 -58q0 -16 -1 -21zM479 421q1 10 1 22q0 39 -16 78t-47 64q-18 -4 -30.5 -22.5t-12.5 -38.5q0 -50 30.5 -75t74.5 -28
z" />
    <glyph glyph-name="bullet.002" unicode="&#xe050;" horiz-adv-x="865" 
d="M364 104q-75 -9 -75 -66q0 -39 37 -64q14 -10 8 -21q-4 -8 -17 -12.5t-24 -1.5q4 -5 29 -45q15 -27 4.5 -36t-34.5 -2q-44 11 -65 43t-21 69q0 56 42 101t118 51q5 50 24 107q2 5 0 8.5t-6 3t-9 -7.5q-49 -69 -114 -69q-55 0 -83 45t-36 147q-4 53 -14.5 70.5t-28.5 17.5
q-13 0 -22.5 -13t-9.5 -37q0 -20 9 -32t17 -16q12 -5 4 -13q-18 -20 -37 -20q-12 0 -23.5 12.5t-11.5 37.5q0 41 54 95q39 39 78 39q81 0 108 -123q17 -76 78 -76q15 0 24 9.5t5 16.5q-20 40 -20 77q0 48 63 131q36 48 36 88q0 17 -5.5 23t-16.5 6q-19 0 -54 -63
q-8 -12 -15 7q-2 7 -2 12q-1 31 18 49.5t43 18.5q31 0 54 -23q9 -10 30 -17q24 -7 45.5 -30.5t21.5 -64.5q0 -59 -64 -131q-44 -50 -41 -79q0 -15 14 -28.5t38 -13.5q33 0 51 19.5t50 79.5q37 66 109 66q41 0 77 -30.5t36 -69.5q0 -20 -8 -34.5t-15.5 -19.5t-14.5 -6
q-4 -1 -4 1t2 11q9 31 -8 51t-48 20q-36 0 -48.5 -37t4.5 -78q6 -13 -7 -33q-9 -14 -23.5 -28.5t-47 -30.5t-69.5 -16q-72 0 -101 58q-5 11 -13 12t-13 -7q-31 -41 -38 -91q137 -12 137 -112q0 -26 -18.5 -47.5t-47.5 -29.5q27 -22 83 -22q61 0 99 33.5t38 82.5q0 14 -26 33
q-11 8 -11 18q0 5 6.5 8.5t12.5 0.5q16 -2 18.5 -2.5t16 3.5t15.5 5q8 5 17 -6q6 -11 6 -35q0 -53 -37 -97q-60 -72 -155 -72q-47 0 -84 22t-56.5 55.5t-29 65.5t-9.5 58q0 16 1 21zM386 105q-1 -10 -1 -22q0 -39 16 -78t47 -64q18 4 30.5 22.5t12.5 38.5q0 50 -30.5 75
t-74.5 28z" />
    <glyph glyph-name="bullet.003" unicode="&#xe051;" horiz-adv-x="865" 
d="M592 196q9 -75 66 -75q39 0 64 37q10 14 21 8q8 -4 12.5 -17t1.5 -24q5 4 45 29q27 15 36 4.5t2 -34.5q-11 -44 -43 -65t-69 -21q-56 0 -101 42t-51 118q-50 5 -107 24q-5 2 -8.5 0t-3 -6t7.5 -9q69 -49 69 -114q0 -55 -45 -83t-147 -36q-53 -4 -70.5 -14.5t-17.5 -28.5
q0 -13 13 -22.5t37 -9.5q20 0 32 9t16 17q5 12 13 4q20 -18 20 -37q0 -12 -12.5 -23.5t-37.5 -11.5q-41 0 -95 54q-39 39 -39 78q0 81 123 108q76 17 76 78q0 15 -9.5 24t-16.5 5q-40 -20 -77 -20q-48 0 -131 63q-48 36 -88 36q-17 0 -23 -5.5t-6 -16.5q0 -19 63 -54
q12 -8 -7 -15q-7 -2 -12 -2q-31 -1 -49.5 18t-18.5 43q0 31 23 54q10 9 17 30q7 24 30.5 45.5t64.5 21.5q59 0 131 -64q50 -44 79 -41q15 0 28.5 14t13.5 38q0 33 -19.5 51t-79.5 50q-66 37 -66 109q0 41 30.5 77t69.5 36q20 0 34.5 -8t19.5 -15.5t6 -14.5q1 -4 -1 -4t-11 2
q-31 9 -51 -8t-20 -48q0 -36 37 -48.5t78 4.5q13 6 33 -7q14 -9 28.5 -23.5t30.5 -47t16 -69.5q0 -72 -58 -101q-11 -5 -12 -13t7 -13q41 -31 91 -38q12 137 112 137q26 0 47.5 -18.5t29.5 -47.5q22 27 22 83q0 61 -33.5 99t-82.5 38q-14 0 -33 -26q-8 -11 -18 -11
q-5 0 -8.5 6.5t-0.5 12.5q2 16 2.5 18.5t-3.5 16t-5 15.5q-5 8 6 17q11 6 35 6q53 0 97 -37q72 -60 72 -155q0 -47 -22 -84t-55.5 -56.5t-65.5 -29t-58 -9.5q-16 0 -21 1zM591 218q10 -1 22 -1q39 0 78 16t64 47q-4 18 -22.5 30.5t-38.5 12.5q-50 0 -75 -30.5t-28 -74.5z
" />
    <glyph glyph-name="bullet.004" unicode="&#xe052;" horiz-adv-x="865" 
d="M276 331q-9 75 -66 75q-39 0 -64 -37q-10 -14 -21 -8q-8 4 -12.5 17t-1.5 24q-5 -4 -45 -29q-27 -15 -36 -4.5t-2 34.5q11 44 43 65t69 21q56 0 101 -42t51 -118q50 -5 107 -24q5 -2 8.5 0t3 6t-7.5 9q-69 49 -69 114q0 55 45 83t147 36q53 4 70.5 14.5t17.5 28.5
q0 13 -13 22.5t-37 9.5q-20 0 -32 -9t-16 -17q-5 -12 -13 -4q-20 18 -20 37q0 12 12.5 23.5t37.5 11.5q41 0 95 -54q39 -39 39 -78q0 -81 -123 -108q-76 -17 -76 -78q0 -15 9.5 -24t16.5 -5q40 20 77 20q48 0 131 -63q48 -36 88 -36q17 0 23 5.5t6 16.5q0 19 -63 54
q-12 8 7 15q7 2 12 2q31 1 49.5 -18t18.5 -43q0 -31 -23 -54q-10 -9 -17 -30q-7 -24 -30.5 -45.5t-64.5 -21.5q-59 0 -131 64q-50 44 -79 41q-15 0 -28.5 -14t-13.5 -38q0 -33 19.5 -51t79.5 -50q66 -37 66 -109q0 -41 -30.5 -77t-69.5 -36q-20 0 -34.5 8t-19.5 15.5
t-6 14.5q-1 4 1 4t11 -2q31 -9 51 8t20 48q0 36 -37 48.5t-78 -4.5q-13 -6 -33 7q-14 9 -28.5 23.5t-30.5 47t-16 69.5q0 72 58 101q11 5 12 13t-7 13q-41 31 -91 38q-12 -137 -112 -137q-26 0 -47.5 18.5t-29.5 47.5q-22 -27 -22 -83q0 -61 33.5 -99t82.5 -38q14 0 33 26
q8 11 18 11q5 0 8.5 -6.5t0.5 -12.5q-2 -16 -2.5 -18.5t3.5 -16t5 -15.5q5 -8 -6 -17q-11 -6 -35 -6q-53 0 -97 37q-72 60 -72 155q0 47 22 84t55.5 56.5t65.5 29t58 9.5q16 0 21 -1zM277 309q-10 1 -22 1q-39 0 -78 -16t-64 -47q4 -18 22.5 -30.5t38.5 -12.5q50 0 75 30.5
t28 74.5z" />
    <glyph glyph-name="bullet.005" unicode="&#xe053;" horiz-adv-x="877" 
d="M664 343q-6 -50 -6 -60q0 -80 42.5 -124.5t82.5 -44.5q18 0 22 4q3 7 3 21q0 72 -39 126.5t-105 77.5zM653 370q24 71 69 101q21 15 53 15q37 0 57 -22t20 -43q0 -15 -10.5 -24t-19.5 -12q-10 -3 -15 5q-16 30 -51 30q-27 0 -50.5 -16t-32.5 -40q85 -35 132 -107t47 -157
q0 -40 -12 -76t-33 -54q-32 7 -69 -7q-10 -10 -10 2q0 13 10 20l9 5q9 4 14.5 9t14.5 14.5t16.5 25t12.5 35.5q-64 -8 -117.5 53.5t-53.5 144.5q0 29 10 79q-23 5 -42 5q-120 0 -130 -96q53 15 71 -20q18 -33 18 -68q0 -89 -58 -145q-61 -57 -179 -57q-125 0 -207 74
q-55 49 -55 111q0 35 22 94q23 58 23 84q0 37 -30.5 43.5t-52.5 -15.5q-14 -14 -14 6t12 32.5t31 12.5q45 0 68 -47q16 -36 -6 -110q-16 -53 -16 -90q0 -25 16.5 -43.5t40.5 -18.5q33 0 56 24.5t23 62.5t-25 97q-11 25 -3 47q26 67 93 67q66 0 97 -22q22 -12 22 -31
q16 -54 22 -65q4 34 40 65t103 31q36 0 69 -9z" />
    <glyph glyph-name="bullet.006" unicode="&#xe054;" horiz-adv-x="877" 
d="M664 37q66 23 105 77.5t39 126.5q0 14 -3 21q-4 4 -22 4q-40 0 -82.5 -44.5t-42.5 -124.5q0 -10 6 -60zM653 9q-33 -9 -69 -9q-67 0 -103 31t-40 66q-6 -11 -22 -65q0 -19 -22 -31q-31 -22 -97 -22q-67 0 -93 67q-8 22 3 47q25 59 25 97t-23 62.5t-56 24.5
q-24 0 -40.5 -18.5t-16.5 -43.5q0 -37 16 -90q22 -74 6 -110q-23 -47 -68 -47q-19 0 -31 12.5t-12 32.5q0 21 14 7q22 -22 52.5 -15.5t30.5 43.5q0 26 -23 83q-22 59 -22 94q0 62 55 111q82 74 207 74q118 0 179 -57q58 -56 58 -145q0 -35 -18 -69q-18 -35 -71 -20
q10 -96 130 -96q19 0 42 5q-10 50 -10 79q0 83 53.5 145t117.5 54q-5 20 -12.5 35.5t-16.5 25t-14.5 14.5t-14.5 9l-9 5q-10 7 -10 20q0 12 10 2q37 -14 69 -7q21 -18 33 -54t12 -76q0 -85 -47 -157t-132 -107q9 -24 32.5 -39.5t50.5 -15.5q34 0 51 29q5 8 15 5
q5 -1 11 -4.5t12.5 -12t6.5 -18.5q0 -21 -20 -43t-57 -22q-32 0 -53 15q-45 30 -69 99z" />
    <glyph glyph-name="bullet.007" unicode="&#xe055;" horiz-adv-x="877" 
d="M213 343q-66 -23 -105 -77.5t-39 -126.5q0 -14 3 -21q4 -4 22 -4q40 0 82.5 44.5t42.5 124.5q0 10 -6 60zM224 370q33 9 69 9q67 0 103 -31t40 -65q6 11 22 65q0 19 22 31q31 22 97 22q67 0 93 -67q8 -22 -3 -47q-25 -59 -25 -97t23 -62.5t56 -24.5q24 0 40.5 18.5
t16.5 43.5q0 37 -16 90q-22 74 -6 110q23 47 68 47q19 0 31 -12.5t12 -32.5q0 -10 -4.5 -11.5t-9.5 5.5q-22 22 -52.5 15.5t-30.5 -43.5q0 -25 23 -85q22 -57 22 -93q0 -62 -55 -111q-82 -74 -207 -74q-118 0 -179 57q-58 56 -58 145q0 35 18 68q18 35 71 20q-10 96 -130 96
q-19 0 -42 -5q10 -50 10 -79q0 -83 -53.5 -144.5t-117.5 -53.5q5 -20 12.5 -35.5t16.5 -25t14.5 -14.5t14.5 -9l9 -5q10 -7 10 -20q0 -12 -10 -2q-37 14 -69 7q-21 18 -33 54t-12 76q0 86 47 157.5t132 106.5q-9 24 -32.5 40t-50.5 16q-35 0 -51 -30q-5 -8 -15 -5
q-5 1 -11 5t-12.5 12.5t-6.5 18.5q0 21 20 43t57 22q32 0 53 -15q45 -30 69 -101z" />
    <glyph glyph-name="bullet.008" unicode="&#xe056;" horiz-adv-x="877" 
d="M213 37q6 50 6 60q0 80 -42.5 124.5t-82.5 44.5q-18 0 -22 -4q-3 -7 -3 -21q0 -72 39 -126.5t105 -77.5zM224 9q-24 -70 -69 -99q-21 -15 -53 -15q-37 0 -57 22t-20 43q0 14 10.5 23t19.5 12q10 3 15 -5q17 -29 51 -29q27 0 50.5 15.5t32.5 39.5q-85 35 -132 107t-47 157
q0 40 12 76t33 54q32 -7 69 7q10 10 10 -2q0 -13 -10 -20l-9 -5q-9 -4 -14.5 -9t-14.5 -14.5t-16.5 -25t-12.5 -35.5q64 8 117.5 -54t53.5 -145q0 -29 -10 -79q23 -5 42 -5q120 0 130 96q-53 -15 -71 20q-18 34 -18 69q0 89 58 145q61 57 179 57q125 0 207 -74
q55 -49 55 -111q0 -36 -22 -93q-23 -58 -23 -84q0 -37 30.5 -43.5t52.5 15.5q14 14 14 -7q0 -20 -12 -32.5t-31 -12.5q-45 0 -68 47q-16 36 6 110q16 53 16 90q0 25 -16.5 43.5t-40.5 18.5q-33 0 -56 -24.5t-23 -62.5t25 -97q11 -25 3 -47q-26 -67 -93 -67q-66 0 -97 22
q-22 12 -22 31q-15 54 -22 64q-4 -34 -40 -65t-103 -31q-36 0 -69 9z" />
    <glyph glyph-name="bullet.009" unicode="&#xe057;" horiz-adv-x="718" 
d="M447 33l-8 12q15 19 15 76q0 110 -44 166q-44 58 -126 58q-50 0 -94.5 -42.5t-44.5 -115.5q0 -60 30.5 -86.5t65.5 -26.5q27 0 60 22.5t33 59.5q0 30 -18.5 47t-43.5 17q-26 0 -39.5 -16.5t-13.5 -37.5q0 -17 9 -30q5 -5 -2 -5q-4 0 -10 4q-22 15 -22 47q0 27 20 52.5
t63 25.5q47 0 77.5 -42t30.5 -101q0 -77 -50 -111.5t-124 -34.5q-48 0 -85.5 18.5t-58.5 45.5t-34.5 61.5t-18 61t-4.5 49.5q0 130 88 223q106 111 257 111q162 0 265 -139q50 -67 69 -132.5t19 -106.5q0 -112 -43 -149q-13 -8 -23 -4q-28 11 -91.5 18t-103.5 5zM466 249
q36 3 72 33t36 87q0 56 -41 84q-4 3 -6 -1t0 -9q13 -61 -12 -102q-22 -34 -57 -34q-6 0 -10 7.5t4 13.5q11 7 27 33.5t16.5 66.5t-35.5 67q-9 7 -9 -1q11 -16 2.5 -58.5t-29.5 -55.5q-13 -9 -24 0q-5 4 1 8q9 8 16.5 28.5t7.5 40.5q0 25 -15.5 45.5t-49.5 21.5q-12 0 -13 -2
t3 -5q30 -27 30 -83q0 -19 -6 -31.5t-12.5 -17t-11.5 -4.5q-7 0 -8 1.5t3 9.5q6 14 6 31q0 39 -29 64t-55 23q-25 -1 -38 -8q-8 -4 4 -8q1 -1 2 -1q30 -12 49.5 -38.5t19.5 -48.5q0 -24 -12 -29q28 -2 45 -6t42 -16t46.5 -38.5t40.5 -67.5zM279 372q4 32 -17 62.5t-62 30.5
q-39 0 -59 -28q-4 -5 -3 -8t5 -3q37 0 55 -18q18 -16 18 -33q0 -3 0.5 -5t2 -3t3.5 0q7 4 26 5.5t31 -0.5zM128 264q4 7 -6 17q-29 28 -60 7t-31 -59q0 -30 10 -29q1 0 2 1q39 11 54 2q14 -8 17.5 -8t3.5 8q0 26 10 61zM109 177q-6 4 -24 3.5t-26 -7.5q-12 -10 -12 -38
q0 -11 6.5 -26.5t12.5 -20.5q14 -14 18 -2q9 30 29 44q9 7 7 21q-7 24 -11 26zM146 71q5 40 -16 40q-16 0 -21 -20q-7 -26 1.5 -51.5t27.5 -35.5q17 -9 16 -2q0 1 -1 3q-12 17 -7 66zM61 335q-2 -8 6 -8q9 0 32.5 -9.5t34.5 -20.5q8 -8 13 1q15 23 48 47q12 9 6 18
q-14 23 -45.5 29.5t-65.5 -15.5q-21 -16 -29 -42zM238 -9h1q9 0 10.5 2.5t-3.5 18.5q-4 14 -28 34.5t-33 20.5q-8 0 -10 -2.5t-2 -14.5q0 -13 6.5 -31t16.5 -21q20 -7 42 -7zM668 257q-5 -35 -27 -59.5t-49 -33t-56.5 -11t-50.5 4.5q6 -53 -6 -95q120 -10 176 -25
q25 41 28 72q-38 -37 -86 -39q-49 -2 -71 13q-11 7 -6 11q1 1 3 1q29 -6 61.5 -0.5t51.5 20.5q42 34 42 91q0 44 -10 50zM473 223q4 -9 10 -41q23 -2 48 2.5t50.5 15.5t42 35.5t16.5 58.5q0 38 -21 64q-3 3 -5.5 1.5t-2.5 -4.5q-10 -122 -138 -132zM320 37q5 19 -3 21
q-15 8 -46 -6q-23 -10 -13 -24q14 -23 31 -21q9 1 18.5 11t12.5 19zM347 82q9 4 12.5 9.5t-4.5 11.5q-26 9 -26 -13q0 -18 18 -8z" />
    <glyph glyph-name="bullet.010" unicode="&#xe058;" horiz-adv-x="718" 
d="M439 467l8 12q40 -2 103.5 5t91.5 18q10 4 23 -4q43 -37 43 -149q0 -41 -19 -106.5t-69 -132.5q-103 -139 -265 -139q-151 0 -257 111q-88 93 -88 223q0 23 4.5 49.5t18 61t34.5 61.5t58.5 45.5t85.5 18.5q74 0 124 -34.5t50 -111.5q0 -59 -30.5 -101t-77.5 -42
q-43 0 -63 25.5t-20 52.5q0 32 22 47q12 8 13 2q0 -2 -1 -3q-9 -13 -9 -30q0 -21 13.5 -37.5t39.5 -16.5q25 0 43.5 17t18.5 47q0 37 -33 59.5t-60 22.5q-35 0 -65.5 -26.5t-30.5 -86.5q0 -73 44.5 -115.5t94.5 -42.5q82 0 126 58q44 56 44 166q0 57 -15 76zM466 263
q-19 -41 -40.5 -67.5t-46.5 -38.5t-42 -16t-45 -6q12 -5 12 -29q0 -22 -19.5 -48.5t-49.5 -38.5q-11 -5 -6 -9q13 -7 38 -8q26 -2 55 23t29 64q0 17 -6 31q-4 8 -3 9.5t8 1.5q5 0 11.5 -4.5t12.5 -17t6 -31.5q0 -56 -30 -83q-4 -7 10 -7q34 1 49.5 21.5t15.5 45.5
q0 20 -7.5 40.5t-16.5 28.5q-9 6 3 10q11 4 20 -2q21 -13 29.5 -55.5t-2.5 -58.5q0 -8 9 -1q36 27 35.5 67t-16.5 66.5t-27 33.5q-8 6 -4 13.5t10 7.5q35 0 57 -34q25 -41 12 -102q-2 -5 0 -9t6 -1q41 28 41 84q0 57 -36 87t-72 33zM279 140q-12 -2 -31 -0.5t-26 5.5
q-3 1 -4.5 -1t-1.5 -7q0 -16 -18 -33q-18 -18 -55 -18q-4 0 -5 -3t3 -8q20 -28 59 -28q41 0 62 30.5t17 62.5zM128 248q-10 35 -10 61q0 8 -3.5 8t-17.5 -8q-15 -9 -54 2q-7 4 -10 -9q-2 -8 -2 -19q0 -38 31 -59t60 7q10 10 6 17zM109 335q4 2 11 26q2 14 -7 21
q-20 14 -29 44q-4 12 -18 -2q-6 -5 -12.5 -20.5t-6.5 -26.5q0 -28 12 -38q8 -7 26 -7.5t24 3.5zM146 441q-5 49 7 66q3 7 -3 6q-5 -1 -12 -5q-19 -10 -27.5 -35.5t-1.5 -51.5q5 -20 21 -20q21 0 16 40zM61 177q8 -26 29 -42q34 -22 65.5 -15.5t45.5 29.5q6 9 -6 18
q-33 24 -48 47q-5 9 -13 1q-11 -11 -34.5 -20.5t-32.5 -9.5q-8 0 -6 -8zM238 521h-1q-21 0 -41 -7q-10 -3 -16.5 -21t-6.5 -31q0 -12 2 -14.5t10 -2.5q9 0 33 20.5t28 34.5q5 16 3.5 18.5t-11.5 2.5zM668 255q10 6 10 50q0 57 -42 91q-19 15 -51.5 20.5t-61.5 -0.5
q-4 -1 -4 2q-1 5 7 10q22 15 71 13q48 -2 86 -39q-3 31 -28 72q-56 -15 -176 -25q12 -42 6 -95q21 7 50.5 4.5t56.5 -11t49 -33t27 -59.5zM473 289q128 -10 138 -132q0 -3 2.5 -4.5t5.5 1.5q21 26 21 64q0 34 -16.5 58.5t-42 35.5t-50.5 15.5t-48 2.5q-6 -32 -10 -41z
M320 475q-3 9 -12.5 19t-18.5 11q-17 2 -31 -21q-10 -14 13 -24q31 -14 46 -6q8 2 3 21zM347 430q-18 10 -18 -8q0 -22 26 -13q8 6 4.5 11.5t-12.5 9.5z" />
    <glyph glyph-name="bullet.011" unicode="&#xe059;" horiz-adv-x="718" 
d="M279 45l-8 -12q-40 2 -103.5 -5t-91.5 -18q-10 -4 -23 4q-43 37 -43 149q0 41 19 106.5t69 132.5q103 139 265 139q151 0 257 -111q88 -93 88 -223q0 -23 -4.5 -49.5t-18 -61t-34.5 -61.5t-58.5 -45.5t-85.5 -18.5q-74 0 -124 34.5t-50 111.5q0 59 30.5 101t77.5 42
q43 0 63 -25.5t20 -52.5q0 -32 -22 -47q-12 -8 -13 -2q0 2 1 3q9 13 9 30q0 21 -13.5 37.5t-39.5 16.5q-25 0 -43.5 -17t-18.5 -47q0 -37 33 -59.5t60 -22.5q35 0 65.5 26.5t30.5 86.5q0 73 -44.5 115.5t-94.5 42.5q-82 0 -126 -58q-44 -56 -44 -166q0 -57 15 -76zM252 249
q19 41 40.5 67.5t46.5 38.5t42 16t45 6q-12 5 -12 29q0 22 19.5 48.5t49.5 38.5q11 5 6 9q-13 7 -38 8q-26 2 -55 -23t-29 -64q0 -17 6 -31q4 -8 3 -9.5t-8 -1.5q-5 0 -11.5 4.5t-12.5 17t-6 31.5q0 56 30 83q4 7 -10 7q-34 -1 -49.5 -21.5t-15.5 -45.5q0 -20 7.5 -40.5
t16.5 -28.5q9 -6 -3 -10q-11 -4 -20 2q-21 13 -29.5 55.5t2.5 58.5q0 8 -9 1q-36 -27 -35.5 -67t16.5 -66.5t27 -33.5q8 -6 4 -13.5t-10 -7.5q-35 0 -57 34q-25 41 -12 102q2 5 0 9t-6 1q-41 -28 -41 -84q0 -57 36 -87t72 -33zM439 372q12 2 31 0.5t26 -5.5q3 -1 4.5 1
t1.5 7q0 17 18 33q18 18 55 18q4 0 5 3t-3 8q-20 28 -59 28q-41 0 -62 -30.5t-17 -62.5zM590 264q10 -35 10 -61q0 -8 3.5 -8t17.5 8q15 9 54 -2q7 -4 10 9q2 8 2 19q0 38 -31 59t-60 -7q-10 -10 -6 -17zM609 177q-4 -2 -11 -26q-2 -14 7 -21q20 -14 29 -44q4 -12 18 2
q6 5 12.5 20.5t6.5 26.5q0 28 -12 38q-8 7 -26 7.5t-24 -3.5zM572 71q5 -49 -7 -66q-3 -7 3 -6q5 1 12 5q19 10 27.5 35.5t1.5 51.5q-5 20 -21 20q-21 0 -16 -40zM657 335q-8 26 -29 42q-34 22 -65.5 15.5t-45.5 -29.5q-6 -9 6 -18q33 -24 48 -47q5 -9 13 -1
q11 11 34.5 20.5t32.5 9.5q8 0 6 8zM480 -9h1q21 0 41 7q10 3 16.5 21t6.5 31q0 12 -2 14.5t-10 2.5q-9 0 -33 -20.5t-28 -34.5q-5 -16 -3.5 -18.5t11.5 -2.5zM50 257q-10 -6 -10 -50q0 -57 42 -91q19 -15 51.5 -20.5t61.5 0.5q4 1 4 -2q1 -5 -7 -10q-22 -15 -71 -13
q-48 2 -86 39q3 -31 28 -72q56 15 176 25q-12 42 -6 95q-21 -7 -50.5 -4.5t-56.5 11t-49 33t-27 59.5zM245 223q-128 10 -138 132q0 3 -2.5 4.5t-5.5 -1.5q-21 -26 -21 -64q0 -34 16.5 -58.5t42 -35.5t50.5 -15.5t48 -2.5q6 32 10 41zM398 37q3 -9 12.5 -19t18.5 -11
q17 -2 31 21q10 14 -13 24q-31 14 -46 6q-8 -2 -3 -21zM371 82q18 -10 18 8q0 22 -26 13q-8 -6 -4.5 -11.5t12.5 -9.5z" />
    <glyph glyph-name="bullet.012" unicode="&#xe05a;" horiz-adv-x="718" 
d="M271 479l8 -12q-15 -19 -15 -76q0 -110 44 -166q44 -58 126 -58q50 0 94.5 42.5t44.5 115.5q0 60 -30.5 86.5t-65.5 26.5q-27 0 -60 -22.5t-33 -59.5q0 -30 18.5 -47t43.5 -17q26 0 39.5 16.5t13.5 37.5q0 17 -9 30q-5 5 2 5q4 0 10 -4q22 -15 22 -47q0 -27 -20 -52.5
t-63 -25.5q-47 0 -77.5 42t-30.5 101q0 77 50 111.5t124 34.5q48 0 85.5 -18.5t58.5 -45.5t34.5 -61.5t18 -61t4.5 -49.5q0 -130 -88 -223q-106 -111 -257 -111q-162 0 -265 139q-50 67 -69 132.5t-19 106.5q0 112 43 149q13 8 23 4q28 -11 91.5 -18t103.5 -5zM252 263
q-36 -3 -72 -33t-36 -87q0 -56 41 -84q4 -3 6 1t0 9q-13 61 12 102q22 34 57 34q6 0 10 -7.5t-4 -13.5q-11 -7 -27 -33.5t-16.5 -66.5t35.5 -67q9 -7 9 1q-11 16 -2.5 58.5t29.5 55.5q13 9 24 0q5 -4 -1 -8q-9 -8 -16.5 -28.5t-7.5 -40.5q0 -25 15.5 -45.5t49.5 -21.5
q12 0 13 2t-3 5q-30 27 -30 83q0 19 6 31.5t12.5 17t11.5 4.5q7 0 8 -1.5t-3 -9.5q-6 -14 -6 -31q0 -39 29 -64t55 -23q25 1 38 8q8 4 -4 8q-1 1 -2 1q-30 12 -49.5 38.5t-19.5 48.5q0 24 12 29q-28 2 -45 6t-42 16t-46.5 38.5t-40.5 67.5zM439 140q-4 -32 17 -62.5
t62 -30.5q39 0 59 28q4 5 3 8t-5 3q-37 0 -55 18q-18 16 -18 33q0 3 -0.5 5t-2 3t-3.5 0q-7 -4 -26 -5.5t-31 0.5zM590 248q-4 -7 6 -17q29 -28 60 -7t31 59q0 30 -10 29q-1 0 -2 -1q-39 -11 -54 -2q-14 8 -17.5 8t-3.5 -8q0 -26 -10 -61zM609 335q6 -4 24 -3.5t26 7.5
q12 10 12 38q0 11 -6.5 26.5t-12.5 20.5q-14 14 -18 2q-9 -30 -29 -44q-9 -7 -7 -21q7 -24 11 -26zM572 441q-5 -40 16 -40q16 0 21 20q7 26 -1.5 51.5t-27.5 35.5q-17 9 -16 2q0 -1 1 -3q12 -17 7 -66zM657 177q2 8 -6 8q-9 0 -32.5 9.5t-34.5 20.5q-8 8 -13 -1
q-15 -23 -48 -47q-12 -9 -6 -18q14 -23 45.5 -29.5t65.5 15.5q21 16 29 42zM480 521h-1q-9 0 -10.5 -2.5t3.5 -18.5q4 -14 28 -34.5t33 -20.5q8 0 10 2.5t2 14.5q0 13 -6.5 31t-16.5 21q-20 7 -42 7zM50 255q5 35 27 59.5t49 33t56.5 11t50.5 -4.5q-6 53 6 95
q-120 10 -176 25q-25 -41 -28 -72q38 37 86 39q49 2 71 -13q11 -7 6 -11q-1 -1 -3 -1q-29 6 -61.5 0.5t-51.5 -20.5q-42 -34 -42 -91q0 -44 10 -50zM245 289q-4 9 -10 41q-23 2 -48 -2.5t-50.5 -15.5t-42 -35.5t-16.5 -58.5q0 -38 21 -64q3 -3 5.5 -1.5t2.5 4.5
q10 122 138 132zM398 475q-5 -19 3 -21q15 -8 46 6q23 10 13 24q-14 23 -31 21q-9 -1 -18.5 -11t-12.5 -19zM371 430q-9 -4 -12.5 -9.5t4.5 -11.5q26 -9 26 13q0 18 -18 8z" />
    <glyph glyph-name="bullet.013" unicode="&#xe05b;" horiz-adv-x="881" 
d="M282 490h1q60 0 127.5 -19.5t154.5 -78t154 -149.5q-6 30 -20.5 64.5t-39 72.5t-64.5 70.5t-88 48.5q9 18 23 23q1 0 9 0.5t15.5 0t20.5 -1t25.5 -3t28 -7t31.5 -12t33 -17t34.5 -24.5t34.5 -33q114 -121 114 -297q0 -107 -27 -146q-13 -13 -32 -13q-13 0 -4 21l7 16
q6 15 10 28t8 40.5t4 58.5q0 156 -74.5 252t-186.5 109q-3 1 -3 -2q-1 -4 4 -6q82 -43 146.5 -174t64.5 -285q0 -10 -14 -22t-22 -12q-7 0 -7 26q0 8 -9 1q-42 -33 -47 -33q-10 0 -14 13q-9 29 -39.5 49.5t-75.5 20.5q-37 0 -65 -14q-8 2 -8 3q0 8 10 20q9 11 27.5 18.5
t53.5 5.5t73 -22q-23 61 -73.5 102.5t-113.5 41.5q-39 0 -58 -8q-14 -6 -14 10q0 33 34 56t96 23q53 0 117 -32q-70 95 -161 139.5t-173 44.5q-179 0 -179 -123q0 -50 28.5 -84t67.5 -34q62 0 96 58q6 13 16 6q29 -21 54 -63t25 -90q0 -73 -50 -116t-126 -43
q-96 0 -166.5 71.5t-70.5 188.5q0 22 5.5 50.5t24 67t47.5 69.5t81 52.5t119 21.5zM205 164h-1q-38 0 -64 31.5t-35 70t-6 73.5q1 13 -2 15t-11 -4q-51 -40 -51 -125q0 -103 65 -165.5t146 -62.5q63 0 110.5 38.5t37.5 120.5q-1 8 -6 8q-3 0 -4 -5q-18 -108 -142 -108
q-80 0 -133.5 69.5t-39.5 151.5q2 10 6 11q3 1 4 -3v-7q-1 -15 8.5 -40t28.5 -52.5t54.5 -47t78.5 -19.5q52 0 82 23t30 50q0 15 -7 28.5t-18 18.5q-34 -70 -131 -70zM715 51l27 -4q-1 93 -55 162.5t-153 69.5q-81 0 -100 -23q-12 -12 -1 -11q88 11 153.5 -32.5
t128.5 -161.5z" />
    <glyph glyph-name="bullet.014" unicode="&#xe05c;" horiz-adv-x="881" 
d="M282 0h-1q-67 0 -119 22t-80.5 53t-47 69.5t-24 67t-5.5 50.5q0 116 70.5 188t166.5 72q76 0 126 -43t50 -117q0 -47 -25 -89t-54 -63q-10 -6 -16 6q-34 58 -96 58q-39 0 -67.5 -34t-28.5 -84q0 -124 179 -124q82 0 173 44.5t161 140.5q-64 -32 -117 -32q-62 0 -96 23
t-34 56q0 16 14 10q19 -8 58 -8q63 0 113.5 41t73.5 102q-38 -20 -73 -22t-53.5 5.5t-27.5 18.5q-10 12 -10 20v5v2q1 0 3 -1q3 -2 5 -3q28 -14 65 -14q45 0 75.5 21t39.5 50q4 13 14 13q5 0 47 -33q9 -8 9 1q0 26 7 26q8 0 22 -12t14 -23q0 -154 -64.5 -285t-146.5 -174
q-7 -3 -4 -7q1 -1 3 -1q112 13 186.5 109t74.5 252q0 31 -4 58.5t-8 41t-10 29.5l-7 15q-9 21 4 21q19 0 32 -13q27 -39 27 -147q0 -175 -114 -297q-17 -18 -34.5 -33t-34.5 -24.5t-33 -17t-31.5 -12t-28 -7t-25.5 -3t-20.5 -1t-15.5 0t-9 0.5q-14 5 -23 23q48 16 88 48.5
t64.5 71t39 73t20.5 64.5q-51 -70 -113 -121t-121.5 -77t-109 -38t-93.5 -12zM205 327h1q96 0 130 -70q25 13 25 47q0 27 -30 50t-82 23q-43 0 -78.5 -19.5t-54.5 -47t-28.5 -52.5t-8.5 -40q1 -9 -2.5 -10t-6.5 5q-1 3 -1 6q-14 82 39.5 151.5t133.5 69.5q124 0 142 -108
q1 -8 6 -4q3 2 4 7q5 43 -7 75.5t-36 50t-50.5 25.5t-54.5 8q-81 0 -146 -62.5t-65 -165.5q0 -85 51 -125q8 -6 11 -4t2 15q-3 35 6 73.5t35 70t65 31.5zM742 443l-27 -4q-63 -117 -128.5 -160.5t-153.5 -32.5q-11 1 1 -11q19 -23 100 -23q99 0 153 69.5t55 161.5z" />
    <glyph glyph-name="bullet.015" unicode="&#xe05d;" horiz-adv-x="881" 
d="M599 490h1q56 0 102 -15t74.5 -39.5t49.5 -53t31 -59.5t14.5 -53.5t4.5 -40.5q0 -117 -70.5 -188.5t-166.5 -71.5q-76 0 -126 43t-50 116q0 48 25 90t54 63q10 7 16 -6q34 -58 96 -58q39 0 67.5 34t28.5 84q0 123 -179 123q-82 0 -173 -44.5t-161 -139.5q64 32 117 32
q62 0 96 -23t34 -56q0 -16 -14 -10q-19 8 -58 8q-63 0 -113.5 -41.5t-73.5 -102.5q38 20 73 22t53.5 -5.5t27.5 -18.5q10 -12 10 -20v-5v-2q-1 0 -3 1q-3 2 -5 3q-28 14 -65 14q-45 0 -75.5 -20.5t-39.5 -49.5q-4 -13 -14 -13q-5 0 -47 33q-9 7 -9 -1q0 -26 -7 -26
q-8 0 -22 12t-14 22q0 154 64.5 285t146.5 174q7 3 4 7q-1 1 -3 1q-112 -13 -186.5 -109t-74.5 -252q0 -31 4 -58.5t8 -40.5t11 -28l6 -16q9 -21 -4 -21q-19 0 -32 13q-27 39 -27 146q0 176 114 297q17 18 34.5 33t34.5 24.5t33 17t31.5 12t28 7t25.5 3t20.5 1t15.5 0
t9 -0.5q14 -5 23 -23q-48 -16 -88 -48.5t-64.5 -70.5t-39 -72.5t-20.5 -64.5q67 91 154 149.5t155 78t128 19.5zM676 164h-1q-96 0 -130 70q-11 -5 -18 -18.5t-7 -28.5q0 -27 30 -50t82 -23q43 0 78.5 19.5t54.5 47t28.5 52.5t8.5 40q-1 9 2.5 10t6.5 -5q1 -3 1 -6
q14 -82 -39.5 -151.5t-133.5 -69.5q-124 0 -142 108q-1 8 -6 4q-3 -2 -4 -7q-10 -82 37.5 -120.5t110.5 -38.5q81 0 146 62.5t65 165.5q0 85 -51 125q-8 6 -11 4t-2 -15q3 -35 -6 -73.5t-35 -70t-65 -31.5zM139 47l27 4q63 118 128.5 161.5t153.5 32.5q11 -1 -1 11
q-19 23 -100 23q-99 0 -153 -69.5t-55 -162.5z" />
    <glyph glyph-name="bullet.016" unicode="&#xe05e;" horiz-adv-x="881" 
d="M599 0h-1q-43 0 -93 12t-109 38t-121 77t-113 121q6 -30 20.5 -64.5t39 -73t64.5 -71t88 -48.5q-9 -18 -23 -23q-1 0 -9 -0.5t-15.5 0t-20.5 1t-25.5 3t-28 7t-31.5 12t-33 17t-34.5 24.5t-34.5 33q-114 122 -114 297q0 108 27 147q13 13 32 13q13 0 4 -21l-6 -15
q-7 -16 -11 -29.5t-8 -41t-4 -58.5q0 -156 74.5 -252t186.5 -109q3 -1 3 2q1 4 -4 6q-82 43 -146.5 174t-64.5 285q0 11 14 23t22 12q7 0 7 -26q0 -8 9 -1q42 33 47 33q10 0 14 -13q9 -29 39.5 -50t75.5 -21q37 0 65 14q8 -2 8 -3q0 -8 -10 -20q-9 -11 -27.5 -18.5
t-53.5 -5.5t-73 22q23 -61 73.5 -102t113.5 -41q39 0 58 8q14 6 14 -10q0 -33 -34 -56t-96 -23q-53 0 -117 32q70 -96 161 -140.5t173 -44.5q179 0 179 124q0 50 -28.5 84t-67.5 34q-62 0 -96 -58q-6 -12 -16 -6q-29 21 -54 63t-25 89q0 74 50 117t126 43q96 0 166.5 -72
t70.5 -188q0 -22 -5.5 -50.5t-24 -67t-47.5 -69.5t-81 -53t-119 -22zM676 327h1q38 0 64 -31.5t35 -70t6 -73.5q-1 -13 2 -15t11 4q51 40 51 125q0 103 -65 165.5t-146 62.5q-63 0 -110.5 -38.5t-37.5 -120.5q1 -8 6 -8q3 0 4 5q18 108 142 108q80 0 133.5 -69.5
t39.5 -151.5q-2 -10 -6 -11q-3 -1 -4 3v7q1 15 -8.5 40t-28.5 52.5t-54.5 47t-78.5 19.5q-52 0 -82 -23t-30 -50q0 -34 25 -47q34 70 131 70zM166 439l-27 4q1 -92 55 -161.5t153 -69.5q81 0 100 23q12 12 1 11q-88 -11 -153.5 32.5t-128.5 160.5z" />
    <glyph glyph-name="bullet.017" unicode="&#xe05f;" horiz-adv-x="780" 
d="M436 356q7 -3 6.5 -42.5t-0.5 -41.5q1 -11 6.5 -15.5t14.5 0.5q2 1 28 15t46 22t41 12q-7 8 -20 33t-25 39q-24 28 -56 39q-21 8 -56 12q-16 1 -4 18q26 35 93 33q23 -1 46.5 -15.5t37.5 -31.5q32 -41 13 -91q-5 -13 -10 -30q38 7 94 -2q19 10 30 5q-3 -20 11.5 -44
t27.5 -35q11 -7 6 -14q-1 -2 -5 -2.5t-10 2t-12 8.5q-64 64 -139 64q9 -19 22.5 -35t23.5 -24t23.5 -17.5t16.5 -12.5q10 -10 19.5 -30t11.5 -37q1 -9 4.5 -15.5t5 -7.5t9.5 -6q10 -6 1 -13q-11 -9 -28 -1q-5 1 -26 2.5t-36 4.5q-33 7 -47 30q-10 17 -12.5 79t-5.5 79
q-63 -19 -94 -75q-8 -11 3 -17q34 -19 44 -23q19 -9 17 -35q1 -13 -9 -34.5t-22 -33.5q-25 -26 -71 -48t-99 -27q-127 -13 -217 88q-43 51 -38 72q-45 11 -69 42q-16 18 -14.5 43.5t20.5 40.5q15 13 40 17q20 2 30 -8q6 -4 -3 -4h-5q-16 -3 -30 -18q-9 -12 -8 -28.5t8 -25.5
q17 -23 53 -27q36 -5 74.5 42t57.5 105q11 35 39.5 53t66.5 16q7 0 13 -1.5t11 -2.5t10.5 -4t9 -5t8 -5.5t7 -6l6.5 -6.5t5.5 -6t5 -6.5t4.5 -5.5zM412 219q-61 -46 -139.5 -66.5t-111.5 -0.5q-7 6 -9 1.5t7 -11.5q43 -31 103 -29q100 5 147 62q12 16 16 35q1 10 -2.5 12.5
t-10.5 -3.5z" />
    <glyph glyph-name="bullet.018" unicode="&#xe060;" horiz-adv-x="780" 
d="M344 356q1 1 4.5 5.5t5 6.5t5.5 6l6.5 6.5t7 6t8 5.5t9 5t10.5 4t11 2.5t13 1.5q38 2 66.5 -16t39.5 -53q19 -58 57.5 -105t74.5 -42q36 4 53 27q7 9 8 25.5t-8 28.5q-14 15 -30 18q-11 -2 -10 2q0 1 2 2q10 10 30 8q25 -4 40 -17q19 -15 20.5 -40.5t-14.5 -43.5
q-24 -31 -69 -42q5 -21 -38 -72q-90 -101 -217 -88q-53 5 -99 27t-71 48q-12 12 -22 33.5t-9 34.5q-2 26 17 35q10 4 44 23q11 6 3 17q-31 56 -94 75q-3 -17 -5.5 -79t-12.5 -79q-14 -23 -47 -30q-15 -3 -36 -4.5t-26 -2.5q-17 -8 -28 1q-9 7 1 13q17 11 19 29q2 17 11.5 37
t19.5 30q3 3 16.5 12.5t23.5 17.5t23.5 24t22.5 35q-75 0 -139 -64q-6 -6 -12 -8.5t-10 -2t-5 2.5q-5 7 6 14q13 11 27.5 35t11.5 44q11 5 30 -5q56 9 94 2q-5 17 -10 30q-19 50 13 91q14 17 37.5 31.5t46.5 15.5q67 2 93 -33q12 -17 -4 -18q-35 -4 -56 -12q-32 -11 -56 -39
q-12 -14 -25 -39t-20 -33q21 -4 41 -12t46 -22t28 -15q9 -5 14.5 -0.5t6.5 15.5q0 2 -0.5 41.5t6.5 42.5zM368 219q-7 6 -10.5 3.5t-2.5 -12.5q4 -19 16 -35q47 -57 147 -62q60 -2 103 29q12 9 6 12q-3 2 -8 -2q-33 -20 -111.5 0.5t-139.5 66.5z" />
    <glyph glyph-name="bullet.019" unicode="&#xe061;" horiz-adv-x="590" 
d="M456 506q6 18 8 45q2 30 -11.5 50.5t-43.5 20.5q-14 0 -26.5 -10.5t-13.5 -33.5q-1 -30 26.5 -50t60.5 -22zM321 401q83 8 123 84q-43 2 -76 23.5t-31 67.5q1 30 22 51.5t49 21.5q41 0 59.5 -28t17.5 -65q-2 -29 -10 -50q34 6 56 30t22 55q0 43 -33 64q-14 3 -13 9
q0 2 3 3q7 1 23 -3l4 -4q4 -3 7.5 -6t8.5 -9.5t8.5 -13.5t6 -17.5t2.5 -22.5q0 -49 -33 -76.5t-69 -30.5q-23 -50 -64.5 -79.5t-85.5 -31.5q-1 -25 -22 -84q21 18 56 29.5t55 11.5q47 0 75 -37t28 -88q0 -15 -1.5 -29t-6 -26t-8 -21.5t-10.5 -19t-11 -15t-12.5 -13.5
t-12 -11t-12.5 -10t-11 -8q-7 -4 -26 0q-24 6 -74.5 1t-85.5 -17q-53 -20 -84 -47t-30 -52q1 -21 14 -33.5t31 -12.5q16 0 36.5 10.5t28.5 16.5t33 26q73 59 119 59q32 0 54 -21.5t22 -63.5q0 -49 -29 -77t-59 -28q-32 0 -47.5 19t-16.5 41q0 12 3 10q1 -1 2 -3
q9 -16 44 -16q21 1 40 18t19 46q0 14 -10.5 27t-32.5 13q-35 0 -101 -51q-3 -2 -21.5 -17t-25.5 -19.5t-22 -13.5t-28 -12t-27 -3q-40 0 -66 27.5t-26 66.5q0 24 6.5 43t14 28.5t13.5 20.5t6 21q0 12 -6.5 22.5t-10.5 13.5t-19 15q-16 14 -29.5 40.5t-13.5 54.5q0 63 43 103
q53 47 117 47q63 0 87 -50q15 22 24 69q-50 4 -82 32t-31 78q1 34 21 54.5t34 20.5q13 0 28 -4q-33 44 -98 44q-52 0 -97 -49q-7 -6 -8.5 -4t-0.5 10q0 5 10.5 19.5t21.5 25.5q-14 12 1 29q20 12 59 12q46 0 81 -20t55 -52t29 -68t8 -72q0 -23 -1 -29zM297 402q3 18 3 34
q2 27 -7 58.5t-27 52.5q-26 -3 -40 -20t-15 -38q-1 -32 23.5 -56.5t62.5 -30.5z" />
    <glyph glyph-name="bullet.020" unicode="&#xe062;" horiz-adv-x="583" 
d="M376 521q26 16 41 20q11 0 22 -21q-11 -6 -17 -12q47 -22 72 -32q12 -5 56 13q1 1 4 -1t6 -7t4 -12q-18 -5 -55 -39q-9 -7 -18 1q-20 18 -51.5 33.5t-57.5 20.5q-33 -22 -55 -57.5t-29 -59.5q0 -7 -10 -11q-5 -2 -8 -2t-2 4q8 71 71 137q-60 14 -90 14q-47 0 -85 -37
q-11 5 -7 13q30 41 33 49q3 10 15 18q4 3 26 7q2 -1 15 -9t22 -10q5 -1 98 -20zM200 401q25 -4 41 -16t20 -20t5 -15q-63 -59 -96.5 -148.5t-35.5 -154.5q0 -6 2.5 -9.5t5.5 -1.5t5 9q25 98 56.5 156.5t92.5 138.5q75 45 143 34q40 -7 65.5 -47.5t12.5 -96.5
q-10 -41 -33.5 -71.5t-61.5 -51t-74 -32.5t-88 -25q-98 -24 -106 -71q-7 -41 20 -62q4 -3 -2 -7q-10 -7 -26 -4q-9 2 -17.5 11.5t-15 33t-2.5 56.5q1 15 -14 30q-21 18 -41 43.5t-38 74t-10 95.5q13 77 67 120q60 40 125 31z" />
    <glyph glyph-name="bullet.021" unicode="&#xe063;" horiz-adv-x="825" 
d="M563 430q20 -6 37 -22.5t21 -30.5q5 -14 22 -14q36 -1 82 19q29 13 42.5 39.5t-2.5 40.5q-12 10 7 12q12 1 24 15q7 8 15 0q9 -13 7 -33q-4 -37 -36.5 -66.5t-64 -43t-61.5 -19.5q-12 -3 -5 -16q9 -18 6 -29q-16 -58 -54.5 -108.5t-73.5 -74.5t-50 -20q-5 1 -8 4.5
t-3.5 10.5t0 13.5t3.5 19t6 22t8 27.5q-94 -105 -123 -97q-17 5 15 88q-55 -55 -95 -85.5t-54.5 -35.5t-21.5 -3q-13 6 -10.5 22.5t19.5 56.5q-63 -29 -108 -66t-60 -58.5t-19 -34.5q-2 -8 -6 -12t-7.5 -3t-5.5 5q-9 23 -1 49q12 45 42.5 84t64.5 64.5t86 50t88.5 37
t90.5 29.5q37 11 90.5 26.5t81 23.5t32.5 12q18 9 -3 13q-71 3 -233 -51q-127 -43 -207.5 -95.5t-105.5 -89.5q-7 -11 -7 -3q0 2 1 5q3 27 43.5 68t110.5 84q-53 14 -49 35q7 23 159 40q-26 12 -34 22.5t-4.5 15t13.5 11.5q39 26 143.5 42.5t151.5 3.5z" />
    <glyph glyph-name="bullet.022" unicode="&#xe064;" horiz-adv-x="1070" 
d="M680 363h1q63 0 123 -11t100 -26t73.5 -32.5t47.5 -27.5t18 -14q7 -6 7 -15q0 -2 -2.5 -3.5t-4.5 0.5q-149 111 -378 111q-176 0 -290 -81q-10 -3 -22 0q-11 9 -3 13q33 36 119.5 61t210.5 25zM584 126h-1q-73 0 -135.5 20t-88 38t-32.5 28q-10 15 -24 17q-47 6 -117 6
q-41 0 -72 -5t-47 -11t-26.5 -14t-13 -12t-3.5 -8q-2 -5 -4.5 -7t-4 0t-1.5 10q4 19 27 37q-22 7 -1 23q28 20 104 20q83 0 158 -12q266 -38 409 -38q132 0 207 29q14 5 14 -6t-18 -29q20 8 39 19t31 19t13 8q3 0 5 -5t-2 -10q-40 -40 -173 -78.5t-243 -38.5z" />
    <glyph glyph-name="bullet.023" unicode="&#xe065;" horiz-adv-x="762" 
d="M369 -53l-20 19q8 71 8 144q-3 22 -17 12q-45 -37 -94 -37q-99 0 -155.5 56t-77.5 145q-5 26 0 30q7 13 47 23t81 10q31 0 64.5 -12t52.5 -30q-16 35 -16 79q0 76 44.5 143.5t79.5 67.5q37 0 75.5 -66.5t38.5 -142.5q0 -44 -12 -88q72 44 146 44q86 0 126 -46
q8 -11 8 -18q0 -59 -71 -124t-142 -65q-65 0 -135 28q-10 3 -12 0.5t-2 -10.5q-5 -108 6 -135l-2 -12zM354 574q-15 -12 -30.5 -29t-34 -62.5t-18.5 -99.5q0 -102 80 -167q2 65 3.5 199t-0.5 159zM385 566q0 -1 -1 -56t-1.5 -117t-1 -120.5t0.5 -65.5q24 17 46 58.5
t22 111.5q0 66 -22.5 121.5t-42.5 67.5zM519 122h1q21 0 44 5t53 18.5t58.5 43t48.5 71.5q-13 2 -60.5 -9t-122.5 -40t-135 -68q1 0 13 -4.5t22 -7.5t31.5 -6t46.5 -3zM724 287q-2 5 -11.5 11.5t-35 13t-59.5 6.5q-72 0 -137.5 -42t-87.5 -109q53 31 155.5 71t175.5 49z
M253 112h1q48 0 73 25q-65 22 -151.5 67.5t-139.5 93.5q-3 -29 20.5 -71t77 -78.5t119.5 -36.5zM54 310q30 -25 132.5 -78t161.5 -75q0 8 -12.5 32t-43.5 57.5t-70 51.5q-84 40 -168 12z" />
    <glyph glyph-name="bullet.024" unicode="&#xe066;" horiz-adv-x="494" 
d="M111 74h-10q-21 44 -31.5 69.5t-19 64.5t-8.5 82q0 48 11 86t21 53q4 8 16 17q6 2 13 -6q28 -36 41.5 -92t13.5 -101q0 -48 -16 -120l5 2q2 5 15.5 47.5t26 75.5t36.5 79t51 78q47 55 95.5 77.5t77.5 22.5q14 0 18 -10l-16 -9q1 -26 -19.5 -73.5t-50.5 -88.5
q-32 -43 -68 -81t-68.5 -68t-41.5 -40q53 32 112 32q52 0 77.5 -29.5t25.5 -77.5q0 -19 -4 -23q-5 -5 -12 -1q-21 15 -68.5 28t-102.5 13q-77 0 -116 -31q-17 -15 -35 -57q-24 -53 -11 -77q-2 -1 -4 -3t-5 -5.5t-5 -5.5q-3 7 -12 18.5t-13 13.5q-3 7 -1 16q14 56 82 124z
M88 420q-24 -54 -19 -148q4 -61 13.5 -100t33.5 -81q10 61 6 149q-2 38 -12.5 99.5t-21.5 80.5zM435 492q-81 -17 -156.5 -121t-108.5 -243q123 189 265 364zM400 85q-33 58 -117 58q-31 0 -59 -15q-20 -10 -42 -28q50 12 110 4.5t100 -34.5q11 -9 13 0q0 6 -5 15z" />
    <glyph glyph-name="bullet.025" unicode="&#xe067;" horiz-adv-x="800" 
d="M238 380h1q24 0 49.5 -17.5t32.5 -30.5q12 -16 20 -16q40 0 101 37q27 16 51 46t28 44q7 36 0 59q-9 26 -51.5 51t-84.5 32q-24 5 -26 13q-2 4 -2 5.5t2 3t7 4.5q13 8 19 24q4 8 14 8q5 0 19 -12q67 -52 115 -73q35 -14 79 -10q13 1 31.5 3.5t32 5t15.5 2.5q6 0 10 -8.5
t4 -17.5q0 -4 -3.5 -12t-7 -14t-3.5 -7t-3.5 -1.5t-8 0.5t-8.5 3q-9 9 -30 10q-8 0 -22 0.5t-21 1.5q-20 0 -27 -3t-4 -27l2 -15q0 -26 -15 -45q-18 -23 -31 -64.5t-13 -74.5q0 -51 16 -71q1 -2 3.5 -1.5t4.5 2.5q40 39 80 57t99 8q18 -3 64 -3q9 0 9 -9q0 -8 -12 -15
q-5 -5 -18 -25.5t-19 -26.5q-11 -19 -70 -37q35 -10 54.5 -30.5t22 -44.5t0.5 -40.5t-7 -28.5q-4 -9 -13.5 -30t-14.5 -34q-4 -18 -12 -25.5t-15 -7.5q-6 0 -6 38q0 13 -4 24.5t-8.5 18.5t-18 25.5t-21.5 30.5q9 -101 -105 -180q-9 -9 -39 -9q-9 0 -9 18q0 9 -35 69
q-16 28 -10 77q8 51 77 132q2 2 4 4.5t3 4t0 1.5q-38 70 -21 180q-16 -11 -47 -27t-59 -29t-31 -15q-8 -2 -10 -11q-2 -11 -48 -27q-19 -52 -20.5 -106.5t5.5 -82.5t13 -37q11 -14 5 -20q-10 -13 -29 -13q-11 0 -58.5 25.5t-68.5 51.5q-21 27 -24 71.5t3 54.5
q-18 -2 -86 -25q-9 -2 -14 2t-5 12q0 13 9 35q2 3 7.5 16t15 29.5t21.5 32.5q36 48 84 67t86 19zM604 54v1q0 24 -9 47.5t-18 32.5q-11 12 -22 16q-10 0 -16 -2q-22 -7 -41 -27q-43 -47 -50 -96q-2 -20 4 -38.5t28 -55.5q3 48 27 123q7 23 19 39q6 -1 6 -11q-3 -15 -21 -93
q-9 -40 -3 -84q96 60 96 148zM539 176q16 4 30 1q7 -4 52 -0.5t62 11.5q17 6 38 26.5t23 29.5q3 4 4.5 5.5t2 3.5t-1 2.5t-5.5 0.5q-37 11 -72 11q-29 0 -67 -22t-57 -46q-8 -10 -9 -23zM228 356h-1q-59 0 -111.5 -49t-70.5 -99q-5 -13 5 -13q9 3 101 35q7 2 36 13t63 23
t61 20q-15 9 -43 10.5t-46 -4.5q-31 -11 -65 -28q-41 -21 -57 -24q-7 0 -2 7q1 1 3 2q65 49 110 68q37 12 97 -9q-17 48 -80 48zM142 183v-3q-7 -57 18 -93q27 -38 69 -50q-36 41 -36 123q0 19 18 27q-7 -95 45 -154l7 -3q-26 92 9 196q-6 -2 -64 -21.5t-66 -21.5zM685 130
l-17 -6q5 -7 13.5 -18.5t14 -20.5t9.5 -20q8 -26 -4 -38q0 1 -3 11t-7 16q-19 37 -53 60l-12 -19q61 -69 70 -124q2 4 7.5 14.5t7.5 15.5t6 14t6 15t3.5 14t1.5 15q0 38 -43 71zM655 237q29 6 50 3q13 -3 1 -8q-25 -8 -51 -16q-30 -10 -66 -18l-1 6q1 5 5 9q20 15 62 24z
" />
    <glyph glyph-name="bullet.026" unicode="&#xe068;" horiz-adv-x="800" 
d="M238 380h1q24 0 49.5 -18t32.5 -31q6 -9 15 -9q10 0 40 8.5t59 23.5q38 19 58.5 45.5t24.5 45.5q8 33 0 59q-9 26 -51.5 51t-84.5 32q-24 5 -26 13q-2 4 -2 5.5t2 3t7 4.5q13 8 19 24q4 8 14 8q5 0 19 -12q67 -52 115 -73q35 -14 79 -10q13 1 31.5 3.5t32 5t15.5 2.5
q6 0 10 -8.5t4 -17.5q0 -4 -3.5 -12t-7 -14t-3.5 -7t-3.5 -1.5t-8 0.5t-8.5 3q-9 9 -30 10q-8 0 -22 0.5t-21 1.5q-20 0 -27 -3q-6 -2 -4 -27l1 -15q1 -25 -14 -45q-41 -84 -41 -165q0 -28 15 -35q7 -4 9 -3.5t9 7.5q6 4 18.5 12.5t19.5 12.5t19.5 11t23 10t24.5 5.5t30 2
t34 -3.5q25 -4 64 -4q9 0 9 -9q0 -8 -12 -15q-4 -4 -17 -25t-19 -27q-13 -21 -71 -37q35 -9 54.5 -30t22.5 -45t1 -41t-7 -28q-19 -40 -28 -64q-4 -18 -12.5 -25.5t-15.5 -7.5q-5 0 -5 39q0 12 -4.5 23.5t-8.5 18.5t-18 25.5t-22 30.5q9 -102 -104 -180q-9 -9 -40 -9
q-9 0 -9 18q0 6 -7.5 19t-17.5 29t-13 22q-10 14 -11 27t4 49q7 52 70 123q3 5 5.5 9.5t3 7t0.5 4.5v3v1l-3 15q-25 76 -13 159q-16 -11 -47 -27t-58.5 -29t-30.5 -15q-8 -2 -11 -12q-1 -2 -1 -3q0 -12 -46 -31q-19 -56 -20.5 -108.5t6 -77.5t14.5 -31q7 -16 3 -21
q-3 -3 -14.5 -8t-19.5 -5q-10 0 -55.5 25.5t-66.5 51.5q-35 44 -22 126q-7 -4 -25.5 -9.5t-38 -10t-21.5 -5.5q-9 -2 -14 5.5t-5 15.5q0 5 9 28q19 41 52 86q31 42 78 60.5t84 18.5zM528 98q0 13 -8 13q-14 -23 -20 -44q-18 -65 -21 -123q-1 -21 17 -38q10 -10 10 0v3
q-7 51 3 89q16 65 19 100zM208 312q-36 -12 -102 -58q-5 -5 -1 -9q28 7 52 19q35 16 61 24q21 6 66 6q9 0 11 5.5t-6 8.5q-42 17 -81 4zM211 185q-9 -2 -16.5 -10.5t-7.5 -17.5q-2 -72 27 -111q14 -20 31 -24q3 -1 4 0q0 1 -1 2l-3 7q-39 58 -34 154zM702 66q-5 13 -18.5 31
t-17.5 24q-8 13 -23 3q-11 -7 -4 -12q23 -15 48 -57q1 -2 9 -25q14 8 6 36zM654 238q-46 -7 -68 -27q-9 -6 -6 -14q0 -2 2 -1q15 3 72 20q13 3 56 17q8 4 8 5t-9 3q-24 4 -55 -3z" />
    </font>
</defs>
</svg>
