<?xml version="1.0" standalone="no"?>
<!DOCTYPE svg PUBLIC "-//W3C//DTD SVG 1.1//EN" "http://www.w3.org/Graphics/SVG/1.1/DTD/svg11.dtd" >
<svg xmlns="http://www.w3.org/2000/svg" xmlns:xlink="http://www.w3.org/1999/xlink" version="1.1">
<metadata>
Created by FontForge 20161013 at Sun Oct  3 21:18:38 2010
 By ,,,
Copyright (c) 2009 by The Entente (AS &#38; EH). All rights reserved.
</metadata>
<defs>
<font id="Apercu-Medium" horiz-adv-x="566" >
  <font-face 
    font-family="Apercu Medium"
    font-weight="500"
    font-stretch="normal"
    units-per-em="1000"
    panose-1="2 0 6 6 4 0 0 2 0 4"
    ascent="800"
    descent="-200"
    x-height="504"
    cap-height="700"
    bbox="-80 -251 1201 951"
    underline-thickness="50"
    underline-position="-200"
    unicode-range="U+000D-FB02"
  />
<missing-glyph horiz-adv-x="645" 
d="M551 0h-457v700h457v-700zM447 94v512h-249v-512h249z" />
    <glyph glyph-name="fi" unicode="fi" horiz-adv-x="561" 
d="M103 412h-65v92h65v13q0 97 61 143q62 48 151 48q85 0 138 -29l-33 -86q-51 23 -102 23t-81 -27t-30 -72v-13h274v-504h-104v412h-170v-412h-104v412z" />
    <glyph glyph-name="fl" unicode="fl" horiz-adv-x="605" 
d="M103 412h-65v92h65v26q0 88 44.5 133t124.5 45h253v-708h-104v616h-146q-68 0 -68 -79v-33h111v-92h-111v-412h-104v412z" />
    <glyph glyph-name=".notdef" horiz-adv-x="645" 
d="M551 0h-457v700h457v-700zM447 94v512h-249v-512h249z" />
    <glyph glyph-name=".null" horiz-adv-x="0" 
 />
    <glyph glyph-name=".null" horiz-adv-x="0" 
 />
    <glyph glyph-name="nonmarkingreturn" horiz-adv-x="333" 
 />
    <glyph glyph-name="CR" unicode="&#xd;" horiz-adv-x="258" 
 />
    <glyph glyph-name="space" unicode=" " horiz-adv-x="258" 
 />
    <glyph glyph-name="exclam" unicode="!" horiz-adv-x="351" 
d="M134 221l-27 479h142l-27 -479h-88zM123 17q-21 22 -21 54t21 53q22 22 55 22t54 -22q22 -21 22 -53t-22 -54q-21 -21 -54 -21t-55 21z" />
    <glyph glyph-name="quotedbl" unicode="&#x22;" horiz-adv-x="469" 
d="M184 469h-70l-30 239h130zM355 469h-70l-30 239h130z" />
    <glyph glyph-name="numbersign" unicode="#" horiz-adv-x="726" 
d="M226 417h-118v82h135l41 201h88l-41 -201h125l41 201h88l-41 -201h114v-82h-131l-27 -134h118v-82h-135l-41 -201h-88l41 201h-125l-41 -201h-88l41 201h-114v82h131zM439 417h-125l-27 -134h125z" />
    <glyph glyph-name="dollar" unicode="$" horiz-adv-x="536" 
d="M460 590l-89 -59q-41 77 -104 77q-33 0 -53 -21.5t-20 -54.5q0 -64 106 -114q43 -19 68 -32.5t59 -39.5t50.5 -61t16.5 -80q0 -81 -46.5 -137.5t-123.5 -70.5v-87h-100v87q-69 14 -116.5 64.5t-63.5 125.5l90 57q37 -148 141 -148q47 0 77 29.5t30 75.5q0 32 -22 56.5
t-55 40t-72 35.5t-72 41.5t-55 60t-22 89.5q0 66 39 116q39 49 101 63v87h100v-89q87 -23 136 -111z" />
    <glyph glyph-name="percent" unicode="%" horiz-adv-x="840" 
d="M102 434q-47 47 -47 114q0 66 47 113t115 47t115 -47t47 -113q0 -67 -47 -114q-46 -46 -115 -46t-115 46zM163 603q-20 -21 -20 -55t20 -56q19 -21 54 -21t54 21q20 22 20 56t-20 55q-19 22 -54 22t-54 -22zM508 38q-47 47 -47 114q0 66 47 113t115 47t115 -47t47 -113
q0 -67 -47 -114q-46 -46 -115 -46t-115 46zM569 207q-20 -21 -20 -55t20 -56q19 -21 54 -21t54 21q20 22 20 56t-20 55q-19 22 -54 22t-54 -22zM128 13l539 720l58 -45l-539 -720z" />
    <glyph glyph-name="ampersand" unicode="&#x26;" horiz-adv-x="683" 
d="M144 559q0 61 44 105q46 44 115 44q73 0 116 -43q43 -42 43 -97q0 -112 -123 -177l128 -167q13 21 47 115l63 -71q-20 -68 -52 -120l112 -148h-117l-52 71q-30 -35 -83 -57t-105 -22q-94 0 -153 58q-59 59 -59 153q0 145 129 220q-53 73 -53 136zM412 143l-157 205
q-40 -22 -63.5 -61.5t-23.5 -88.5q0 -50 31 -80t80 -30q84 0 133 55zM242 555q0 -48 37 -95q85 40 85 100q0 27 -16.5 41.5t-44.5 14.5q-27 0 -44 -17t-17 -44z" />
    <glyph glyph-name="quotesingle" unicode="'" horiz-adv-x="298" 
d="M184 469h-70l-30 239h130z" />
    <glyph glyph-name="parenleft" unicode="(" horiz-adv-x="304" 
d="M173 750h104q-55 -84 -81 -177q-25 -90 -25 -223t25 -224q26 -92 81 -176h-104q-50 83 -79 176q-27 90 -27 224t27 224q29 93 79 176z" />
    <glyph glyph-name="parenright" unicode=")" horiz-adv-x="304" 
d="M27 750h104q51 -85 78 -176q28 -88 28 -224t-28 -224q-27 -91 -78 -176h-104q54 81 80 176t26 224q0 130 -26 223q-26 96 -80 177z" />
    <glyph glyph-name="asterisk" unicode="*" horiz-adv-x="484" 
d="M198 708h88v-124l119 39l25 -85l-118 -39l74 -101l-69 -51l-75 100l-75 -100l-69 51l74 101l-118 39l25 85l119 -39v124z" />
    <glyph glyph-name="plus" unicode="+" horiz-adv-x="564" 
d="M236 363v176h92v-176h177v-92h-177v-177h-92v177h-176v92h176z" />
    <glyph glyph-name="comma" unicode="," horiz-adv-x="343" 
d="M140 -132h-78l71 260h143z" />
    <glyph glyph-name="hyphen" unicode="-" horiz-adv-x="489" 
d="M421 271h-353v92h353v-92z" />
    <glyph glyph-name="period" unicode="." horiz-adv-x="318" 
d="M106 121q22 22 53 22t52 -22q22 -21 22 -52t-22 -53q-21 -21 -52 -21t-53 21q-21 22 -21 53t21 52z" />
    <glyph glyph-name="slash" unicode="/" horiz-adv-x="547" 
d="M13 -50l436 800h103l-436 -800h-103z" />
    <glyph glyph-name="zero" unicode="0" horiz-adv-x="632" 
d="M129 613q65 95 187 95t187 -95t65 -263t-65 -263t-187 -95t-187 95t-65 263t65 263zM425 544q-36 68 -109 68q-72 0 -110 -68q-36 -68 -36 -194t36 -194q38 -68 110 -68q73 0 109 68q37 67 37 194t-37 194z" />
    <glyph glyph-name="one" unicode="1" horiz-adv-x="396" 
d="M71 584l194 116h43v-700h-106v550l-131 -78v112z" />
    <glyph glyph-name="two" unicode="2" horiz-adv-x="575" 
d="M502 0h-434v44l258 331q32 41 44 68.5t12 61.5q0 50 -25 78.5t-71 28.5q-44 0 -71 -28.5t-33 -78.5l-100 19q4 78 62 131q59 53 142 53q90 0 146 -54q57 -52 57 -145q0 -87 -58 -160l-199 -253h270v-96z" />
    <glyph glyph-name="three" unicode="3" horiz-adv-x="580" 
d="M59 193l103 13q19 -118 126 -118q57 0 91 36t34 99q0 65 -34 101t-91 36q-28 0 -61 -14l-42 56l145 202h-237v96h390v-36l-170 -232q12 3 29 3q80 0 128 -60q49 -58 49 -152q0 -100 -67 -166q-67 -65 -164 -65q-91 0 -157 57t-72 144z" />
    <glyph glyph-name="four" unicode="4" horiz-adv-x="609" 
d="M469 0h-106v140h-302v48l296 512h112v-464h82v-96h-82v-140zM363 540l-170 -304h170v304z" />
    <glyph glyph-name="five" unicode="5" horiz-adv-x="579" 
d="M75 183l103 19q17 -114 115 -114q56 0 86.5 37.5t30.5 102.5t-30.5 102.5t-86.5 37.5q-80 0 -134 -72l-69 14l39 390h348v-96h-259l-21 -175q43 35 102 35q103 0 160 -66q57 -64 57 -170q0 -105 -61 -170q-60 -66 -162 -66q-90 0 -149 51t-69 140z" />
    <glyph glyph-name="six" unicode="6" horiz-adv-x="578" 
d="M303 448q96 0 157 -64t61 -164q0 -98 -64 -163q-63 -65 -160 -65q-96 0 -161 65q-63 66 -63 163q0 68 34 127l208 361h118l-153 -264q7 4 23 4zM179 220q0 -58 33 -95t85 -37t85 37t33 95q0 60 -32 96t-86 36t-86 -36t-32 -96z" />
    <glyph glyph-name="seven" unicode="7" horiz-adv-x="492" 
d="M52 700h414v-48l-268 -652h-106l249 604h-289v96z" />
    <glyph glyph-name="eight" unicode="8" horiz-adv-x="592" 
d="M494 519q0 -85 -70 -142q96 -55 96 -171q0 -97 -65 -156q-64 -58 -159 -58t-159 58q-65 59 -65 156q0 116 96 171q-70 55 -70 142q0 78 56 134q55 55 142 55t142 -55q56 -56 56 -134zM380 290q-33 30 -84 30q-50 0 -85 -30q-33 -30 -33 -84q0 -55 34 -86q35 -32 84 -32
t84 32q34 31 34 86q0 54 -34 84zM201 518q0 -43 27 -71t68 -28t68 28t27 71q0 42 -27 70t-68 28t-68 -28t-27 -70z" />
    <glyph glyph-name="nine" unicode="9" horiz-adv-x="579" 
d="M292 252q-96 0 -157 64t-61 164q0 98 63 162q65 66 161 66q97 0 160 -66q64 -64 64 -162q0 -68 -34 -127l-208 -361h-118l153 264q-7 -4 -23 -4zM416 480q0 58 -33 95t-85 37t-85 -37t-33 -95q0 -60 32 -96t86 -36t86 36t32 96z" />
    <glyph glyph-name="colon" unicode=":" horiz-adv-x="318" 
d="M106 121q22 22 53 22t52 -22q22 -21 22 -52t-22 -53q-21 -21 -52 -21t-53 21q-21 22 -21 53t21 52zM106 444q22 22 53 22t52 -22q22 -21 22 -52t-22 -53q-21 -21 -52 -21t-53 21q-21 22 -21 53t21 52z" />
    <glyph glyph-name="semicolon" unicode=";" horiz-adv-x="318" 
d="M106 444q22 22 53 22t52 -22q22 -21 22 -52t-22 -53q-21 -21 -52 -21t-53 21q-21 22 -21 53t21 52zM110 -132h-78l71 260h143z" />
    <glyph glyph-name="less" unicode="&#x3c;" horiz-adv-x="465" 
d="M412 66l-364 192v104l364 192v-111l-254 -133l254 -133v-111z" />
    <glyph glyph-name="equal" unicode="=" horiz-adv-x="605" 
d="M510 347h-415v92h415v-92zM510 181h-415v92h415v-92z" />
    <glyph glyph-name="greater" unicode="&#x3e;" horiz-adv-x="465" 
d="M53 554l364 -192v-104l-364 -192v111l254 133l-254 133v111z" />
    <glyph glyph-name="question" unicode="?" horiz-adv-x="456" 
d="M288 343l81 -31q-31 -105 -139 -105q-61 0 -98.5 33.5t-37.5 90.5q0 84 85 123l83 38q27 13 38 28.5t11 41.5q0 27 -21 44t-52 17q-76 0 -98 -82l-95 16q12 68 62 109.5t125 41.5q79 0 129 -41.5t50 -112.5q0 -81 -71 -116l-113 -55q-42 -19 -42 -56q0 -19 11.5 -30
t31.5 -11q40 0 60 57zM175 17q-21 22 -21 54t21 53q22 22 55 22t54 -22q22 -21 22 -53t-22 -54q-21 -21 -54 -21t-55 21z" />
    <glyph glyph-name="at" unicode="@" horiz-adv-x="910" 
d="M574 466l11 43h76l-24 -253l-1 -17q0 -39 39 -39q75 0 75 152q0 142 -69 208t-207 66q-78 0 -145 -35q-69 -35 -111.5 -112t-42.5 -181q0 -96 44 -167q84 -133 254 -133q38 0 72 2q82 7 169 51l35 -85q-79 -36 -134 -48q-54 -12 -142 -12q-180 0 -292 106
q-111 106 -111 289q0 191 114 303q115 114 295 114q178 0 274.5 -96t96.5 -270q0 -116 -48 -180t-131 -64q-38 0 -69 18.5t-44 48.5q-43 -67 -130 -67q-82 0 -128.5 52t-46.5 135q0 94 59 158q60 63 154 63q75 0 108 -50zM459 424q-49 0 -78.5 -36t-29.5 -96
q0 -41 22.5 -66.5t61.5 -25.5q55 0 84 37.5t29 94.5q0 44 -23.5 68t-65.5 24z" />
    <glyph glyph-name="A" unicode="A" horiz-adv-x="608" 
d="M9 0l243 700h104l243 -700h-112l-58 174h-250l-58 -174h-112zM396 278l-92 283l-92 -283h184z" />
    <glyph glyph-name="B" unicode="B" horiz-adv-x="623" 
d="M94 0v700h248q91 0 143.5 -48t52.5 -135q0 -42 -20 -80.5t-51 -54.5q50 -21 78.5 -68t28.5 -108q0 -98 -58 -152t-162 -54h-260zM332 596h-128v-172h128q96 0 96 86t-96 86zM339 320h-135v-216h135q123 0 123 108t-123 108z" />
    <glyph glyph-name="C" unicode="C" horiz-adv-x="695" 
d="M658 496l-104 -26q-27 70 -69 102t-110 32q-95 0 -153.5 -67t-58.5 -187t58.5 -187t153.5 -67q68 0 110 32t69 102l104 -26q-27 -102 -100 -157t-183 -55q-136 0 -230 94t-94 264q0 169 94 263q95 95 230 95q110 0 183 -55t100 -157z" />
    <glyph glyph-name="D" unicode="D" horiz-adv-x="673" 
d="M94 0v700h206q136 0 228 -91q94 -91 94 -259t-94 -259q-92 -91 -228 -91h-206zM268 596h-64v-492h64q49 0 90 12t76.5 39t55.5 76.5t20 118.5t-20 118.5t-55.5 76.5t-76.5 39t-90 12z" />
    <glyph glyph-name="E" unicode="E" horiz-adv-x="568" 
d="M94 0v700h415v-104h-305v-172h246v-104h-246v-216h315v-104h-425z" />
    <glyph glyph-name="F" unicode="F" horiz-adv-x="549" 
d="M94 0v700h424v-104h-314v-181h253v-104h-253v-311h-110z" />
    <glyph glyph-name="G" unicode="G" horiz-adv-x="720" 
d="M657 0h-96l-8 87q-23 -41 -71 -68t-113 -27q-132 0 -226 92q-92 92 -92 266q0 175 94 266q95 92 230 92q109 0 183 -60q74 -58 96 -156l-101 -31q-50 143 -178 143q-96 0 -154 -67t-58 -187q0 -123 57 -188.5t155 -65.5q76 0 120.5 44t51.5 116h-136v97h246v-353z" />
    <glyph glyph-name="H" unicode="H" horiz-adv-x="692" 
d="M204 0h-110v700h110v-274h284v274h110v-700h-110v322h-284v-322z" />
    <glyph glyph-name="I" unicode="I" horiz-adv-x="298" 
d="M204 0h-110v700h110v-700z" />
    <glyph glyph-name="J" unicode="J" horiz-adv-x="512" 
d="M324 222v478h110v-473q0 -119 -60 -178q-60 -57 -154 -57q-91 0 -146 52q-56 53 -68 132l111 23q9 -49 35.5 -76t67.5 -27q52 0 78 29.5t26 96.5z" />
    <glyph glyph-name="K" unicode="K" horiz-adv-x="621" 
d="M94 0v700h110v-269l250 269h134l-282 -313l305 -387h-141l-266 343v-343h-110z" />
    <glyph glyph-name="L" unicode="L" horiz-adv-x="522" 
d="M94 0v700h110v-596h302v-104h-412z" />
    <glyph glyph-name="M" unicode="M" horiz-adv-x="796" 
d="M204 0h-110v700h130l174 -466l174 466h130v-700h-110v472l-155 -408h-78l-155 408v-472z" />
    <glyph glyph-name="N" unicode="N" horiz-adv-x="703" 
d="M499 196v504h110v-700h-118l-287 502v-502h-110v700h118z" />
    <glyph glyph-name="O" unicode="O" horiz-adv-x="744" 
d="M143 614q93 94 229 94q137 0 228 -94q93 -93 93 -264q0 -170 -93 -265q-92 -93 -228 -93t-229 93q-92 95 -92 265t92 264zM521 539q-59 65 -149 65t-150 -65q-59 -65 -59 -189t59 -189q60 -65 150 -65t149 65q60 65 60 189t-60 189z" />
    <glyph glyph-name="P" unicode="P" horiz-adv-x="589" 
d="M345 286h-141v-286h-110v700h251q102 0 159 -58q58 -58 58 -149t-58 -149q-57 -58 -159 -58zM204 390h146q47 0 73.5 27t26.5 76t-26.5 76t-73.5 27h-146v-206z" />
    <glyph glyph-name="Q" unicode="Q" horiz-adv-x="744" 
d="M693 350q0 -126 -54 -215l70 -69l-74 -74l-66 65q-83 -65 -197 -65q-136 0 -229 93q-92 95 -92 265t92 264q93 94 229 94q137 0 228 -94q93 -93 93 -264zM492 134l-85 85l74 74l75 -76q25 54 25 133q0 124 -60 189q-59 65 -149 65t-150 -65q-59 -65 -59 -189t59 -189
q60 -65 150 -65q70 0 120 38z" />
    <glyph glyph-name="R" unicode="R" horiz-adv-x="649" 
d="M546 507q0 -72 -35.5 -120t-100.5 -65l202 -322h-130l-197 314h-81v-314h-110v700h245q98 0 152.5 -51.5t54.5 -141.5zM204 418h138q43 0 67.5 22.5t24.5 66.5t-24.5 66.5t-67.5 22.5h-138v-178z" />
    <glyph glyph-name="S" unicode="S" horiz-adv-x="530" 
d="M454 590l-89 -59q-41 77 -104 77q-33 0 -53 -21.5t-20 -54.5q0 -64 106 -114q43 -19 68 -32.5t59 -39.5t50.5 -61t16.5 -80q0 -95 -62 -154t-157 -59q-89 0 -150.5 53.5t-80.5 141.5l90 57q37 -148 141 -148q47 0 77 29.5t30 75.5q0 32 -22 56.5t-55 40t-72 35.5
t-72 41.5t-55 60t-22 89.5q0 78 53 131t130 53q127 0 193 -118z" />
    <glyph glyph-name="T" unicode="T" horiz-adv-x="524" 
d="M207 596h-196v104h502v-104h-196v-596h-110v596z" />
    <glyph glyph-name="U" unicode="U" horiz-adv-x="654" 
d="M75 252v448h110v-453q0 -73 36.5 -112t105.5 -39t105.5 39t36.5 112v453h110v-448q0 -123 -71 -192q-71 -68 -181 -68q-111 0 -182 69q-70 69 -70 191z" />
    <glyph glyph-name="V" unicode="V" horiz-adv-x="598" 
d="M593 700l-239 -700h-110l-239 700h118l176 -546l176 546h118z" />
    <glyph glyph-name="W" unicode="W" horiz-adv-x="912" 
d="M645 156l128 544h116l-185 -700h-112l-136 444l-136 -444h-112l-185 700h116l128 -544l139 470h100z" />
    <glyph glyph-name="X" unicode="X" horiz-adv-x="580" 
d="M290 484l124 216h123l-185 -324l216 -376h-125l-153 267l-153 -267h-125l216 376l-185 324h123z" />
    <glyph glyph-name="Y" unicode="Y" horiz-adv-x="514" 
d="M202 300l-200 400h117l138 -291l138 291h117l-200 -400v-300h-110v300z" />
    <glyph glyph-name="Z" unicode="Z" horiz-adv-x="558" 
d="M357 596h-304v104h452v-54l-315 -542h328v-104h-480v54z" />
    <glyph glyph-name="bracketleft" unicode="[" horiz-adv-x="338" 
d="M302 -50h-208v800h208v-94h-108v-612h108v-94z" />
    <glyph glyph-name="backslash" unicode="\" horiz-adv-x="547" 
d="M431 -50l-436 800h103l436 -800h-103z" />
    <glyph glyph-name="bracketright" unicode="]" horiz-adv-x="338" 
d="M36 750h208v-800h-208v94h108v612h-108v94z" />
    <glyph glyph-name="asciicircum" unicode="^" horiz-adv-x="578" 
d="M54 413l191 287h88l191 -287h-103l-132 195l-132 -195h-103z" />
    <glyph glyph-name="underscore" unicode="_" horiz-adv-x="499" 
d="M472 -92h-445v92h445v-92z" />
    <glyph glyph-name="grave" unicode="`" horiz-adv-x="242" 
d="M16 708h141l68 -148h-80z" />
    <glyph glyph-name="a" unicode="a" horiz-adv-x="514" 
d="M44 145q0 77 59.5 121t158.5 44h87v22q0 43 -26.5 65.5t-71.5 22.5q-69 0 -94 -67l-95 20q16 64 67 101.5t123 37.5q201 0 201 -199v-313h-88l-10 66q-53 -74 -156 -74q-69 0 -112 40t-43 113zM154 145q0 -28 16.5 -44.5t46.5 -16.5q53 0 92 33q40 34 40 95v11h-91
q-48 0 -76 -21t-28 -57z" />
    <glyph glyph-name="b" unicode="b" horiz-adv-x="601" 
d="M552 252q0 -124 -58 -192t-167 -68q-44 0 -83 20t-54 46v-58h-104v708h104v-260q17 24 58 44q42 20 77 20q110 0 168.5 -69t58.5 -191zM406 129q36 47 36 123q0 77 -36 122q-36 46 -93 46t-93 -46q-36 -45 -36 -122q0 -76 36 -123q36 -45 93 -45t93 45z" />
    <glyph glyph-name="c" unicode="c" horiz-adv-x="542" 
d="M411 171l93 -40q-61 -139 -218 -139q-114 0 -176 74q-61 74 -61 186t61 185q62 75 176 75q157 0 218 -139l-93 -40q-39 87 -125 87q-62 0 -94.5 -45t-32.5 -123t32.5 -123t94.5 -45q86 0 125 87z" />
    <glyph glyph-name="d" unicode="d" horiz-adv-x="601" 
d="M49 252q0 122 58.5 191t168.5 69q35 0 77 -20q41 -20 58 -44v260h104v-708h-104v58q-15 -26 -54 -46t-83 -20q-109 0 -167 68t-58 192zM195 374q-36 -45 -36 -122q0 -76 36 -123q36 -45 93 -45t93 45q36 47 36 123q0 77 -36 122q-36 46 -93 46t-93 -46z" />
    <glyph glyph-name="e" unicode="e" horiz-adv-x="559" 
d="M284 420q-49 0 -81.5 -30t-41.5 -80h245q-7 49 -39 79.5t-83 30.5zM516 268v-45h-357q0 -61 33.5 -100t91.5 -39q42 0 77.5 22.5t54.5 62.5l89 -35q-39 -76 -89 -109t-132 -33q-60 0 -106.5 23.5t-73.5 62t-41 83t-14 91.5t14 91.5t41 83t73.5 62t106.5 23.5
q58 0 104 -22t73 -58t41 -78t14 -86z" />
    <glyph glyph-name="f" unicode="f" horiz-adv-x="362" 
d="M103 412h-65v92h65v26q0 88 44.5 133t124.5 45q48 0 83 -18l-21 -88q-28 14 -59 14q-68 0 -68 -79v-33h111v-92h-111v-412h-104v412z" />
    <glyph glyph-name="g" unicode="g" horiz-adv-x="511" 
d="M87 343q0 77 51 123q50 46 129 46q51 0 92 -22l93 50l42 -75l-68 -38q22 -37 22 -84q0 -77 -51 -124q-51 -45 -130 -45q-43 0 -81 15q-27 -15 -27 -44q0 -39 52 -39h111q77 0 122 -37.5t45 -106.5q0 -88 -64 -131q-62 -43 -157 -43q-101 0 -161.5 43.5t-60.5 122.5
q0 62 43 102q-29 29 -29 79q0 68 61 102q-34 41 -34 106zM300 18h-81q-27 0 -51 3q-22 -22 -22 -61q0 -38 32.5 -60t89.5 -22q54 0 84.5 20t30.5 56q0 64 -83 64zM267 261q36 0 58 22.5t22 59.5t-22 59.5t-58 22.5q-35 0 -57 -22.5t-22 -59.5t22 -59.5t57 -22.5z" />
    <glyph glyph-name="h" unicode="h" horiz-adv-x="588" 
d="M86 0v708h104v-290q64 94 170 94q72 0 110.5 -39.5t38.5 -117.5v-355h-104v328q0 52 -19 72t-60 20q-48 0 -92 -57q-44 -58 -44 -150v-213h-104z" />
    <glyph glyph-name="i" unicode="i" horiz-adv-x="266" 
d="M81 595q-20 21 -20 51t21 51q21 22 51 22t51 -22q21 -21 21 -51t-21 -51q-20 -20 -51 -20t-52 20zM81 0v504h104v-504h-104z" />
    <glyph glyph-name="j" unicode="j" horiz-adv-x="266" 
d="M81 595q-20 21 -20 51t21 51q21 22 51 22t51 -22q21 -21 21 -51t-21 -51q-20 -20 -51 -20t-52 20zM1 -212l-26 91q55 16 80.5 47t25.5 87v491h104v-481q0 -100 -46 -157t-138 -78z" />
    <glyph glyph-name="k" unicode="k" horiz-adv-x="525" 
d="M86 0v708h104v-405l182 201h132l-211 -232l224 -272h-132l-195 241v-241h-104z" />
    <glyph glyph-name="l" unicode="l" horiz-adv-x="271" 
d="M84 0v708h104v-708h-104z" />
    <glyph glyph-name="m" unicode="m" horiz-adv-x="861" 
d="M86 0v504h104v-86q61 94 152 94q51 0 89.5 -28.5t49.5 -75.5q26 50 67 77t90 27q67 0 105.5 -41t38.5 -110v-361h-104v338q0 39 -20 60.5t-54 21.5q-50 0 -84 -60t-34 -158v-202h-104v338q0 39 -20 60.5t-54 21.5q-52 0 -85 -61.5t-33 -167.5v-191h-104z" />
    <glyph glyph-name="n" unicode="n" horiz-adv-x="580" 
d="M86 0v504h104v-86q27 45 70 69.5t93 24.5q68 0 108 -40t40 -111v-361h-104v328q0 92 -78 92q-52 0 -91 -59q-38 -59 -38 -157v-204h-104z" />
    <glyph glyph-name="o" unicode="o" horiz-adv-x="594" 
d="M116 67q-67 74 -67 185t67 185q68 75 181 75t180 -75q68 -76 68 -185t-68 -185q-67 -75 -180 -75t-181 75zM195 370q-36 -49 -36 -118t36 -119q37 -49 102 -49t101 49q37 49 37 119q0 69 -37 118q-36 50 -101 50q-64 0 -102 -50z" />
    <glyph glyph-name="p" unicode="p" horiz-adv-x="601" 
d="M552 252q0 -122 -58.5 -191t-168.5 -69q-43 0 -79.5 18t-55.5 46v-260h-104v708h104v-58q15 26 54 46t83 20q109 0 167 -68t58 -192zM406 129q36 47 36 123q0 77 -36 122q-36 46 -93 46t-93 -46q-36 -45 -36 -122q0 -76 36 -123q36 -45 93 -45t93 45z" />
    <glyph glyph-name="q" unicode="q" horiz-adv-x="601" 
d="M49 252q0 124 58 192t167 68q44 0 83 -20t54 -46v58h104v-708h-104v260q-18 -26 -58 -45q-39 -19 -77 -19q-110 0 -168.5 69t-58.5 191zM195 374q-36 -45 -36 -122q0 -76 36 -123q36 -45 93 -45t93 45q36 47 36 123q0 77 -36 122q-36 46 -93 46t-93 -46z" />
    <glyph glyph-name="r" unicode="r" horiz-adv-x="417" 
d="M190 187v-187h-104v504h104v-84q24 43 65 67.5t84 24.5q34 0 64 -12l-18 -95q-24 15 -59 15q-56 0 -96 -61q-40 -59 -40 -172z" />
    <glyph glyph-name="s" unicode="s" horiz-adv-x="450" 
d="M234 512q45 0 85 -21.5t64 -58.5l-66 -58q-36 46 -88 46q-22 0 -36 -13.5t-14 -36.5q0 -18 13 -31q20 -20 77 -41q52 -19 78 -37q58 -35 63 -109q0 -68 -48 -114q-47 -46 -127 -46q-68 0 -119 38t-76 97l88 48q40 -91 111 -91q68 0 68 66q0 25 -26 40q-15 10 -26 14
q-8 4 -34.5 14t-33.5 13q-108 45 -108 138q0 60 44 101q43 42 111 42z" />
    <glyph glyph-name="t" unicode="t" horiz-adv-x="385" 
d="M105 412h-84v92h84v139l104 65v-204h131v-92h-131v-246q0 -82 67 -82q25 0 48 14l27 -88q-37 -18 -81 -18q-77 0 -121 46.5t-44 133.5v240z" />
    <glyph glyph-name="u" unicode="u" horiz-adv-x="580" 
d="M494 504v-504h-104v86q-27 -45 -70 -69.5t-93 -24.5q-68 0 -108 40t-40 111v361h104v-328q0 -92 78 -92q53 0 90 58q39 58 39 158v204h104z" />
    <glyph glyph-name="v" unicode="v" horiz-adv-x="456" 
d="M179 0l-167 504h106l110 -362l110 362h106l-167 -504h-98z" />
    <glyph glyph-name="w" unicode="w" horiz-adv-x="754" 
d="M516 136l97 368h110l-160 -504h-95l-91 356l-91 -356h-95l-160 504h110l97 -368l89 368h100z" />
    <glyph glyph-name="x" unicode="x" horiz-adv-x="470" 
d="M235 356l92 148h112l-148 -238l166 -266h-112l-110 176l-110 -176h-112l166 266l-148 238h112z" />
    <glyph glyph-name="y" unicode="y" horiz-adv-x="469" 
d="M185 25l-177 479h110l119 -339l115 339h110l-255 -708h-104z" />
    <glyph glyph-name="z" unicode="z" horiz-adv-x="461" 
d="M273 412h-212v92h347v-42l-227 -370h238v-92h-373v42z" />
    <glyph glyph-name="braceleft" unicode="{" horiz-adv-x="332" 
d="M142 46v181q0 45 -16.5 60.5t-66.5 15.5v94q50 0 66.5 15.5t16.5 60.5v181q0 42 27.5 69t71.5 27h66v-94h-25q-22 0 -31 -9.5t-9 -32.5v-165q0 -87 -73 -99q73 -12 73 -99v-165q0 -23 9 -32.5t31 -9.5h25v-94h-66q-44 0 -71.5 27t-27.5 69z" />
    <glyph glyph-name="bar" unicode="|" horiz-adv-x="288" 
d="M94 -50v800h100v-800h-100z" />
    <glyph glyph-name="braceright" unicode="}" horiz-adv-x="332" 
d="M190 227v-181q0 -42 -27.5 -69t-71.5 -27h-66v94h25q22 0 31 9.5t9 32.5v165q0 87 73 99q-73 12 -73 99v165q0 23 -9 32.5t-31 9.5h-25v94h66q44 0 71.5 -27t27.5 -69v-181q0 -45 16.5 -60.5t66.5 -15.5v-94q-50 0 -66.5 -15.5t-16.5 -60.5z" />
    <glyph glyph-name="asciitilde" unicode="~" horiz-adv-x="642" 
d="M133 257l-56 60q19 43 59 72t83 29q44 0 105 -26t93 -26q53 0 92 47l56 -60q-19 -43 -59 -72t-83 -29q-42 0 -105 26q-61 26 -93 26q-53 0 -92 -47z" />
    <glyph glyph-name="nbspace" unicode="&#xa0;" horiz-adv-x="258" 
 />
    <glyph glyph-name="exclamdown" unicode="&#xa1;" horiz-adv-x="351" 
d="M217 275l27 -479h-142l27 479h88zM118 371q-21 22 -21 54t21 53q22 22 55 22t54 -22q22 -21 22 -53t-22 -54q-21 -21 -54 -21t-55 21z" />
    <glyph glyph-name="cent" unicode="&#xa2;" horiz-adv-x="569" 
d="M419 270l93 -40q-52 -117 -170 -135v-144h-100v145q-90 16 -138 87q-47 71 -47 168q0 96 47 167q49 72 138 88v145h100v-144q118 -18 170 -135l-93 -40q-39 87 -125 87q-62 0 -94.5 -45t-32.5 -123t32.5 -123t94.5 -45q86 0 125 87z" />
    <glyph glyph-name="sterling" unicode="&#xa3;" horiz-adv-x="547" 
d="M142 314h-80v100h48q-14 51 -14 90q0 92 55 147q55 57 145 57q73 0 125.5 -36t75.5 -102l-87 -41q-34 79 -114 79q-44 0 -70 -26.5t-26 -78.5q0 -53 10 -89h163v-100h-133q5 -28 5 -50q0 -99 -82 -169q50 32 90 32q29 0 61 -18q34 -17 54 -17q46 0 80 57l79 -44
q-32 -60 -68.5 -86.5t-86.5 -26.5q-42 0 -88 17q-45 18 -66 18q-59 0 -115 -35l-62 69q59 56 84.5 97.5t25.5 89.5q0 36 -9 66z" />
    <glyph glyph-name="currency" unicode="&#xa4;" horiz-adv-x="562" 
d="M451 199l88 -67l-83 -83l-67 87q-46 -31 -108 -31t-108 31l-67 -87l-83 83l88 67q-30 49 -30 108t30 108l-88 67l83 83l67 -87q46 31 108 31t108 -31l67 87l83 -83l-88 -67q30 -49 30 -108t-30 -108zM351 231q27 29 27 76t-27 76q-26 29 -70 29t-71 -29q-26 -29 -26 -76
t26 -76q27 -29 71 -29t70 29z" />
    <glyph glyph-name="yen" unicode="&#xa5;" horiz-adv-x="518" 
d="M159 392l-149 308h117l132 -290l132 290h117l-149 -308h105v-92h-150v-67h150v-92h-150v-141h-110v141h-150v92h150v67h-150v92h105z" />
    <glyph glyph-name="brokenbar" unicode="&#xa6;" horiz-adv-x="288" 
d="M94 -50v349h100v-349h-100zM194 750v-349h-100v349h100z" />
    <glyph glyph-name="section" unicode="&#xa7;" horiz-adv-x="533" 
d="M482 222q0 -88 -64 -136q32 -44 32 -107q0 -87 -52 -139t-125 -52q-156 0 -195 149l95 32q27 -81 100 -81q33 0 55 23t22 64q0 47 -36 72q-20 16 -37 24q-8 4 -53 25q-38 18 -59 30q-102 56 -102 148q0 88 64 136q-32 44 -32 107q0 87 52 139t125 52q156 0 195 -149
l-95 -32q-27 81 -100 81q-33 0 -55 -23t-22 -64q0 -45 35 -73q19 -13 37 -23l53 -26q46 -21 60 -29q102 -56 102 -148zM389 213q0 23 -18.5 44.5t-43.5 33.5q-17 9 -66 31q-43 19 -65 31q-40 -25 -40 -70q0 -39 43 -68q15 -9 43 -23q95 -43 107 -49q40 25 40 70z" />
    <glyph glyph-name="dieresis" unicode="&#xa8;" horiz-adv-x="347" 
d="M36 606q-18 18 -18 45t18 45t45 18t45 -18t18 -45t-18 -45t-45 -18t-45 18zM222 606q-18 18 -18 45t18 45t45 18t45 -18t18 -45t-18 -45t-45 -18t-45 18z" />
    <glyph glyph-name="copyright" unicode="&#xa9;" horiz-adv-x="896" 
d="M174 72q-109 112 -109 278t109 278t274 112q164 0 273 -112q110 -113 110 -278t-110 -278q-109 -112 -273 -112q-165 0 -274 112zM241 563q-80 -86 -80 -213t80 -213q79 -85 207 -85t207 85q80 86 80 213t-80 213q-79 85 -207 85t-207 -85zM541 288l85 -19
q-10 -62 -59.5 -98.5t-118.5 -36.5q-82 0 -141 56q-58 57 -58 160q0 104 58 159q59 57 141 57q69 0 118.5 -36.5t59.5 -98.5l-85 -19q-22 70 -93 70q-48 0 -76.5 -35t-28.5 -97t28.5 -97t76.5 -35q71 0 93 70z" />
    <glyph glyph-name="ordfeminine" unicode="&#xaa;" horiz-adv-x="443" 
d="M60 416q0 60 46.5 95t124.5 35h68v17q0 69 -79 69q-59 0 -75 -52l-69 15q11 51 49 80t95 29q161 0 161 -156v-248h-68l-9 54q-42 -58 -122 -58q-55 0 -88.5 31t-33.5 89zM146 416q0 -48 50 -48q43 0 73 27.5t30 73.5v11h-71q-37 0 -59.5 -17.5t-22.5 -46.5z" />
    <glyph glyph-name="guillemotleft" unicode="&#xab;" horiz-adv-x="662" 
d="M339 68l-293 206v72l293 206v-107l-189 -135l189 -135v-107zM609 68l-293 206v72l293 206v-107l-189 -135l189 -135v-107z" />
    <glyph glyph-name="logicalnot" unicode="&#xac;" horiz-adv-x="588" 
d="M410 305h-345v92h449v-255h-104v163z" />
    <glyph glyph-name="uni00AD" unicode="&#xad;" horiz-adv-x="489" 
d="M421 271h-353v92h353v-92z" />
    <glyph glyph-name="registered" unicode="&#xae;" horiz-adv-x="896" 
d="M174 72q-109 112 -109 278t109 278t274 112q164 0 273 -112q110 -113 110 -278t-110 -278q-109 -112 -273 -112q-165 0 -274 112zM241 563q-80 -86 -80 -213t80 -213q79 -85 207 -85t207 85q80 86 80 213t-80 213q-79 85 -207 85t-207 -85zM634 137h-98l-122 182h-25
v-182h-86v426h158q67 0 102.5 -31.5t35.5 -90.5q0 -48 -24.5 -78.5t-67.5 -39.5zM460 483h-71v-84h71q54 0 54 42t-54 42z" />
    <glyph glyph-name="overscore" unicode="&#xaf;" horiz-adv-x="279" 
d="M268 626h-257v92h257v-92z" />
    <glyph glyph-name="degree" unicode="&#xb0;" horiz-adv-x="354" 
d="M95 513q-32 32 -32 80q0 47 32 79t82 32t82 -32t32 -79q0 -48 -32 -80q-31 -31 -82 -31t-82 31zM147 623q-11 -11 -11 -30t11 -31q11 -11 30 -11t30 11q11 12 11 31t-11 30q-11 12 -30 12t-30 -12z" />
    <glyph glyph-name="plusminus" unicode="&#xb1;" 
d="M237 445v176h92v-176h177v-92h-177v-177h-92v177h-176v92h176zM506 0h-445v92h445v-92z" />
    <glyph glyph-name="twosuperior" unicode="&#xb2;" horiz-adv-x="381" 
d="M322 300h-264v30l151 186q25 31 25 67q0 23 -12 36t-33 13q-49 0 -54 -60l-73 20q5 49 40.5 80.5t86.5 31.5q57 0 91 -32t34 -87t-39 -101l-92 -112h139v-72z" />
    <glyph glyph-name="threesuperior" unicode="&#xb3;" horiz-adv-x="388" 
d="M58 417l70 10q4 -27 22 -43t43 -16q56 0 56 67q0 29 -15 45t-41 16q-21 0 -38 -12l-36 47l73 97h-117v72h230v-29l-91 -120q51 0 83 -34t32 -85q0 -63 -35.5 -99.5t-100.5 -36.5q-57 0 -94.5 33.5t-40.5 87.5z" />
    <glyph glyph-name="acute" unicode="&#xb4;" horiz-adv-x="242" 
d="M97 560h-80l68 148h141z" />
    <glyph glyph-name="mu" unicode="&#xb5;" horiz-adv-x="580" 
d="M494 504v-504h-104v86q-58 -94 -163 -94q-19 0 -44 5v-201h-104v708h104v-328q0 -92 78 -92q53 0 90 58q39 58 39 158v204h104z" />
    <glyph glyph-name="paragraph" unicode="&#xb6;" horiz-adv-x="715" 
d="M267 700h385v-92h-62v-812h-104v812h-115v-812h-104v484q-88 0 -149 61t-61 149q0 87 61 148q62 62 149 62z" />
    <glyph glyph-name="middot" unicode="&#xb7;" horiz-adv-x="318" 
d="M106 421q22 22 53 22t52 -22q22 -21 22 -52t-22 -53q-21 -21 -52 -21t-53 21q-21 22 -21 53t21 52z" />
    <glyph glyph-name="cedilla" unicode="&#xb8;" horiz-adv-x="221" 
d="M132 -60h81l-84 -191l-121 56z" />
    <glyph glyph-name="onesuperior" unicode="&#xb9;" horiz-adv-x="298" 
d="M54 637l131 63h30v-400h-77v292l-84 -40v85z" />
    <glyph glyph-name="ordmasculine" unicode="&#xba;" horiz-adv-x="517" 
d="M117 355q-53 59 -53 145t53 145t142 59q88 0 141 -59t53 -145t-53 -145t-141 -59q-89 0 -142 59zM179 593q-29 -40 -29 -93t29 -93q28 -39 80 -39q51 0 79 39q29 40 29 93t-29 93q-28 39 -79 39q-52 0 -80 -39z" />
    <glyph glyph-name="guillemotright" unicode="&#xbb;" horiz-adv-x="662" 
d="M323 552l293 -206v-72l-293 -206v107l189 135l-189 135v107zM53 552l293 -206v-72l-293 -206v107l189 135l-189 135v107z" />
    <glyph glyph-name="onequarter" unicode="&#xbc;" horiz-adv-x="821" 
d="M74 637l131 63h30v-400h-77v292l-84 -40v85zM124 13l539 720l58 -45l-539 -720zM694 0h-77v71h-167v35l160 294h84v-257h44v-72h-44v-71zM617 286l-74 -143h74v143z" />
    <glyph glyph-name="onehalf" unicode="&#xbd;" horiz-adv-x="901" 
d="M74 637l131 63h30v-400h-77v292l-84 -40v85zM128 13l539 720l58 -45l-539 -720zM818 0h-264v30l151 186q25 31 25 67q0 23 -12 36t-33 13q-49 0 -54 -60l-73 20q5 49 40.5 80.5t86.5 31.5q57 0 91 -32t34 -87t-39 -101l-92 -112h139v-72z" />
    <glyph glyph-name="threequarters" unicode="&#xbe;" horiz-adv-x="815" 
d="M152 13l539 720l58 -45l-539 -720zM58 417l70 10q4 -27 22 -43t43 -16q56 0 56 67q0 29 -15 45t-41 16q-21 0 -38 -12l-36 47l73 97h-117v72h230v-29l-91 -120q51 0 83 -34t32 -85q0 -63 -35.5 -99.5t-100.5 -36.5q-57 0 -94.5 33.5t-40.5 87.5zM712 0h-77v71h-167v35
l160 294h84v-257h44v-72h-44v-71zM635 286l-74 -143h74v143z" />
    <glyph glyph-name="questiondown" unicode="&#xbf;" horiz-adv-x="456" 
d="M168 153l-81 31q31 105 139 105q61 0 98.5 -33.5t37.5 -90.5q0 -84 -85 -123l-83 -38q-27 -13 -38 -28.5t-11 -41.5q0 -27 21 -44t52 -17q76 0 98 82l95 -16q-12 -68 -62 -109.5t-125 -41.5q-79 0 -129 41.5t-50 112.5q0 81 71 116l113 55q42 19 42 56q0 19 -11.5 30
t-31.5 11q-40 0 -60 -57zM280 478q22 -21 22 -53t-22 -54q-21 -21 -54 -21t-55 21q-21 22 -21 54t21 53q22 22 55 22t54 -22z" />
    <glyph glyph-name="Agrave" unicode="&#xc0;" horiz-adv-x="608" 
d="M9 0l243 700h104l243 -700h-112l-58 174h-250l-58 -174h-112zM396 278l-92 283l-92 -283h184zM161 904h141l68 -148h-80z" />
    <glyph glyph-name="Aacute" unicode="&#xc1;" horiz-adv-x="608" 
d="M9 0l243 700h104l243 -700h-112l-58 174h-250l-58 -174h-112zM396 278l-92 283l-92 -283h184zM312 756h-80l68 148h141z" />
    <glyph glyph-name="Acircumflex" unicode="&#xc2;" horiz-adv-x="608" 
d="M9 0l243 700h104l243 -700h-112l-58 174h-250l-58 -174h-112zM396 278l-92 283l-92 -283h184zM227 762h-100l162 176h30l162 -176h-100l-77 80z" />
    <glyph glyph-name="Atilde" unicode="&#xc3;" horiz-adv-x="608" 
d="M9 0l243 700h104l243 -700h-112l-58 174h-250l-58 -174h-112zM396 278l-92 283l-92 -283h184zM177 773l-57 47q16 35 48 58t67 23q37 0 72 -21q35 -20 59 -20q33 0 66 40l57 -47q-16 -35 -48 -58t-67 -23q-38 0 -73 20q-34 21 -58 21q-33 0 -66 -40z" />
    <glyph glyph-name="Adieresis" unicode="&#xc4;" horiz-adv-x="608" 
d="M9 0l243 700h104l243 -700h-112l-58 174h-250l-58 -174h-112zM396 278l-92 283l-92 -283h184zM166 802q-18 18 -18 45t18 45t45 18t45 -18t18 -45t-18 -45t-45 -18t-45 18zM352 802q-18 18 -18 45t18 45t45 18t45 -18t18 -45t-18 -45t-45 -18t-45 18z" />
    <glyph glyph-name="Aring" unicode="&#xc5;" horiz-adv-x="608" 
d="M9 0l243 700h104l243 -700h-112l-58 174h-250l-58 -174h-112zM396 278l-92 283l-92 -283h184zM203 849q0 43 29 72.5t72 29.5q44 0 72.5 -29.5t28.5 -72.5q0 -42 -28.5 -70t-72.5 -28q-43 0 -72 28.5t-29 69.5zM268 850q0 -23 18 -32t36 0t18 32q2 24 -17 34t-38 0
t-17 -34z" />
    <glyph glyph-name="AE" unicode="&#xc6;" horiz-adv-x="848" 
d="M10 0l302 700h477v-104h-305v-172h246v-104h-246v-216h315v-104h-425v174h-179l-73 -174h-112zM374 561h-17l-118 -283h135v283z" />
    <glyph glyph-name="Ccedilla" unicode="&#xc7;" horiz-adv-x="695" 
d="M658 496l-104 -26q-27 70 -69 102t-110 32q-95 0 -153.5 -67t-58.5 -187t58.5 -187t153.5 -67q68 0 110 32t69 102l104 -26q-27 -102 -100 -157t-183 -55q-136 0 -230 94t-94 264q0 169 94 263q95 95 230 95q110 0 183 -55t100 -157zM380 -60h81l-84 -191l-121 56z" />
    <glyph glyph-name="Egrave" unicode="&#xc8;" horiz-adv-x="568" 
d="M94 0v700h415v-104h-305v-172h246v-104h-246v-216h315v-104h-425zM164 904h141l68 -148h-80z" />
    <glyph glyph-name="Eacute" unicode="&#xc9;" horiz-adv-x="568" 
d="M94 0v700h415v-104h-305v-172h246v-104h-246v-216h315v-104h-425zM307 756h-80l68 148h141z" />
    <glyph glyph-name="Ecircumflex" unicode="&#xca;" horiz-adv-x="568" 
d="M94 0v700h415v-104h-305v-172h246v-104h-246v-216h315v-104h-425zM227 762h-100l162 176h30l162 -176h-100l-77 80z" />
    <glyph glyph-name="Edieresis" unicode="&#xcb;" horiz-adv-x="568" 
d="M94 0v700h415v-104h-305v-172h246v-104h-246v-216h315v-104h-425zM167 802q-18 18 -18 45t18 45t45 18t45 -18t18 -45t-18 -45t-45 -18t-45 18zM353 802q-18 18 -18 45t18 45t45 18t45 -18t18 -45t-18 -45t-45 -18t-45 18z" />
    <glyph glyph-name="Igrave" unicode="&#xcc;" horiz-adv-x="298" 
d="M204 0h-110v700h110v-700zM20 904h141l68 -148h-80z" />
    <glyph glyph-name="Iacute" unicode="&#xcd;" horiz-adv-x="298" 
d="M204 0h-110v700h110v-700zM150 756h-80l68 148h141z" />
    <glyph glyph-name="Icircumflex" unicode="&#xce;" horiz-adv-x="298" 
d="M204 0h-110v700h110v-700zM78 762h-100l162 176h30l162 -176h-100l-77 80z" />
    <glyph glyph-name="Idieresis" unicode="&#xcf;" horiz-adv-x="298" 
d="M204 0h-110v700h110v-700zM11 802q-18 18 -18 45t18 45t45 18t45 -18t18 -45t-18 -45t-45 -18t-45 18zM197 802q-18 18 -18 45t18 45t45 18t45 -18t18 -45t-18 -45t-45 -18t-45 18z" />
    <glyph glyph-name="Eth" unicode="&#xd0;" horiz-adv-x="689" 
d="M110 304h-82v92h82v304h206q136 0 228 -91q94 -91 94 -259t-94 -259q-92 -91 -228 -91h-206v304zM284 596h-64v-200h82v-92h-82v-200h64q49 0 90 12t76.5 39t55.5 76.5t20 118.5t-20 118.5t-55.5 76.5t-76.5 39t-90 12z" />
    <glyph glyph-name="Ntilde" unicode="&#xd1;" horiz-adv-x="703" 
d="M499 196v504h110v-700h-118l-287 502v-502h-110v700h118zM224 773l-57 47q16 35 48 58t67 23q38 0 72 -21q35 -20 59 -20q33 0 66 40l57 -47q-16 -35 -48 -58t-67 -23q-38 0 -73 20q-34 21 -58 21q-33 0 -66 -40z" />
    <glyph glyph-name="Ograve" unicode="&#xd2;" horiz-adv-x="744" 
d="M143 614q93 94 229 94q137 0 228 -94q93 -93 93 -264q0 -170 -93 -265q-92 -93 -228 -93t-229 93q-92 95 -92 265t92 264zM521 539q-59 65 -149 65t-150 -65q-59 -65 -59 -189t59 -189q60 -65 150 -65t149 65q60 65 60 189t-60 189zM241 904h141l68 -148h-80z" />
    <glyph glyph-name="Oacute" unicode="&#xd3;" horiz-adv-x="744" 
d="M143 614q93 94 229 94q137 0 228 -94q93 -93 93 -264q0 -170 -93 -265q-92 -93 -228 -93t-229 93q-92 95 -92 265t92 264zM521 539q-59 65 -149 65t-150 -65q-59 -65 -59 -189t59 -189q60 -65 150 -65t149 65q60 65 60 189t-60 189zM381 756h-80l68 148h141z" />
    <glyph glyph-name="Ocircumflex" unicode="&#xd4;" horiz-adv-x="744" 
d="M143 614q93 94 229 94q137 0 228 -94q93 -93 93 -264q0 -170 -93 -265q-92 -93 -228 -93t-229 93q-92 95 -92 265t92 264zM521 539q-59 65 -149 65t-150 -65q-59 -65 -59 -189t59 -189q60 -65 150 -65t149 65q60 65 60 189t-60 189zM295 762h-100l162 176h30l162 -176
h-100l-77 80z" />
    <glyph glyph-name="Otilde" unicode="&#xd5;" horiz-adv-x="744" 
d="M143 614q93 94 229 94q137 0 228 -94q93 -93 93 -264q0 -170 -93 -265q-92 -93 -228 -93t-229 93q-92 95 -92 265t92 264zM521 539q-59 65 -149 65t-150 -65q-59 -65 -59 -189t59 -189q60 -65 150 -65t149 65q60 65 60 189t-60 189zM245 773l-57 47q16 35 48 58t67 23
q37 0 72 -21q35 -20 59 -20q33 0 66 40l57 -47q-16 -35 -48 -58t-67 -23q-38 0 -73 20q-34 21 -58 21q-33 0 -66 -40z" />
    <glyph glyph-name="Odieresis" unicode="&#xd6;" horiz-adv-x="744" 
d="M143 614q93 94 229 94q137 0 228 -94q93 -93 93 -264q0 -170 -93 -265q-92 -93 -228 -93t-229 93q-92 95 -92 265t92 264zM521 539q-59 65 -149 65t-150 -65q-59 -65 -59 -189t59 -189q60 -65 150 -65t149 65q60 65 60 189t-60 189zM235 802q-18 18 -18 45t18 45t45 18
t45 -18t18 -45t-18 -45t-45 -18t-45 18zM421 802q-18 18 -18 45t18 45t45 18t45 -18t18 -45t-18 -45t-45 -18t-45 18z" />
    <glyph glyph-name="multiply" unicode="&#xd7;" horiz-adv-x="564" 
d="M347 316l153 -154l-65 -65l-153 153l-153 -153l-65 65l153 154l-153 154l65 65l153 -153l153 153l65 -65z" />
    <glyph glyph-name="Oslash" unicode="&#xd8;" horiz-adv-x="744" 
d="M551 656l61 79l72 -53l-67 -87q76 -94 76 -245q0 -170 -93 -265q-92 -93 -228 -93q-100 0 -179 52l-61 -79l-72 53l67 87q-76 94 -76 245q0 170 92 264q93 94 229 94q100 0 179 -52zM581 350q0 91 -35 153l-287 -374q49 -33 113 -33q90 0 149 65q60 65 60 189zM372 604
q-90 0 -150 -65q-59 -65 -59 -189q0 -88 35 -153l287 374q-50 33 -113 33z" />
    <glyph glyph-name="Ugrave" unicode="&#xd9;" horiz-adv-x="654" 
d="M75 252v448h110v-453q0 -73 36.5 -112t105.5 -39t105.5 39t36.5 112v453h110v-448q0 -123 -71 -192q-71 -68 -181 -68q-111 0 -182 69q-70 69 -70 191zM191 904h141l68 -148h-80z" />
    <glyph glyph-name="Uacute" unicode="&#xda;" horiz-adv-x="654" 
d="M75 252v448h110v-453q0 -73 36.5 -112t105.5 -39t105.5 39t36.5 112v453h110v-448q0 -123 -71 -192q-71 -68 -181 -68q-111 0 -182 69q-70 69 -70 191zM331 756h-80l68 148h141z" />
    <glyph glyph-name="Ucircumflex" unicode="&#xdb;" horiz-adv-x="654" 
d="M75 252v448h110v-453q0 -73 36.5 -112t105.5 -39t105.5 39t36.5 112v453h110v-448q0 -123 -71 -192q-71 -68 -181 -68q-111 0 -182 69q-70 69 -70 191zM250 762h-100l162 176h30l162 -176h-100l-77 80z" />
    <glyph glyph-name="Udieresis" unicode="&#xdc;" horiz-adv-x="654" 
d="M75 252v448h110v-453q0 -73 36.5 -112t105.5 -39t105.5 39t36.5 112v453h110v-448q0 -123 -71 -192q-71 -68 -181 -68q-111 0 -182 69q-70 69 -70 191zM190 802q-18 18 -18 45t18 45t45 18t45 -18t18 -45t-18 -45t-45 -18t-45 18zM376 802q-18 18 -18 45t18 45t45 18
t45 -18t18 -45t-18 -45t-45 -18t-45 18z" />
    <glyph glyph-name="Yacute" unicode="&#xdd;" horiz-adv-x="514" 
d="M202 300l-200 400h117l138 -291l138 291h117l-200 -400v-300h-110v300zM255 756h-80l68 148h141z" />
    <glyph glyph-name="Thorn" unicode="&#xde;" horiz-adv-x="589" 
d="M345 143h-141v-143h-110v700h110v-143h141q102 0 159 -58q58 -58 58 -149t-58 -149q-57 -58 -159 -58zM204 247h146q47 0 73.5 27t26.5 76t-26.5 76t-73.5 27h-146v-206z" />
    <glyph glyph-name="germandbls" unicode="&#xdf;" horiz-adv-x="560" 
d="M83 337h-48v92h48v85q0 95 55 144q56 50 141 50q91 0 140 -50t49 -132q0 -50 -24 -84t-61 -46q136 -41 136 -184q0 -110 -57 -165t-162 -55q-37 0 -69 8v92q43 -8 69 -8q116 0 116 125q0 128 -125 128h-39v92h27q44 0 67.5 24.5t23.5 69.5q0 44 -24.5 68.5t-66.5 24.5
q-43 0 -67.5 -28.5t-24.5 -80.5v-507h-104v337z" />
    <glyph glyph-name="agrave" unicode="&#xe0;" horiz-adv-x="514" 
d="M44 145q0 77 59.5 121t158.5 44h87v22q0 43 -26.5 65.5t-71.5 22.5q-69 0 -94 -67l-95 20q16 64 67 101.5t123 37.5q201 0 201 -199v-313h-88l-10 66q-53 -74 -156 -74q-69 0 -112 40t-43 113zM154 145q0 -28 16.5 -44.5t46.5 -16.5q53 0 92 33q40 34 40 95v11h-91
q-48 0 -76 -21t-28 -57zM118 708h141l68 -148h-80z" />
    <glyph glyph-name="aacute" unicode="&#xe1;" horiz-adv-x="514" 
d="M44 145q0 77 59.5 121t158.5 44h87v22q0 43 -26.5 65.5t-71.5 22.5q-69 0 -94 -67l-95 20q16 64 67 101.5t123 37.5q201 0 201 -199v-313h-88l-10 66q-53 -74 -156 -74q-69 0 -112 40t-43 113zM154 145q0 -28 16.5 -44.5t46.5 -16.5q53 0 92 33q40 34 40 95v11h-91
q-48 0 -76 -21t-28 -57zM255 560h-80l68 148h141z" />
    <glyph glyph-name="acircumflex" unicode="&#xe2;" horiz-adv-x="514" 
d="M44 145q0 77 59.5 121t158.5 44h87v22q0 43 -26.5 65.5t-71.5 22.5q-69 0 -94 -67l-95 20q16 64 67 101.5t123 37.5q201 0 201 -199v-313h-88l-10 66q-53 -74 -156 -74q-69 0 -112 40t-43 113zM154 145q0 -28 16.5 -44.5t46.5 -16.5q53 0 92 33q40 34 40 95v11h-91
q-48 0 -76 -21t-28 -57zM180 566h-100l162 176h30l162 -176h-100l-77 80z" />
    <glyph glyph-name="atilde" unicode="&#xe3;" horiz-adv-x="514" 
d="M44 145q0 77 59.5 121t158.5 44h87v22q0 43 -26.5 65.5t-71.5 22.5q-69 0 -94 -67l-95 20q16 64 67 101.5t123 37.5q201 0 201 -199v-313h-88l-10 66q-53 -74 -156 -74q-69 0 -112 40t-43 113zM154 145q0 -28 16.5 -44.5t46.5 -16.5q53 0 92 33q40 34 40 95v11h-91
q-48 0 -76 -21t-28 -57zM123 577l-57 47q16 35 48 58t67 23q37 0 72 -21q35 -20 59 -20q33 0 66 40l57 -47q-16 -35 -48 -58t-67 -23q-38 0 -73 20q-35 21 -58 21q-33 0 -66 -40z" />
    <glyph glyph-name="adieresis" unicode="&#xe4;" horiz-adv-x="514" 
d="M44 145q0 77 59.5 121t158.5 44h87v22q0 43 -26.5 65.5t-71.5 22.5q-69 0 -94 -67l-95 20q16 64 67 101.5t123 37.5q201 0 201 -199v-313h-88l-10 66q-53 -74 -156 -74q-69 0 -112 40t-43 113zM154 145q0 -28 16.5 -44.5t46.5 -16.5q53 0 92 33q40 34 40 95v11h-91
q-48 0 -76 -21t-28 -57zM118 606q-18 18 -18 45t18 45t45 18t45 -18t18 -45t-18 -45t-45 -18t-45 18zM304 606q-18 18 -18 45t18 45t45 18t45 -18t18 -45t-18 -45t-45 -18t-45 18z" />
    <glyph glyph-name="aring" unicode="&#xe5;" horiz-adv-x="514" 
d="M44 145q0 77 59.5 121t158.5 44h87v22q0 43 -26.5 65.5t-71.5 22.5q-69 0 -94 -67l-95 20q16 64 67 101.5t123 37.5q201 0 201 -199v-313h-88l-10 66q-53 -74 -156 -74q-69 0 -112 40t-43 113zM154 145q0 -28 16.5 -44.5t46.5 -16.5q53 0 92 33q40 34 40 95v11h-91
q-48 0 -76 -21t-28 -57zM151 653q0 43 29 72.5t72 29.5q44 0 72.5 -29.5t28.5 -72.5q0 -42 -28.5 -70t-72.5 -28q-43 0 -72 28.5t-29 69.5zM216 654q0 -23 18 -32t36 0t18 32q2 24 -17 34t-38 0t-17 -34z" />
    <glyph glyph-name="ae" unicode="&#xe6;" horiz-adv-x="859" 
d="M816 268v-45h-357q0 -61 33.5 -100t91.5 -39q42 0 77.5 22.5t54.5 62.5l89 -35q-39 -76 -89 -109t-132 -33q-136 0 -199 113q-56 -113 -186 -113q-69 0 -112 40t-43 113q0 77 59.5 121t158.5 44h87v22q0 44 -27.5 66t-73.5 22q-74 0 -96 -66l-88 19q14 64 63 101.5
t121 37.5q118 0 169 -69q65 69 167 69q58 0 104 -22t73 -58t41 -78t14 -86zM154 145q0 -28 16.5 -44.5t46.5 -16.5q53 0 92 33q40 34 40 95v15h-91q-47 0 -75.5 -23t-28.5 -59zM584 420q-49 0 -81.5 -30t-41.5 -80h245q-7 49 -39 79.5t-83 30.5z" />
    <glyph glyph-name="ccedilla" unicode="&#xe7;" horiz-adv-x="542" 
d="M411 171l93 -40q-61 -139 -218 -139q-114 0 -176 74q-61 74 -61 186t61 185q62 75 176 75q157 0 218 -139l-93 -40q-39 87 -125 87q-62 0 -94.5 -45t-32.5 -123t32.5 -123t94.5 -45q86 0 125 87zM291 -60h81l-84 -191l-121 56z" />
    <glyph glyph-name="egrave" unicode="&#xe8;" horiz-adv-x="559" 
d="M284 420q-49 0 -81.5 -30t-41.5 -80h245q-7 49 -39 79.5t-83 30.5zM516 268v-45h-357q0 -61 33.5 -100t91.5 -39q42 0 77.5 22.5t54.5 62.5l89 -35q-39 -76 -89 -109t-132 -33q-60 0 -106.5 23.5t-73.5 62t-41 83t-14 91.5t14 91.5t41 83t73.5 62t106.5 23.5
q58 0 104 -22t73 -58t41 -78t14 -86zM140 708h141l68 -148h-80z" />
    <glyph glyph-name="eacute" unicode="&#xe9;" horiz-adv-x="559" 
d="M284 420q-49 0 -81.5 -30t-41.5 -80h245q-7 49 -39 79.5t-83 30.5zM516 268v-45h-357q0 -61 33.5 -100t91.5 -39q42 0 77.5 22.5t54.5 62.5l89 -35q-39 -76 -89 -109t-132 -33q-60 0 -106.5 23.5t-73.5 62t-41 83t-14 91.5t14 91.5t41 83t73.5 62t106.5 23.5
q58 0 104 -22t73 -58t41 -78t14 -86zM286 560h-80l68 148h141z" />
    <glyph glyph-name="ecircumflex" unicode="&#xea;" horiz-adv-x="559" 
d="M284 420q-49 0 -81.5 -30t-41.5 -80h245q-7 49 -39 79.5t-83 30.5zM516 268v-45h-357q0 -61 33.5 -100t91.5 -39q42 0 77.5 22.5t54.5 62.5l89 -35q-39 -76 -89 -109t-132 -33q-60 0 -106.5 23.5t-73.5 62t-41 83t-14 91.5t14 91.5t41 83t73.5 62t106.5 23.5
q58 0 104 -22t73 -58t41 -78t14 -86zM207 566h-100l162 176h30l162 -176h-100l-77 80z" />
    <glyph glyph-name="edieresis" unicode="&#xeb;" horiz-adv-x="559" 
d="M284 420q-49 0 -81.5 -30t-41.5 -80h245q-7 49 -39 79.5t-83 30.5zM516 268v-45h-357q0 -61 33.5 -100t91.5 -39q42 0 77.5 22.5t54.5 62.5l89 -35q-39 -76 -89 -109t-132 -33q-60 0 -106.5 23.5t-73.5 62t-41 83t-14 91.5t14 91.5t41 83t73.5 62t106.5 23.5
q58 0 104 -22t73 -58t41 -78t14 -86zM146 606q-18 18 -18 45t18 45t45 18t45 -18t18 -45t-18 -45t-45 -18t-45 18zM332 606q-18 18 -18 45t18 45t45 18t45 -18t18 -45t-18 -45t-45 -18t-45 18z" />
    <glyph glyph-name="igrave" unicode="&#xec;" horiz-adv-x="266" 
d="M81 0v504h104v-504h-104zM-1 708h141l68 -148h-80z" />
    <glyph glyph-name="iacute" unicode="&#xed;" horiz-adv-x="266" 
d="M81 0v504h104v-504h-104zM139 560h-80l68 148h141z" />
    <glyph glyph-name="icircumflex" unicode="&#xee;" horiz-adv-x="266" 
d="M81 0v504h104v-504h-104zM57 566h-100l162 176h30l162 -176h-100l-77 80z" />
    <glyph glyph-name="idieresis" unicode="&#xef;" horiz-adv-x="266" 
d="M81 0v504h104v-504h-104zM-5 606q-18 18 -18 45t18 45t45 18t45 -18t18 -45t-18 -45t-45 -18t-45 18zM181 606q-18 18 -18 45t18 45t45 18t45 -18t18 -45t-18 -45t-45 -18t-45 18z" />
    <glyph glyph-name="eth" unicode="&#xf0;" horiz-adv-x="582" 
d="M292 590l-35 -52l-68 48l33 48q-21 12 -82 40l51 76q48 -21 82 -41l35 52l68 -48l-34 -49q191 -147 191 -412q0 -110 -65 -186q-65 -74 -177 -74q-113 0 -178 74q-64 74 -64 186t64 185q65 75 178 75q57 0 92 -27q-25 56 -91 105zM193 371q-34 -49 -34 -119t34 -119
t98 -49t98 49t34 119t-34 119t-98 49t-98 -49z" />
    <glyph glyph-name="ntilde" unicode="&#xf1;" horiz-adv-x="580" 
d="M86 0v504h104v-86q27 45 70 69.5t93 24.5q68 0 108 -40t40 -111v-361h-104v328q0 92 -78 92q-52 0 -91 -59q-38 -59 -38 -157v-204h-104zM175 577l-57 47q16 35 48 58t67 23q37 0 72 -21q35 -20 59 -20q33 0 66 40l57 -47q-16 -35 -48 -58t-67 -23q-38 0 -73 20
q-35 21 -58 21q-33 0 -66 -40z" />
    <glyph glyph-name="ograve" unicode="&#xf2;" horiz-adv-x="594" 
d="M116 67q-67 74 -67 185t67 185q68 75 181 75t180 -75q68 -76 68 -185t-68 -185q-67 -75 -180 -75t-181 75zM195 370q-36 -49 -36 -118t36 -119q37 -49 102 -49t101 49q37 49 37 119q0 69 -37 118q-36 50 -101 50q-64 0 -102 -50zM172 708h141l68 -148h-80z" />
    <glyph glyph-name="oacute" unicode="&#xf3;" horiz-adv-x="594" 
d="M116 67q-67 74 -67 185t67 185q68 75 181 75t180 -75q68 -76 68 -185t-68 -185q-67 -75 -180 -75t-181 75zM195 370q-36 -49 -36 -118t36 -119q37 -49 102 -49t101 49q37 49 37 119q0 69 -37 118q-36 50 -101 50q-64 0 -102 -50zM300 560h-80l68 148h141z" />
    <glyph glyph-name="ocircumflex" unicode="&#xf4;" horiz-adv-x="594" 
d="M116 67q-67 74 -67 185t67 185q68 75 181 75t180 -75q68 -76 68 -185t-68 -185q-67 -75 -180 -75t-181 75zM195 370q-36 -49 -36 -118t36 -119q37 -49 102 -49t101 49q37 49 37 119q0 69 -37 118q-36 50 -101 50q-64 0 -102 -50zM220 566h-100l162 176h30l162 -176h-100
l-77 80z" />
    <glyph glyph-name="otilde" unicode="&#xf5;" horiz-adv-x="594" 
d="M116 67q-67 74 -67 185t67 185q68 75 181 75t180 -75q68 -76 68 -185t-68 -185q-67 -75 -180 -75t-181 75zM195 370q-36 -49 -36 -118t36 -119q37 -49 102 -49t101 49q37 49 37 119q0 69 -37 118q-36 50 -101 50q-64 0 -102 -50zM169 577l-57 47q16 35 48 58t67 23
q37 0 72 -21q35 -20 59 -20q33 0 66 40l57 -47q-16 -35 -48 -58t-67 -23q-38 0 -73 20q-35 21 -58 21q-33 0 -66 -40z" />
    <glyph glyph-name="odieresis" unicode="&#xf6;" horiz-adv-x="594" 
d="M116 67q-67 74 -67 185t67 185q68 75 181 75t180 -75q68 -76 68 -185t-68 -185q-67 -75 -180 -75t-181 75zM195 370q-36 -49 -36 -118t36 -119q37 -49 102 -49t101 49q37 49 37 119q0 69 -37 118q-36 50 -101 50q-64 0 -102 -50zM159 606q-18 18 -18 45t18 45t45 18
t45 -18t18 -45t-18 -45t-45 -18t-45 18zM345 606q-18 18 -18 45t18 45t45 18t45 -18t18 -45t-18 -45t-45 -18t-45 18z" />
    <glyph glyph-name="divide" unicode="&#xf7;" horiz-adv-x="535" 
d="M214 180q22 22 53 22t52 -22q22 -21 22 -52t-22 -53q-21 -21 -52 -21t-53 21q-21 22 -21 53t21 52zM214 552q22 22 53 22t52 -22q22 -21 22 -52t-22 -53q-21 -21 -52 -21t-53 21q-21 22 -21 53t21 52zM490 271h-445v92h445v-92z" />
    <glyph glyph-name="oslash" unicode="&#xf8;" horiz-adv-x="594" 
d="M174 22l-56 -72l-73 54l60 77q-56 73 -56 171q0 111 67 185q68 75 181 75q67 0 123 -30l56 72l73 -54l-60 -77q56 -73 56 -171q0 -109 -68 -185q-67 -75 -180 -75q-67 0 -123 30zM435 252q0 43 -16 82l-184 -234q28 -16 62 -16q65 0 101 49q37 49 37 119zM159 252
q0 -43 16 -82l184 234q-28 16 -62 16q-64 0 -102 -50q-36 -49 -36 -118z" />
    <glyph glyph-name="ugrave" unicode="&#xf9;" horiz-adv-x="580" 
d="M494 504v-504h-104v86q-27 -45 -70 -69.5t-93 -24.5q-68 0 -108 40t-40 111v361h104v-328q0 -92 78 -92q53 0 90 58q39 58 39 158v204h104zM161 708h141l68 -148h-80z" />
    <glyph glyph-name="uacute" unicode="&#xfa;" horiz-adv-x="580" 
d="M494 504v-504h-104v86q-27 -45 -70 -69.5t-93 -24.5q-68 0 -108 40t-40 111v361h104v-328q0 -92 78 -92q53 0 90 58q39 58 39 158v204h104zM282 560h-80l68 148h141z" />
    <glyph glyph-name="ucircumflex" unicode="&#xfb;" horiz-adv-x="580" 
d="M494 504v-504h-104v86q-27 -45 -70 -69.5t-93 -24.5q-68 0 -108 40t-40 111v361h104v-328q0 -92 78 -92q53 0 90 58q39 58 39 158v204h104zM197 566h-100l162 176h30l162 -176h-100l-77 80z" />
    <glyph glyph-name="udieresis" unicode="&#xfc;" horiz-adv-x="580" 
d="M494 504v-504h-104v86q-27 -45 -70 -69.5t-93 -24.5q-68 0 -108 40t-40 111v361h104v-328q0 -92 78 -92q53 0 90 58q39 58 39 158v204h104zM152 606q-18 18 -18 45t18 45t45 18t45 -18t18 -45t-18 -45t-45 -18t-45 18zM338 606q-18 18 -18 45t18 45t45 18t45 -18t18 -45
t-18 -45t-45 -18t-45 18z" />
    <glyph glyph-name="yacute" unicode="&#xfd;" horiz-adv-x="469" 
d="M185 25l-177 479h110l119 -339l115 339h110l-255 -708h-104zM240 560h-80l68 148h141z" />
    <glyph glyph-name="thorn" unicode="&#xfe;" horiz-adv-x="601" 
d="M552 252q0 -124 -58 -192t-167 -68q-44 0 -83 20t-54 46v-262h-104v912h104v-260q17 24 58 44q42 20 77 20q110 0 168.5 -69t58.5 -191zM406 129q36 47 36 123q0 77 -36 122q-36 46 -93 46t-93 -46q-36 -45 -36 -122q0 -76 36 -123q36 -45 93 -45t93 45z" />
    <glyph glyph-name="ydieresis" unicode="&#xff;" horiz-adv-x="469" 
d="M185 25l-177 479h110l119 -339l115 339h110l-255 -708h-104zM100 606q-18 18 -18 45t18 45t45 18t45 -18t18 -45t-18 -45t-45 -18t-45 18zM286 606q-18 18 -18 45t18 45t45 18t45 -18t18 -45t-18 -45t-45 -18t-45 18z" />
    <glyph glyph-name="dotlessi" unicode="&#x131;" horiz-adv-x="266" 
d="M81 0v504h104v-504h-104z" />
    <glyph glyph-name="Lslash" unicode="&#x141;" horiz-adv-x="534" 
d="M106 250l-62 -34l-45 81l107 60v343h110v-282l107 60l45 -82l-152 -85v-207h302v-104h-412v250z" />
    <glyph glyph-name="lslash" unicode="&#x142;" horiz-adv-x="355" 
d="M123 386v322h104v-265l60 33l43 -81l-103 -56v-339h-104v282l-60 -33l-43 81z" />
    <glyph glyph-name="OE" unicode="&#x152;" horiz-adv-x="1057" 
d="M583 631v69h415v-104h-305v-172h246v-104h-246v-216h315v-104h-425v69q-89 -77 -211 -77q-136 0 -229 93q-92 95 -92 265t92 264q93 94 229 94q122 0 211 -77zM521 539q-59 65 -149 65t-150 -65q-59 -65 -59 -189t59 -189q60 -65 150 -65t149 65q60 65 60 189t-60 189z
" />
    <glyph glyph-name="oe" unicode="&#x153;" horiz-adv-x="945" 
d="M902 268v-45h-357q0 -61 33.5 -100t91.5 -39q42 0 77.5 22.5t54.5 62.5l89 -35q-39 -76 -89 -109t-132 -33q-118 0 -182 88q-67 -88 -191 -88q-113 0 -181 75q-67 74 -67 185t67 185q68 75 181 75q124 0 191 -88q64 88 182 88q58 0 104 -22t73 -58t41 -78t14 -86z
M195 370q-36 -49 -36 -118t36 -119q37 -49 102 -49t101 49q37 49 37 119q0 69 -37 118q-36 50 -101 50q-64 0 -102 -50zM670 420q-49 0 -81.5 -30t-41.5 -80h245q-7 49 -39 79.5t-83 30.5z" />
    <glyph glyph-name="Scaron" unicode="&#x160;" horiz-adv-x="530" 
d="M454 590l-89 -59q-41 77 -104 77q-33 0 -53 -21.5t-20 -54.5q0 -64 106 -114q43 -19 68 -32.5t59 -39.5t50.5 -61t16.5 -80q0 -95 -62 -154t-157 -59q-89 0 -150.5 53.5t-80.5 141.5l90 57q37 -148 141 -148q47 0 77 29.5t30 75.5q0 32 -22 56.5t-55 40t-72 35.5
t-72 41.5t-55 60t-22 89.5q0 78 53 131t130 53q127 0 193 -118zM277 762h-30l-162 176h100l77 -80l77 80h100z" />
    <glyph glyph-name="scaron" unicode="&#x161;" horiz-adv-x="453" 
d="M234 512q45 0 85 -21.5t64 -58.5l-66 -58q-36 46 -88 46q-22 0 -36 -13.5t-14 -36.5q0 -18 13 -31q20 -20 77 -41q52 -19 78 -37q58 -35 63 -109q0 -68 -48 -114q-47 -46 -127 -46q-68 0 -119 38t-76 97l88 48q40 -91 111 -91q68 0 68 66q0 25 -26 40q-15 10 -26 14
q-8 4 -34.5 14t-33.5 13q-108 45 -108 138q0 60 44 101q43 42 111 42zM250 566h-30l-162 176h100l77 -80l77 80h100z" />
    <glyph glyph-name="Ydieresis" unicode="&#x178;" horiz-adv-x="514" 
d="M202 300l-200 400h117l138 -291l138 291h117l-200 -400v-300h-110v300zM120 802q-18 18 -18 45t18 45t45 18t45 -18t18 -45t-18 -45t-45 -18t-45 18zM306 802q-18 18 -18 45t18 45t45 18t45 -18t18 -45t-18 -45t-45 -18t-45 18z" />
    <glyph glyph-name="Zcaron" unicode="&#x17d;" horiz-adv-x="558" 
d="M357 596h-304v104h452v-54l-315 -542h328v-104h-480v54zM294 762h-30l-162 176h100l77 -80l77 80h100z" />
    <glyph glyph-name="zcaron" unicode="&#x17e;" horiz-adv-x="461" 
d="M273 412h-212v92h347v-42l-227 -370h238v-92h-373v42zM245 566h-30l-162 176h100l77 -80l77 80h100z" />
    <glyph glyph-name="florin" unicode="&#x192;" horiz-adv-x="478" 
d="M187 412h-85l18 92h85l5 26q34 178 203 178q54 0 80 -18l-38 -88q-25 14 -57 14q-70 0 -83 -79l-6 -33h111l-18 -92h-111l-88 -446q-34 -178 -203 -178q-55 0 -80 18l38 88q25 -14 57 -14q67 0 83 79z" />
    <glyph glyph-name="circumflex" unicode="&#x2c6;" horiz-adv-x="412" 
d="M129 566h-100l162 176h30l162 -176h-100l-77 80z" />
    <glyph glyph-name="caron" unicode="&#x2c7;" horiz-adv-x="412" 
d="M221 566h-30l-162 176h100l77 -80l77 80h100z" />
    <glyph glyph-name="breve" unicode="&#x2d8;" horiz-adv-x="256" 
d="M158 700h81q0 -46 -32.5 -77.5t-82.5 -31.5t-82.5 31.5t-32.5 77.5h81q0 -16 10 -25.5t24 -9.5q15 0 24.5 9.5t9.5 25.5z" />
    <glyph glyph-name="dotaccent" unicode="&#x2d9;" horiz-adv-x="279" 
d="M87 595q-20 21 -20 51t21 51q21 22 51 22t51 -22q21 -21 21 -51t-21 -51q-20 -20 -51 -20t-52 20z" />
    <glyph glyph-name="ring" unicode="&#x2da;" horiz-adv-x="234" 
d="M16 653q0 43 29 72.5t72 29.5q44 0 72.5 -29.5t28.5 -72.5q0 -42 -28.5 -70t-72.5 -28q-43 0 -72 28.5t-29 69.5zM81 654q0 -23 18 -32t36 0t18 32q2 24 -17 34t-38 0t-17 -34z" />
    <glyph glyph-name="ogonek" unicode="&#x2db;" horiz-adv-x="240" 
d="M81 -60h69q-56 -50 -56 -79q0 -28 28 -28q14 0 24 8t28 32l48 -39q-27 -40 -52 -57t-61 -17q-42 0 -66.5 22.5t-24.5 62.5q0 55 63 95z" />
    <glyph glyph-name="tilde" unicode="&#x2dc;" horiz-adv-x="403" 
d="M74 577l-57 47q16 35 48 58t67 23q38 0 72 -21q35 -20 59 -20q33 0 66 40l57 -47q-16 -35 -48 -58t-67 -23q-38 0 -73 20q-35 21 -58 21q-33 0 -66 -40z" />
    <glyph glyph-name="hungarumlaut" unicode="&#x2dd;" horiz-adv-x="450" 
d="M100 560h-80l68 140h141zM308 560h-80l68 140h141z" />
    <glyph glyph-name="Omega" unicode="&#x3a9;" horiz-adv-x="692" 
d="M305 0h-233v94h128q-23 41 -36 68q-20 46 -31 77q-35 107 -35 201q0 114 68 191q69 77 180 77t179 -77q69 -77 69 -191q0 -159 -89 -323l-13 -23h128v-94h-233v36q23 50 35 82q16 40 31 90q36 116 36 232q0 174 -143 174t-143 -174q0 -94 25 -193q24 -96 52 -156l25 -55
v-36z" />
    <glyph glyph-name="pi" unicode="&#x3c0;" horiz-adv-x="608" 
d="M138 410h-85v94h501v-94h-85v-410h-104v410h-123v-410h-104v410z" />
    <glyph glyph-name="endash" unicode="&#x2013;" horiz-adv-x="581" 
d="M513 271h-445v92h445v-92z" />
    <glyph glyph-name="emdash" unicode="&#x2014;" horiz-adv-x="779" 
d="M711 271h-643v92h643v-92z" />
    <glyph glyph-name="quoteleft" unicode="&#x2018;" horiz-adv-x="318" 
d="M54 708h143l74 -222h-78z" />
    <glyph glyph-name="quoteright" unicode="&#x2019;" horiz-adv-x="318" 
d="M125 486h-78l74 222h143z" />
    <glyph glyph-name="quotesinglbase" unicode="&#x201a;" horiz-adv-x="318" 
d="M125 -14h-78l74 222h143z" />
    <glyph glyph-name="quotedblleft" unicode="&#x201c;" horiz-adv-x="516" 
d="M252 708h143l74 -222h-78zM54 708h143l74 -222h-78z" />
    <glyph glyph-name="quotedblright" unicode="&#x201d;" horiz-adv-x="516" 
d="M125 486h-78l74 222h143zM323 486h-78l74 222h143z" />
    <glyph glyph-name="quotedblbase" unicode="&#x201e;" horiz-adv-x="516" 
d="M125 -14h-78l74 222h143zM323 -14h-78l74 222h143z" />
    <glyph glyph-name="dagger" unicode="&#x2020;" horiz-adv-x="466" 
d="M183 412h-127v92h127v246h100v-246h127v-92h-127v-462h-100v462z" />
    <glyph glyph-name="daggerdbl" unicode="&#x2021;" horiz-adv-x="466" 
d="M183 412h-127v92h127v246h100v-246h127v-92h-127v-124h127v-92h-127v-246h-100v246h-127v92h127v124z" />
    <glyph glyph-name="bullet" unicode="&#x2022;" horiz-adv-x="372" 
d="M111 255q-30 31 -30 75t30 74q31 31 75 31t74 -31q31 -30 31 -74t-31 -75q-30 -30 -74 -30t-75 30z" />
    <glyph glyph-name="ellipsis" unicode="&#x2026;" horiz-adv-x="854" 
d="M106 121q22 22 53 22t52 -22q22 -21 22 -52t-22 -53q-21 -21 -52 -21t-53 21q-21 22 -21 53t21 52zM374 121q22 22 53 22t52 -22q22 -21 22 -52t-22 -53q-21 -21 -52 -21t-53 21q-21 22 -21 53t21 52zM642 121q22 22 53 22t52 -22q22 -21 22 -52t-22 -53q-21 -21 -52 -21
t-53 21q-21 22 -21 53t21 52z" />
    <glyph glyph-name="perthousand" unicode="&#x2030;" horiz-adv-x="1240" 
d="M102 434q-47 47 -47 114q0 66 47 113t115 47t115 -47t47 -113q0 -67 -47 -114q-46 -46 -115 -46t-115 46zM163 603q-20 -21 -20 -55t20 -56q19 -21 54 -21t54 21q20 22 20 56t-20 55q-19 22 -54 22t-54 -22zM508 38q-47 47 -47 114q0 66 47 113t115 47t115 -47t47 -113
q0 -67 -47 -114q-46 -46 -115 -46t-115 46zM569 207q-20 -21 -20 -55t20 -56q19 -21 54 -21t54 21q20 22 20 56t-20 55q-19 22 -54 22t-54 -22zM908 38q-47 47 -47 114q0 66 47 113t115 47t115 -47t47 -113q0 -67 -47 -114q-46 -46 -115 -46t-115 46zM969 207
q-20 -21 -20 -55t20 -56q19 -21 54 -21t54 21q20 22 20 56t-20 55q-19 22 -54 22t-54 -22zM124 13l539 720l58 -45l-539 -720z" />
    <glyph glyph-name="guilsinglleft" unicode="&#x2039;" horiz-adv-x="392" 
d="M339 68l-293 206v72l293 206v-107l-189 -135l189 -135v-107z" />
    <glyph glyph-name="guilsinglright" unicode="&#x203a;" horiz-adv-x="392" 
d="M53 552l293 -206v-72l-293 -206v107l189 135l-189 135v107z" />
    <glyph glyph-name="fraction" unicode="&#x2044;" horiz-adv-x="611" 
d="M7 13l539 720l58 -45l-539 -720z" />
    <glyph glyph-name="zerosuperior" unicode="&#x2070;" horiz-adv-x="406" 
d="M86 650q44 54 117 54q74 0 116 -54q43 -53 43 -150t-43 -150q-42 -54 -116 -54q-73 0 -117 54q-42 54 -42 150t42 150zM260 599q-22 33 -57 33t-57 -33q-22 -32 -22 -99t22 -99q22 -33 57 -33t57 33q22 32 22 99t-22 99z" />
    <glyph glyph-name="foursuperior" unicode="&#x2074;" horiz-adv-x="344" 
d="M274 300h-77v71h-167v35l160 294h84v-257h44v-72h-44v-71zM197 586l-74 -143h74v143z" />
    <glyph glyph-name="fivesuperior" unicode="&#x2075;" horiz-adv-x="345" 
d="M45 409l75 10q10 -51 58 -51q61 0 61 63q0 69 -61 69q-37 0 -64 -29l-61 13l22 216h217v-72h-152l-12 -82q25 19 66 19q57 0 91 -37t34 -97t-39 -97.5t-102 -37.5q-53 0 -90 31q-38 32 -43 82z" />
    <glyph glyph-name="sixsuperior" unicode="&#x2076;" horiz-adv-x="366" 
d="M200 559q54 0 87.5 -36t33.5 -96q0 -58 -38 -94.5t-99 -36.5q-60 0 -98.5 37t-38.5 94q0 44 19 78l111 199h88l-89 -149q9 4 24 4zM127 427q0 -26 16 -42.5t41 -16.5t41 16.5t16 42.5q0 27 -16 43.5t-41 16.5t-41 -16.5t-16 -43.5z" />
    <glyph glyph-name="sevensuperior" unicode="&#x2077;" horiz-adv-x="338" 
d="M43 700h250v-30l-152 -370h-80l135 328h-153v72z" />
    <glyph glyph-name="eightsuperior" unicode="&#x2078;" horiz-adv-x="356" 
d="M298 596q0 -24 -12.5 -46.5t-32.5 -33.5q58 -31 58 -93q0 -58 -36.5 -92.5t-96.5 -34.5t-96.5 34.5t-36.5 92.5q0 62 58 93q-20 11 -32.5 33.5t-12.5 46.5q0 46 33.5 77t86.5 31t86.5 -31t33.5 -77zM217 463q-13 15 -39 15t-40 -15q-13 -15 -13 -40t13 -40q14 -15 40 -15
t39 15q14 15 14 40t-14 40zM213 632q-13 14 -35 14t-36 -14q-13 -14 -13 -36t13 -36q14 -14 36 -14t35 14q14 14 14 36t-14 36z" />
    <glyph glyph-name="ninesuperior" unicode="&#x2079;" horiz-adv-x="366" 
d="M166 441q-54 0 -87.5 36t-33.5 96q0 58 38 94.5t99 36.5q60 0 98.5 -37t38.5 -94q0 -44 -19 -78l-111 -199h-88l87 147q-5 -2 -22 -2zM239 573q0 26 -16 42.5t-41 16.5t-41 -16.5t-16 -42.5q0 -27 16 -43.5t41 -16.5t41 16.5t16 43.5z" />
    <glyph glyph-name="Euro" unicode="&#x20ac;" horiz-adv-x="633" 
d="M119 380h-90l46 92h52q21 115 90 175.5t173 60.5q142 0 204 -114l-88 -50q-43 70 -116 70q-128 0 -156 -142h213l-46 -92h-176v-60h222l-46 -92h-167q28 -142 156 -142q73 0 116 70l88 -50q-62 -114 -204 -114q-104 0 -173 60.5t-90 175.5h-98l46 92h44v60z" />
    <glyph glyph-name="trademark" unicode="&#x2122;" horiz-adv-x="832" 
d="M130 624h-105v76h294v-76h-105v-324h-84v324zM465 300h-84v400h85l101 -244l101 244h85v-400h-84v226l-75 -189h-54l-75 189v-226z" />
    <glyph glyph-name="partialdiff" unicode="&#x2202;" horiz-adv-x="609" 
d="M46 213q0 128 79 213q80 86 214 86q63 0 98 -30q-20 134 -132 134q-35 0 -64 -21.5t-43 -59.5l-103 31q19 62 78 102q58 40 131 40q130 0 187.5 -83t57.5 -263q0 -150 -66 -256q-72 -114 -235 -114q-94 0 -148 61t-54 160zM327 420q-75 0 -123 -62t-48 -140q0 -62 27 -98
t79 -36q76 0 123 63q47 65 47 144q0 129 -105 129z" />
    <glyph glyph-name="Delta" unicode="&#x2206;" horiz-adv-x="682" 
d="M630 0h-578v26l245 674h88l245 -674v-26zM503 94l-162 466l-162 -466h324z" />
    <glyph glyph-name="product" unicode="&#x220f;" horiz-adv-x="567" 
d="M194 0h-104v700h387v-700h-104v606h-179v-606z" />
    <glyph glyph-name="summation" unicode="&#x2211;" horiz-adv-x="547" 
d="M485 94v-94h-430v45l192 305l-192 305v45h430v-94h-288l154 -244v-24l-154 -244h288z" />
    <glyph glyph-name="minus" unicode="&#x2212;" horiz-adv-x="571" 
d="M509 271h-445v92h445v-92z" />
    <glyph glyph-name="radical" unicode="&#x221a;" horiz-adv-x="586" 
d="M303 148l162 560h98l-217 -708h-83l-98 295h-110v94h168z" />
    <glyph glyph-name="infinity" unicode="&#x221e;" horiz-adv-x="884" 
d="M640 168q-57 0 -110.5 26t-87.5 73q-34 -47 -87.5 -73t-110.5 -26q-88 0 -138.5 52t-50.5 139t50.5 139t138.5 52q57 0 110.5 -26t87.5 -73q34 47 87.5 73t110.5 26q88 0 138.5 -52t50.5 -139t-50.5 -139t-138.5 -52zM259 260q35 0 70.5 25t60.5 74q-25 49 -60.5 74
t-70.5 25q-46 0 -73 -26t-27 -73t27 -73t73 -26zM625 260q46 0 73 26t27 73t-27 73t-73 26q-35 0 -70.5 -25t-60.5 -74q25 -49 60.5 -74t70.5 -25z" />
    <glyph glyph-name="integral" unicode="&#x222b;" horiz-adv-x="478" 
d="M98 -41l112 571q34 178 203 178q54 0 80 -18l-38 -88q-25 14 -57 14q-67 0 -83 -79l-112 -571q-34 -178 -203 -178q-55 0 -80 18l38 88q25 -14 57 -14q67 0 83 79z" />
    <glyph glyph-name="approxequal" unicode="&#x2248;" horiz-adv-x="617" 
d="M121 357l-56 60q19 43 59 72t83 29q44 0 105 -26t93 -26q53 0 92 47l56 -60q-19 -43 -59 -72t-83 -29q-42 0 -105 26q-61 26 -93 26q-53 0 -92 -47zM120 157l-56 60q19 43 59 72t83 29q42 0 105 -26t93 -26q53 0 92 47l56 -60q-19 -43 -59 -72t-83 -29q-42 0 -105 26
q-61 26 -93 26q-53 0 -92 -47z" />
    <glyph glyph-name="notequal" unicode="&#x2260;" horiz-adv-x="565" 
d="M251 347h-176v92h228l61 107l80 -46l-35 -61h81v-92h-134l-42 -74h176v-92h-228l-61 -107l-80 46l35 61h-81v92h134z" />
    <glyph glyph-name="lessequal" unicode="&#x2264;" horiz-adv-x="565" 
d="M462 158l-364 192v104l364 192v-111l-254 -133l254 -133v-111zM509 0h-457v92h457v-92z" />
    <glyph glyph-name="greaterequal" unicode="&#x2265;" horiz-adv-x="565" 
d="M103 646l364 -192v-104l-364 -192v111l254 133l-254 133v111zM56 92h457v-92h-457v92z" />
    <glyph glyph-name="lozenge" unicode="&#x25ca;" horiz-adv-x="590" 
d="M345 0h-100l-181 350l181 350h100l181 -350zM167 350l128 -260l128 260l-128 259z" />
    <glyph glyph-name="apple" unicode="&#xf8ff;" horiz-adv-x="780" 
d="M686 617v-595q0 -9 -6.5 -15.5t-15.5 -6.5q-4 0 -7 1l-267 77l-267 -77q-3 -1 -7 -1q-9 0 -15.5 6.5t-6.5 15.5v595q0 18 16 22l270 78q10 4 20 0l270 -78q16 -4 16 -22zM368 366v303l-230 -67q6 -93 71 -161q66 -67 159 -75zM642 602l-230 67v-303q94 8 158 75
q66 68 72 161zM137 463v-412l231 67v204q-73 6 -134 43.5t-97 97.5zM412 118l231 -67v412q-37 -60 -98 -97.5t-133 -43.5v-204z" />
    <glyph glyph-name="No" horiz-adv-x="1250" 
d="M499 196v504h110v-700h-118l-287 502v-502h-110v700h118zM772 263q-67 74 -67 185t67 185q68 75 181 75t180 -75q68 -76 68 -185t-68 -185q-67 -75 -180 -75t-181 75zM851 566q-36 -50 -36 -118q0 -70 36 -119q37 -49 102 -49t101 49q37 49 37 119q0 69 -37 118
q-36 50 -101 50q-64 0 -102 -50zM1176 0h-445v92h445v-92z" />
    <glyph glyph-name="zero.tn" 
d="M96 613q65 95 187 95t187 -95t65 -263t-65 -263t-187 -95t-187 95t-65 263t65 263zM392 544q-36 68 -109 68q-72 0 -110 -68q-36 -68 -36 -194t36 -194q38 -68 110 -68q73 0 109 68q37 67 37 194t-37 194z" />
    <glyph glyph-name="one.tn" 
d="M126 584l194 116h43v-700h-106v550l-131 -78v112z" />
    <glyph glyph-name="two.tn" 
d="M495 0h-434v44l258 331q32 41 44 68.5t12 61.5q0 50 -25 78.5t-71 28.5q-44 0 -71 -28.5t-33 -78.5l-100 19q4 78 62 131q59 53 142 53q91 0 146 -54q57 -52 57 -145q0 -87 -58 -160l-199 -253h270v-96z" />
    <glyph glyph-name="three.tn" 
d="M56 193l103 13q19 -118 126 -118q57 0 91 36t34 99q0 65 -34 101t-91 36q-28 0 -61 -14l-42 56l145 202h-237v96h390v-36l-170 -232q12 3 29 3q80 0 128 -60q49 -58 49 -152q0 -100 -67 -166q-67 -65 -164 -65q-91 0 -157 57t-72 144z" />
    <glyph glyph-name="four.tn" 
d="M446 0h-106v140h-302v48l296 512h112v-464h82v-96h-82v-140zM340 540l-170 -304h170v304z" />
    <glyph glyph-name="five.tn" 
d="M65 183l103 19q17 -114 115 -114q56 0 86.5 37.5t30.5 102.5t-30.5 102.5t-86.5 37.5q-80 0 -134 -72l-69 14l39 390h348v-96h-259l-21 -175q43 35 102 35q103 0 160 -66q57 -64 57 -170q0 -105 -61 -170q-60 -66 -162 -66q-90 0 -149 51t-69 140z" />
    <glyph glyph-name="six.tn" 
d="M287 448q96 0 157 -64t61 -164q0 -98 -64 -163q-63 -65 -160 -65q-96 0 -161 65q-63 66 -63 163q0 68 34 127l208 361h118l-153 -264q7 4 23 4zM163 220q0 -58 33 -95t85 -37t85 37t33 95q0 60 -32 96t-86 36t-86 -36t-32 -96z" />
    <glyph glyph-name="seven.tn" 
d="M75 700h414v-48l-268 -652h-106l249 604h-289v96z" />
    <glyph glyph-name="eight.tn" 
d="M481 519q0 -85 -70 -142q96 -55 96 -171q0 -97 -65 -156q-64 -58 -159 -58t-159 58q-65 59 -65 156q0 116 96 171q-70 55 -70 142q0 78 56 134q55 55 142 55t142 -55q56 -56 56 -134zM367 290q-33 30 -84 30t-85 -30q-33 -30 -33 -84q0 -55 34 -86q35 -32 84 -32t84 32
q34 31 34 86q0 54 -34 84zM188 518q0 -43 27 -71t68 -28t68 28t27 71q0 42 -27 70t-68 28t-68 -28t-27 -70z" />
    <glyph glyph-name="nine.tn" 
d="M279 252q-96 0 -157 64t-61 164q0 98 63 162q65 66 161 66q97 0 160 -66q64 -64 64 -162q0 -68 -34 -127l-208 -361h-118l153 264q-7 -4 -23 -4zM403 480q0 58 -33 95t-85 37t-85 -37t-33 -95q0 -60 32 -96t86 -36t86 36t32 96z" />
    </font>
</defs>
</svg>
