<?xml version="1.0" standalone="no"?>
<!DOCTYPE svg PUBLIC "-//W3C//DTD SVG 1.1//EN" "http://www.w3.org/Graphics/SVG/1.1/DTD/svg11.dtd" >
<svg xmlns="http://www.w3.org/2000/svg">
<metadata></metadata>
<defs>
<font id="salomeregular" horiz-adv-x="1628" >
<font-face units-per-em="2048" ascent="1536" descent="-512" />
<missing-glyph horiz-adv-x="538" />
<glyph unicode="&#x2e;&#x2e;&#x2e;" horiz-adv-x="1857" d="M76 176q0 95 57 156t162 61t163 -61t58 -156q0 -96 -58 -155.5t-163 -59.5t-162 59.5t-57 155.5zM709 176q0 95 57 156t162 61t163 -61t58 -156q0 -96 -58 -155.5t-163 -59.5t-162 59.5t-57 155.5zM1341 176q0 95 57.5 156t162.5 61t163 -61t58 -156q0 -96 -58 -155.5 t-163 -59.5t-162.5 59.5t-57.5 155.5z" />
<glyph unicode="&#xfb01;" horiz-adv-x="1492" d="M35 0v18q59 0 89 38t30 106v803h-86v18h86q0 175 87.5 308.5t236 203.5t333.5 70q104 0 187 -24t132.5 -63t75 -86t25.5 -96q0 -93 -68 -148.5t-184 -55.5q-70 0 -139 31.5t-103 74.5q32 33 56 98.5t24 122.5q0 61 -14 93t-49 32q-58 0 -102 -70.5t-44 -209.5v-281h170 q138 0 281 10.5t217 20.5l74 10v-928q0 -78 80 -78v-18q-99 6 -306 6q-91 0 -177.5 -1.5t-127.5 -2.5l-41 -2v18q58 0 87.5 38t29.5 106v696q0 59 -26 84t-83 25h-178v-863q0 -46 24.5 -66t78.5 -20v-18q-137 6 -330 6q-87 0 -173.5 -1.5t-129.5 -2.5z" />
<glyph unicode="&#xfb02;" horiz-adv-x="1492" d="M35 0v18q59 0 89 38t30 106v803h-86v18h86q0 264 180 423t461 159q194 0 309 -99q67 13 128.5 30.5t89.5 28.5l28 11v-1440q0 -78 80 -78v-18q-99 6 -306 6q-91 0 -177.5 -1.5t-127.5 -2.5l-41 -2v18q58 0 87.5 38t29.5 106v983q-101 18 -160 90q27 38 46.5 96.5 t19.5 106.5q0 106 -64 106q-129 0 -129 -350v-211h197v-16h-197v-863q0 -45 27.5 -65.5t85.5 -20.5v-18q-147 6 -340 6q-87 0 -173.5 -1.5t-129.5 -2.5z" />
<glyph unicode="&#xfb03;" horiz-adv-x="2201" d="M35 0v18q59 0 89 38t30 106v803h-86v18h86q0 105 31.5 188.5t87.5 140t137 93.5t176.5 53.5t208.5 16.5q158 0 266 -64q91 74 210 114t249 40q104 0 186.5 -24t132 -63.5t75 -86t25.5 -95.5q0 -93 -67.5 -148.5t-183.5 -55.5q-70 0 -139 31.5t-103 74.5q32 33 56 98.5 t24 122.5q0 125 -64 125q-58 0 -101.5 -70.5t-43.5 -209.5v-281h170q138 0 281 10.5t216 20.5l74 10v-928q0 -78 80 -78v-18q-98 6 -305 6q-91 0 -177.5 -1.5t-127.5 -2.5l-41 -2v18q58 0 87.5 38t29.5 106v696q0 59 -26 84t-83 25h-178v-863q0 -46 24 -66t78 -20v-18 q-136 6 -329 6l-347 -6v18q59 0 89 38t30 106v803h-254v-861q0 -48 17.5 -67t68.5 -19v-18q-120 6 -313 6q-87 0 -173.5 -1.5t-129.5 -2.5zM608 983h254q0 47 4 78q-78 25 -131 84q27 38 46.5 96.5t19.5 106.5q0 106 -64 106q-129 0 -129 -350v-121z" />
<glyph unicode="&#xfb04;" horiz-adv-x="2201" d="M35 0v18q59 0 89 38t30 106v803h-86v18h86q0 105 31.5 188.5t87.5 140t137 93.5t176.5 53.5t208.5 16.5q158 0 266 -64q78 71 194.5 112.5t247.5 41.5q194 0 309 -99q67 13 128.5 30.5t89.5 28.5l28 11v-1440q0 -78 80 -78v-18q-98 6 -305 6q-91 0 -177.5 -1.5 t-127.5 -2.5l-41 -2v18q58 0 87.5 38t29.5 106v983q-101 18 -160 90q27 38 46 96t19 107q0 106 -63 106q-129 0 -129 -350v-211h196v-16h-196v-863q0 -45 24 -65.5t78 -20.5v-18q-136 6 -329 6l-347 -6v18q59 0 89 38t30 106v803h-254v-861q0 -48 17.5 -67t68.5 -19v-18 q-120 6 -313 6q-87 0 -173.5 -1.5t-129.5 -2.5zM608 983h254q0 47 4 78q-78 25 -131 84q27 38 46.5 96.5t19.5 106.5q0 106 -64 106q-129 0 -129 -350v-121z" />
<glyph horiz-adv-x="0" />
<glyph horiz-adv-x="0" />
<glyph horiz-adv-x="682" />
<glyph unicode="&#xd;" horiz-adv-x="538" />
<glyph unicode=" "  horiz-adv-x="538" />
<glyph unicode="&#x09;" horiz-adv-x="538" />
<glyph unicode="&#xa0;" horiz-adv-x="538" />
<glyph unicode="!" horiz-adv-x="614" d="M41 1204q0 112 75.5 190.5t192.5 78.5t193 -78.5t76 -190.5q0 -63 -19 -121t-47 -101t-61 -90.5t-61 -88.5t-47 -95.5t-19 -111.5q0 -31 1.5 -58t2.5 -38l2 -11h-21h-20q6 37 6 107q0 57 -19 111.5t-47 95.5t-61 88.5t-61 90.5t-47 101t-19 121zM84 176q0 95 57 156 t162 61t163 -61t58 -156q0 -96 -58 -155.5t-163 -59.5t-162 59.5t-57 155.5z" />
<glyph unicode="&#x22;" horiz-adv-x="909" d="M41 1278q0 81 55 138t140 57t139.5 -57t54.5 -138q0 -54 -18.5 -103t-45.5 -87t-54 -75t-45.5 -82.5t-18.5 -94.5q0 -23 1.5 -42.5t2.5 -27.5l2 -8h-18h-17q4 27 4 78q0 49 -18.5 94.5t-45.5 82.5t-54 75t-45.5 87t-18.5 103zM483 1278q0 81 55 138t140 57t139.5 -57 t54.5 -138q0 -54 -18.5 -103t-45.5 -87t-54 -75t-45.5 -82.5t-18.5 -94.5q0 -23 1.5 -42.5t2.5 -27.5l2 -8h-18h-16q4 27 4 78q0 49 -19 94.5t-46 82.5t-53.5 75t-45.5 87t-19 103z" />
<glyph unicode="#" horiz-adv-x="1206" d="M63 553l7 20h292l95 349h-293l6 20h293l102 379h23l-103 -379h334l103 379h22l-102 -379h299l-6 -20h-299l-95 -349h299l-6 -20h-297l-102 -379h-23l103 379h-334l-102 -379h-23l102 379h-295zM385 573h334l94 349h-334z" />
<glyph unicode="$" horiz-adv-x="1249" d="M68 1030q0 204 148.5 323.5t418.5 119.5l57 -3l33 197h20l-32 -199l73 -8l35 207h21l-35 -209q205 -28 285 -28l-19 -424h-20q-24 125 -92 233t-164 164l-72 -432q176 -90 250 -143q194 -139 216 -328q3 -26 3 -54q0 -148 -83.5 -260.5t-215 -168.5t-285.5 -56 q-37 0 -53 2l-33 -201h-20l33 201q-29 2 -74 10l-35 -211h-20l34 215q-21 4 -67.5 14.5t-76.5 16t-86.5 10.5t-121.5 5l-20 514h20q40 -197 134 -337t225 -192l81 496q-178 99 -251 155q-190 144 -209 327q-2 21 -2 44zM440 1276q0 -76 46 -133t132 -113l70 416q-30 6 -61 6 q-84 0 -135.5 -46.5t-51.5 -129.5zM467 0q35 -11 74 -14l77 467l-69 41zM561 -16q17 -2 27 -2q121 0 183.5 57.5t62.5 146.5q0 74 -51 133.5t-146 120.5zM637 1020q42 -26 70 -39l71 432q-35 18 -71 27z" />
<glyph unicode="%" horiz-adv-x="1413" d="M63 1114q0 69 24 133t68 114.5t115 81t158 30.5q154 0 241 -93.5t87 -234.5q0 -51 -12.5 -100.5t-41 -97t-70.5 -83.5t-106 -58t-143 -22q-139 0 -229.5 89t-90.5 241zM225 -51l934 1536h27l-934 -1536h-27zM326 1139q0 -136 28 -235t62 -99q32 0 55 91t23 222 q0 121 -27 227.5t-66 106.5q-34 0 -54.5 -93t-20.5 -220zM657 291q0 69 24 132.5t68 114.5t115 81t158 30q154 0 241 -93t87 -234q0 -51 -12.5 -100.5t-41 -97t-70.5 -83.5t-106 -58t-143 -22q-139 0 -229.5 89t-90.5 241zM920 315q0 -136 28 -234.5t62 -98.5 q32 0 54.5 90.5t22.5 222.5q0 121 -26.5 227.5t-65.5 106.5q-34 0 -54.5 -93.5t-20.5 -220.5z" />
<glyph unicode="&#x26;" horiz-adv-x="1607" d="M59 260q0 67 23.5 125t63.5 101.5t95 77t115.5 53.5t126.5 30q-105 126 -156 221.5t-51 196.5q0 77 32.5 144t87.5 114.5t126.5 82t149 51t155.5 16.5q190 0 290 -66t100 -166q0 -84 -58 -130t-141 -46q-41 0 -86.5 13.5t-73.5 35.5q66 76 66 182q0 158 -117 158 q-68 0 -110 -51t-42 -137q0 -74 31 -136t105 -157l368 -465q82 122 82 217q0 60 -43.5 96.5t-140.5 36.5v19q182 -9 284 -9q55 0 118 2t99 4l35 3v-19q-60 0 -110.5 -17t-84.5 -42t-68 -65.5t-55 -75.5t-51.5 -85t-52.5 -81l148 -195q134 -172 240 -172q27 0 59 16l8 -12 q-6 -7 -17 -18t-48 -40t-77.5 -51.5t-104 -40.5t-128.5 -18q-141 0 -220 41.5t-169 149.5q-111 -98 -221 -144.5t-233 -46.5q-166 0 -257.5 85t-91.5 214zM457 473q0 -87 30 -169t92 -138.5t142 -56.5q31 0 68 18t61 41l-354 465q-39 -59 -39 -160z" />
<glyph unicode="'" horiz-adv-x="471" d="M41 1278q0 81 55 138t140 57t139.5 -57t54.5 -138q0 -54 -18.5 -103t-45.5 -87t-54 -75t-45.5 -82.5t-18.5 -94.5q0 -23 1.5 -42.5t2.5 -27.5l2 -8h-18h-17q4 27 4 78q0 49 -18.5 94.5t-45.5 82.5t-54 75t-45.5 87t-18.5 103z" />
<glyph unicode="(" horiz-adv-x="790" d="M41 614q0 137 38.5 265t103 230t152.5 192.5t181 156t195 115.5l6 -8q-75 -107 -127.5 -239t-76.5 -264t-33 -237t-9 -211q0 -82 5 -162.5t20.5 -188t41.5 -204t72 -202.5t107 -193l-6 -8q-102 50 -195 115.5t-181 155.5t-152.5 192t-103 230t-38.5 265z" />
<glyph unicode=")" horiz-adv-x="790" d="M74 -336q245 349 245 950q0 602 -245 951l6 8q102 -50 195 -115.5t181 -156t152.5 -192.5t103 -230t38.5 -265t-38.5 -265t-103 -230t-152.5 -192t-181 -155.5t-195 -115.5z" />
<glyph unicode="*" horiz-adv-x="604" d="M72 1120q0 39 33.5 60.5t84.5 21.5q7 0 24 -0.5t27 -0.5t23.5 2t22.5 7q-28 9 -92 9q-48 0 -85.5 20t-37.5 61q0 30 20.5 51t48.5 21q19 0 39 -10q36 -20 65 -73t50 -68q-3 27 -34.5 78t-31.5 92q0 31 20 51t52 20t52 -20t20 -51q0 -41 -31.5 -92t-34.5 -78q21 15 50 68 t65 73q20 10 39 10q28 0 48.5 -21t20.5 -51q0 -41 -37 -61t-85 -20q-67 0 -95 -9q11 -4 25 -6t22.5 -2.5t27.5 0t24 0.5q51 0 84.5 -21.5t33.5 -60.5q0 -31 -20 -51t-49 -20q-38 0 -63.5 28.5t-48 68.5t-42.5 54q3 -27 34.5 -78t31.5 -92q0 -31 -20 -51.5t-52 -20.5 t-52 20.5t-20 51.5q0 41 31.5 92t34.5 78q-20 -14 -42.5 -54t-48 -68.5t-63.5 -28.5q-29 0 -49 20t-20 51z" />
<glyph unicode="+" horiz-adv-x="903" d="M0 545v20h440v432h23v-432h440v-20h-440v-434h-23v434h-440z" />
<glyph unicode="," horiz-adv-x="620" d="M76 182q0 95 62.5 153t156.5 58q100 0 160.5 -64.5t60.5 -164.5q0 -144 -96 -275.5t-246 -236.5l-12 12q102 102 102 217q0 76 -46.5 139t-133.5 97q-8 40 -8 65z" />
<glyph unicode="-" horiz-adv-x="735" d="M49 578v22h637v-22h-637z" />
<glyph unicode="." horiz-adv-x="591" d="M76 176q0 95 57 156t162 61t163 -61t58 -156q0 -96 -58 -155.5t-163 -59.5t-162 59.5t-57 155.5z" />
<glyph unicode="/" horiz-adv-x="851" d="M113 -393l596 1929h28l-596 -1929h-28z" />
<glyph unicode="0" horiz-adv-x="1521" d="M57 684q0 159 54 303.5t147 251.5t225.5 170.5t282.5 63.5q308 0 503 -200.5t195 -520.5q0 -127 -34.5 -246.5t-99 -217.5t-151.5 -171.5t-197.5 -114.5t-231.5 -41q-203 0 -360.5 91t-245 255.5t-87.5 376.5zM592 739q0 -342 53 -549.5t139 -207.5q77 0 110.5 162.5 t33.5 549.5q0 344 -52 551t-139 207q-77 0 -111 -164.5t-34 -548.5z" />
<glyph unicode="1" horiz-adv-x="864" d="M41 0v20q77 0 115.5 67t38.5 189v852q0 96 -15.5 147t-47.5 70t-91 19v22q162 0 338 22t291 65v-1270q0 -105 35.5 -144t117.5 -39v-20q-178 6 -391 6z" />
<glyph unicode="2" horiz-adv-x="1345" d="M47 53q0 80 23 152t62 128t89.5 108.5t106.5 101t112 97.5t106.5 105t89.5 117.5t62 141.5t23 170q0 134 -61.5 202t-155.5 68q-76 0 -123 -49.5t-47 -116.5q0 -77 45 -115t115 -43q8 -24 8 -55q0 -74 -56.5 -131t-148.5 -57q-61 0 -106.5 22t-70 59t-36.5 76.5t-12 81.5 q0 55 20.5 105.5t65.5 97t110.5 80.5t161.5 54t213 20q174 0 312.5 -48t219 -139t80.5 -209q0 -89 -29 -158.5t-80.5 -115t-119 -80.5t-147 -60t-161.5 -47.5t-166 -48.5t-157.5 -57.5t-138.5 -80.5t-106 -112l6 -6q46 54 104.5 89t124 49.5t115 19t114.5 4.5 q87 0 266.5 -28.5t258.5 -28.5q122 0 137 110h20q0 -293 -107.5 -429t-350.5 -136q-90 0 -182 21t-153.5 46.5t-134.5 46.5t-130 21q-80 0 -123 -40t-43 -93l-13 -2q-12 40 -12 92z" />
<glyph unicode="3" horiz-adv-x="1316" d="M37 317q0 42 12 81.5t37 75t71 57.5t107 22q91 0 143 -58t52 -133q0 -25 -6 -49q-71 -5 -115.5 -42.5t-44.5 -114.5q0 -68 47 -117t133 -49q59 0 117 33.5t105 92t76.5 147t29.5 190.5q0 130 -69.5 212.5t-188.5 82.5q-45 0 -103 -15l-8 19q132 51 218.5 174t86.5 278 q0 110 -59 175t-152 65q-76 0 -125 -50t-49 -116q0 -77 45 -115t115 -43q8 -24 8 -55q0 -74 -56.5 -131t-148.5 -57q-61 0 -106.5 22t-70 59t-36.5 76.5t-12 81.5q0 55 19 105.5t61.5 97t105.5 80.5t157.5 54t211.5 20q268 0 414.5 -94.5t146.5 -231.5q0 -261 -420 -340 l5 -14q66 16 118 16q170 0 269.5 -96t99.5 -232q0 -97 -44 -188t-126.5 -166t-216.5 -120.5t-299 -45.5q-145 0 -255 30t-173.5 81.5t-95 113t-31.5 131.5z" />
<glyph unicode="4" horiz-adv-x="1329" d="M53 348l312 414q145 196 145 375q0 142 -78 235q44 44 107.5 72.5t132.5 28.5q118 0 191 -76.5t73 -175.5q0 -191 -252 -390l-596 -473h535v332l475 248v-580h178v-24h-178v-131q0 -105 35.5 -144t117.5 -39v-20q-178 6 -391 6l-391 -6v20q77 0 115.5 67t38.5 189v58 h-557z" />
<glyph unicode="5" horiz-adv-x="1320" d="M51 317q0 89 55.5 157.5t163.5 68.5q92 0 147.5 -55.5t55.5 -129.5q0 -24 -6 -45q-68 -5 -114 -45.5t-46 -111.5q0 -68 47 -117t133 -49q43 0 84 14t80.5 43.5t63.5 85.5t24 131q0 119 -76 212.5t-203.5 143.5t-281.5 50l88 764q542 -33 656 -33q94 0 146 13.5t68.5 36 t16.5 60.5h21q24 -77 24 -168q0 -169 -100.5 -259.5t-272.5 -90.5q-107 0 -301.5 59.5t-273.5 69.5l-45 -387q76 93 206.5 150t276.5 57q144 0 258.5 -40.5t184 -108t105.5 -150t36 -172.5q0 -78 -19.5 -148t-67.5 -137.5t-121.5 -116t-189 -78.5t-262.5 -30q-145 0 -256 30 t-176 81.5t-97 113.5t-32 131z" />
<glyph unicode="6" horiz-adv-x="1376" d="M57 612q0 117 41 234t129 228t212.5 199.5t303.5 149t390 76.5l6 -12q-100 -23 -186 -77.5t-160 -145t-124.5 -228.5t-68.5 -313q28 13 70 42t73.5 50t85.5 38t115 17q160 0 267.5 -111t107.5 -272q0 -129 -46.5 -231t-129 -165.5t-191 -96.5t-237.5 -33 q-301 0 -479.5 175t-178.5 476zM592 516q0 -112 8.5 -204.5t21.5 -152t29.5 -101t32.5 -59t31 -17.5q22 0 40 46t30 149t12 249q0 313 -99 313q-18 0 -52.5 -19t-47.5 -24q-6 -68 -6 -180z" />
<glyph unicode="7" horiz-adv-x="1310" d="M31 907q0 144 20 244.5t68 175t132 110.5t208 36q90 0 186.5 -21.5t164.5 -46.5t145.5 -46.5t134.5 -21.5q80 0 122.5 40t42.5 93l13 3q12 -40 12 -93q0 -90 -28 -165.5t-73 -130.5t-99.5 -106t-109 -103t-99.5 -109t-73 -137.5t-28 -175.5q0 -78 13.5 -146.5t27.5 -104 t41 -91.5q-36 -65 -104.5 -107.5t-161.5 -42.5q-133 0 -213 77t-80 202q0 82 37.5 159t101 140t142 122t166.5 115.5t167.5 109t152.5 113t114 117.5l-7 6q-38 -44 -85.5 -75t-90 -47.5t-97 -25.5t-92.5 -11t-89 -2q-87 0 -267 28.5t-258 28.5q-122 0 -137 -111h-20z" />
<glyph unicode="8" horiz-adv-x="1366" d="M37 283q0 61 23 109t62.5 80t80.5 56t90.5 52t77.5 53q-63 42 -108.5 80.5t-91 91t-69.5 115t-24 133.5q0 185 175.5 302.5t477.5 117.5q125 0 236 -34.5t183.5 -103t72.5 -155.5q0 -58 -23.5 -102t-61.5 -70t-77 -44t-81 -36.5t-62 -34.5q162 -92 223 -140 q153 -118 179 -273q7 -38 7 -79q0 -101 -43 -179t-113.5 -126.5t-171.5 -79.5t-206 -43t-228 -12q-119 0 -213.5 20.5t-152 53t-95.5 76t-52.5 86t-14.5 86.5zM328 317q0 -160 74 -247.5t180 -87.5q91 0 146.5 56.5t55.5 151.5q0 45 -16 86t-43.5 77.5t-79.5 80.5 t-108.5 84.5t-145.5 99.5q-4 -22 -33.5 -122.5t-29.5 -178.5zM559 1282q0 -59 28.5 -114.5t82 -104t105 -84t122.5 -76.5q1 9 21 101.5t20 177.5q0 134 -62.5 202t-154.5 68q-77 0 -119.5 -48t-42.5 -122z" />
<glyph unicode="9" horiz-adv-x="1376" d="M57 946q0 129 46.5 231t129.5 166t192 97t237 33q301 0 479 -175.5t178 -476.5q0 -117 -41 -234t-129 -228t-212 -199.5t-303 -149t-390 -76.5l-6 13q100 23 186 77.5t160 145t124 228.5t68 313q-28 -13 -70 -42t-73.5 -50.5t-85.5 -38.5t-115 -17q-160 0 -267.5 111 t-107.5 272zM580 1008q0 -314 98 -314q18 0 52.5 19t47.5 24q6 68 6 181q0 112 -8 204.5t-21 152t-29.5 101t-32.5 59t-31 17.5q-22 0 -40 -46t-30 -149t-12 -249z" />
<glyph unicode=":" horiz-adv-x="591" d="M76 176q0 95 57 156t162 61t163 -61t58 -156q0 -96 -58 -155.5t-163 -59.5t-162 59.5t-57 155.5zM76 807q0 95 57 156t162 61t163 -61t58 -156q0 -96 -58 -155.5t-163 -59.5t-162 59.5t-57 155.5z" />
<glyph unicode=";" horiz-adv-x="591" d="M76 182q0 95 62.5 153t156.5 58q105 0 163 -61t58 -156q0 -145 -97 -282.5t-245 -241.5l-12 12q102 102 102 217q0 76 -46.5 139t-133.5 97q-8 40 -8 65zM76 807q0 95 57 156t162 61t163 -61t58 -156q0 -96 -58 -155.5t-163 -59.5t-162 59.5t-57 155.5z" />
<glyph unicode="&#x3c;" horiz-adv-x="903" d="M0 547v16l903 414v-23l-874 -399l874 -399v-23z" />
<glyph unicode="=" horiz-adv-x="903" d="M0 360v21h903v-21h-903zM0 729v21h903v-21h-903z" />
<glyph unicode="&#x3e;" horiz-adv-x="903" d="M0 133v23l874 399l-874 399v23l903 -414v-16z" />
<glyph unicode="?" horiz-adv-x="1042" d="M59 1241q0 103 86 167.5t250 64.5q126 0 237.5 -34.5t186.5 -90.5t118.5 -128t43.5 -147q0 -84 -29 -150t-76 -106.5t-103.5 -71.5t-113 -52t-103.5 -40.5t-76 -45t-29 -58.5q0 -28 20 -64l-12 -12q-55 36 -100.5 104.5t-45.5 143.5q0 55 18 100.5t46.5 78.5t63.5 63 l70 60t63.5 63t46.5 78.5t18 99.5q0 88 -64 138t-147 50q-56 0 -83.5 -27t-27.5 -67q0 -38 21 -71t53 -42q4 -20 4 -31q0 -55 -40.5 -96t-108.5 -41q-86 0 -136.5 50.5t-50.5 113.5zM250 176q0 95 57 156t162 61t163 -61t58 -156q0 -96 -58 -155.5t-163 -59.5t-162 59.5 t-57 155.5z" />
<glyph unicode="@" horiz-adv-x="1705" d="M78 387q0 75 15.5 151t50.5 155.5t86.5 151t129 134.5t172 109t221.5 73t273 27q135 0 250 -42t191 -112.5t118.5 -162t42.5 -189.5q0 -102 -41 -201.5t-110 -175t-165.5 -122t-201.5 -46.5q-35 0 -65.5 9.5t-56 40.5t-25.5 79q0 53 16 105h-10q-30 -119 -88.5 -176.5 t-159.5 -57.5q-95 0 -149 69t-54 177q0 186 118.5 308t319.5 122q45 0 120.5 -17.5t119.5 -17.5q34 0 64 9t44 17l13 9l-82 -557q-2 -16 -2 -35q0 -31 24 -31q32 0 73.5 39t80 102t64.5 155.5t26 187.5q0 94 -29.5 180.5t-86.5 157t-152 113t-215 42.5q-104 0 -195 -35.5 t-158 -96t-119.5 -138.5t-85 -165.5t-49 -174.5t-16.5 -168q0 -97 18 -184.5t58.5 -166t100 -135.5t149.5 -90.5t201 -33.5q138 0 269.5 60.5t186.5 119.5l11 -8q-81 -92 -232.5 -157.5t-322.5 -65.5q-355 0 -555.5 176.5t-200.5 482.5zM823 373q0 -127 45 -127 q30 0 60.5 71.5t49.5 172.5t19 188q0 64 -10.5 91.5t-34.5 27.5q-40 0 -71 -76.5t-44.5 -171t-13.5 -176.5z" />
<glyph unicode="A" horiz-adv-x="1615" d="M18 0v20q160 0 256 285l365 1065l352 107l445 -1315q49 -142 161 -142v-20q-113 6 -395 6q-122 0 -217.5 -1.5t-130.5 -2.5l-35 -2v20q113 0 113 101q0 12 -1.5 25.5t-6 31.5t-7.5 29.5t-10 37t-10 36.5l-90 305h-414l-92 -285q-31 -102 -31 -147q0 -75 45 -104.5 t140 -29.5v-20q-111 6 -248 6zM401 610h400l-187 623z" />
<glyph unicode="B" horiz-adv-x="1536" d="M41 0v20q77 0 115.5 67t38.5 189v955q0 105 -36 143.5t-118 38.5v21q180 -7 393 -7q49 0 208.5 3.5t225.5 3.5q83 0 158.5 -10t148 -34.5t125 -61.5t85 -95t32.5 -131q0 -100 -61 -174t-165 -113t-239 -43v-8q240 -7 387.5 -114t147.5 -259q0 -105 -46.5 -183 t-128.5 -122t-180.5 -65t-216.5 -21q-69 0 -246 3t-235 3zM674 203q0 -103 30 -143t91 -40q86 0 130 100t44 263q0 47 -9 95.5t-31 99.5t-54.5 90.5t-84.5 64.5t-116 25v-555zM674 778q252 0 252 324q0 142 -52 224.5t-149 82.5q-30 0 -51 -8v-623z" />
<glyph unicode="C" horiz-adv-x="1519" d="M49 684q0 159 54.5 302t153 251.5t246 172t322.5 63.5q128 0 296.5 -33t305.5 -33v-412h-20q-19 91 -60 167.5t-93.5 129t-115 89.5t-126 54t-125.5 17q-41 0 -73 -10t-67 -36t-61 -77.5t-47 -127.5t-32 -193.5t-11 -268.5q0 -757 305 -757q73 0 153 39t154 109 t135.5 178t94.5 235h20l-63 -498q-82 0 -156.5 -13t-124.5 -29t-132 -29t-177 -13q-177 0 -320 53.5t-238 149t-146.5 228.5t-51.5 292z" />
<glyph unicode="D" horiz-adv-x="1675" d="M41 0v20q77 0 115.5 67t38.5 189v955q0 105 -36 143.5t-118 38.5v21q180 -7 393 -7q49 0 180 3.5t197 3.5q239 0 422.5 -81t288 -236.5t104.5 -364.5q0 -176 -56 -318t-157.5 -237t-244.5 -146t-316 -51q-101 0 -234 3t-184 3zM674 203q0 -103 33.5 -143t101.5 -40 q301 0 301 674q0 715 -377 715q-31 0 -59 -8v-1198z" />
<glyph unicode="E" horiz-adv-x="1388" d="M41 0v20q77 0 115.5 67t38.5 189v955q0 105 -36 143.5t-118 38.5v21q180 -7 393 -7q94 0 380.5 3t453.5 4v-439h-21q-23 197 -149 305.5t-316 108.5q-66 0 -108 -12v-625h106q111 0 185.5 74t74.5 213h21v-656h-21q0 64 -18 124t-52.5 110.5t-93 80.5t-133.5 30h-69v-545 q0 -105 35.5 -144t117.5 -39q81 0 160.5 37.5t148 105t120 171t73.5 227.5h23l-95 -561q-175 1 -449 3.5t-374 2.5z" />
<glyph unicode="F" horiz-adv-x="1327" d="M41 0v20q77 0 115.5 67t38.5 189v955q0 105 -36 143.5t-118 38.5v21q180 -7 393 -7q94 0 380.5 3t453.5 4v-439h-21q-23 197 -149 305.5t-316 108.5q-66 0 -108 -12v-654h106q111 0 185.5 74t74.5 213h21v-655h-21q0 64 -18 124t-52.5 110t-93 80t-133.5 30h-69v-516 q0 -105 35.5 -144t117.5 -39v-20q-180 6 -393 6z" />
<glyph unicode="G" horiz-adv-x="1714" d="M49 684q0 159 54.5 302t153 251.5t246 172t322.5 63.5q128 0 296.5 -33t305.5 -33v-412h-20q-19 91 -60 167.5t-93.5 129t-115 89.5t-126 54t-125.5 17q-41 0 -73 -10t-67 -36t-61 -77.5t-47 -127.5t-32 -193.5t-11 -268.5q0 -757 305 -757q78 0 113 40.5t35 131.5v333 q0 105 -36 144t-118 39v20h778v-20q-76 0 -114.5 -66.5t-38.5 -189.5v-369q-113 0 -204.5 -13t-145 -29t-149 -29t-216.5 -13q-177 0 -320 53.5t-238 149t-146.5 228.5t-51.5 292z" />
<glyph unicode="H" horiz-adv-x="1746" d="M41 0v20q77 0 115.5 67t38.5 189v955q0 105 -36 143.5t-118 38.5v21q180 -7 393 -7q95 0 193 1.5t149 3.5l51 2v-21q-76 0 -114.5 -66.5t-38.5 -189.5v-397h399v471q0 105 -35.5 143.5t-117.5 38.5v21q180 -7 393 -7q95 0 193 1.5t149 3.5l51 2v-21q-77 0 -115.5 -67 t-38.5 -189v-954q0 -105 36 -144t118 -39v-20q-180 6 -393 6l-393 -6v20q76 0 114.5 66.5t38.5 189.5v459h-399v-532q0 -105 35.5 -144t117.5 -39v-20q-180 6 -393 6z" />
<glyph unicode="I" horiz-adv-x="868" d="M41 0v20q77 0 115.5 67t38.5 189v955q0 105 -36 143.5t-118 38.5v21q180 -7 393 -7q95 0 193 1.5t149 3.5l51 2v-21q-76 0 -114.5 -66.5t-38.5 -189.5v-954q0 -105 35.5 -144t117.5 -39v-20q-180 6 -393 6z" />
<glyph unicode="J" horiz-adv-x="868" d="M-4 -444q19 30 65.5 80t71.5 88q62 92 62 301v1206q0 105 -36 143.5t-118 38.5v21q180 -7 393 -7q95 0 193 1.5t149 3.5l51 2v-21q-76 0 -114.5 -66.5t-38.5 -189.5v-999q0 -135 -35.5 -222t-110.5 -151q-51 -43 -126.5 -73.5t-139.5 -45t-135.5 -46.5t-118.5 -79z" />
<glyph unicode="K" horiz-adv-x="1722" d="M41 0v20q77 0 115.5 67t38.5 189v955q0 105 -36 143.5t-118 38.5v21q180 -7 393 -7q95 0 193 1.5t149 3.5l51 2v-21q-76 0 -114.5 -66.5t-38.5 -189.5v-432h65l275 311q78 87 107.5 144.5t29.5 107.5q0 58 -44 91.5t-110 33.5v21q119 -7 336 -7q90 0 163 1.5t100 3.5 l28 2v-21q-139 0 -257.5 -68.5t-238.5 -205.5l-73 -84l528 -887q39 -64 76 -93.5t88 -29.5v-16q-5 -3 -14 -7.5t-39.5 -16t-64.5 -20.5t-87.5 -16.5t-109.5 -7.5q-160 0 -267 61.5t-180 204.5l-211 406q-20 37 -42.5 54.5t-57.5 17.5v-502q0 -105 35.5 -144t117.5 -39v-20 q-180 6 -393 6z" />
<glyph unicode="L" horiz-adv-x="1380" d="M41 0v20q77 0 115.5 67t38.5 189v955q0 105 -36 143.5t-118 38.5v21q180 -7 393 -7q95 0 193 1.5t149 3.5l51 2v-21q-76 0 -114.5 -66.5t-38.5 -189.5v-954q0 -105 35.5 -144t117.5 -39q79 0 151 35t127.5 92t102.5 134.5t78.5 158t52.5 166.5h21l-86 -606 q-188 0 -478.5 3t-361.5 3z" />
<glyph unicode="M" horiz-adv-x="2029" d="M20 0v20q76 0 120.5 60.5t58.5 220.5l80 930q2 19 2 35q-1 73 -33 106q-40 41 -123 41v21q288 -7 668 -7q0 -125 36 -243l228 -762l196 774q17 68 22 126q3 32 3 53q0 17 -2 28l-4 24l641 7v-21q-83 0 -120 -39q-34 -36 -34 -128v-15l92 -1028q9 -107 42 -145t112 -38 v-20q-160 6 -383 6l-412 -6v20q148 0 148 209q0 26 -2 56l-76 909l-305 -1194l-246 -37l-426 1274l-72 -868q-3 -37 -3 -71q0 -122 43 -190q55 -88 163 -88v-20q-114 6 -231 6z" />
<glyph unicode="N" horiz-adv-x="1554" d="M31 0v20q153 0 153 297v914q0 105 -35.5 143.5t-117.5 38.5v21q314 -7 694 -7q7 -67 94 -198l518 -783v670q0 154 -72.5 225.5t-195.5 71.5v21q213 -7 285 -7l184 7v-21q-76 0 -127 -72.5t-51 -224.5v-1116l-316 -37l-839 1297v-943q0 -159 71 -228t222 -69v-20 q-221 6 -293 6z" />
<glyph unicode="O" d="M49 684q0 164 54 308t152 251t245 168.5t323 61.5q237 0 408.5 -90.5t259.5 -252.5t88 -378q0 -220 -92 -398.5t-270.5 -285.5t-413.5 -107q-355 0 -554.5 197t-199.5 526zM594 739q0 -171 20 -314.5t54.5 -239.5t79.5 -149.5t96 -53.5q47 0 81.5 37t59.5 119.5t38 221 t13 334.5q0 171 -19.5 314.5t-53 240t-79 150t-96.5 53.5q-47 0 -81.5 -38t-60.5 -120.5t-39 -221.5t-13 -333z" />
<glyph unicode="P" horiz-adv-x="1447" d="M41 0v20q77 0 115.5 67t38.5 189v955q0 105 -36 143.5t-118 38.5v21q180 -7 393 -7q80 0 206 3.5t210 3.5q264 0 412.5 -105.5t148.5 -302.5q0 -196 -157 -311t-463 -115h-117v-395q0 -102 44 -143.5t126 -41.5v-20q-197 6 -410 6zM674 623q143 0 204.5 95t61.5 302 q0 173 -54 281t-159 108q-29 0 -53 -8v-778z" />
<glyph unicode="Q" d="M49 684q0 164 54 308t152 251t245 168.5t323 61.5q237 0 408.5 -90.5t259.5 -252.5t88 -378q0 -205 -79 -373.5t-235 -279.5t-368 -134q98 -9 226 -39.5t255.5 -65.5t269.5 -69.5t312.5 -57t339.5 -22.5q181 0 376.5 36t321.5 103l11 -12q-58 -78 -111.5 -136.5 t-127 -117t-152 -96t-181 -61t-219.5 -23.5q-119 0 -238.5 30.5t-220.5 80t-200.5 109t-195 118.5t-187.5 108.5t-193.5 80t-198.5 30.5q-227 0 -394 90.5t-254 253.5t-87 379zM594 739q0 -344 72.5 -550.5t177.5 -206.5q47 0 81.5 37t59.5 119.5t38 221t13 334.5 q0 171 -19.5 314.5t-53 240t-79 150t-96.5 53.5q-47 0 -81.5 -38t-60.5 -120.5t-39 -221.5t-13 -333z" />
<glyph unicode="R" horiz-adv-x="1601" d="M41 0v20q77 0 115.5 67t38.5 189v955q0 105 -36 143.5t-118 38.5v21q180 -7 393 -7q70 0 202 3.5t204 3.5q118 0 216.5 -19.5t179 -60.5t126 -113t45.5 -170q0 -154 -121 -254t-379 -125v-8q105 0 180 -12.5t139 -45t106.5 -91.5t66.5 -148l63 -233q13 -53 43.5 -87 t75.5 -34q18 0 39 6l2 -16q-40 -24 -130 -43t-181 -19q-187 0 -295 75t-131 238l-33 236q-10 77 -49.5 119.5t-128.5 42.5v-469q0 -105 35.5 -144t117.5 -39v-20q-180 6 -393 6zM674 698q241 0 241 373q0 155 -47.5 246.5t-142.5 91.5q-30 0 -51 -8v-703z" />
<glyph unicode="S" horiz-adv-x="1249" d="M68 1030q0 204 148.5 323.5t418.5 119.5q68 0 217.5 -21.5t239.5 -21.5l-19 -424h-20q-15 86 -53.5 165.5t-93 142.5t-127.5 100.5t-152 37.5q-84 0 -135.5 -46.5t-51.5 -129.5q0 -54 26 -101t69.5 -83.5t100 -70t119 -66.5t125 -68t119 -78.5t100 -94t69.5 -119.5 t26 -149q0 -148 -83.5 -260.5t-215 -168.5t-285.5 -56q-104 0 -240 31t-280 31l-20 514h20q52 -249 185 -402t313 -153q121 0 183.5 57.5t62.5 146.5q0 52 -26 98.5t-70.5 84t-102 73.5t-121 72t-127 73.5t-121 83t-102 96.5t-70.5 118.5t-26 144.5z" />
<glyph unicode="T" horiz-adv-x="1554" d="M47 987l37 447q284 -7 666 -7l755 7l-37 -453l-22 6q0 198 -107.5 311t-322.5 113v-1208q0 -105 35.5 -144t117.5 -39v-20q-180 6 -393 6l-393 -6v20q77 0 115.5 67t38.5 189v1135q-187 0 -306 -112.5t-161 -317.5z" />
<glyph unicode="U" horiz-adv-x="1546" d="M41 1413v21q180 -7 393 -7q95 0 193 1.5t149 3.5l51 2v-21q-76 0 -114.5 -66.5t-38.5 -189.5v-692q0 -231 80 -332.5t252 -101.5q159 0 245 106.5t86 327.5v651q0 154 -72 225.5t-194 71.5v21q213 -7 285 -7l184 7v-21q-76 0 -127 -72.5t-51 -224.5v-647 q0 -95 -15 -169.5t-40.5 -127t-67 -89.5t-85.5 -59t-106.5 -34.5t-119.5 -16.5t-133 -4q-600 0 -600 500v762q0 105 -36 143.5t-118 38.5z" />
<glyph unicode="V" horiz-adv-x="1597" d="M33 1413v21q152 -7 383 -7q96 0 199.5 1.5t158.5 3.5l55 2v-21q-61 0 -91.5 -21t-30.5 -73q0 -32 26 -121l277 -942l276 860q27 89 27 152q0 77 -45.5 111t-139.5 34v21q88 -7 242 -7q55 0 103.5 1.5t70.5 3.5l21 2v-21q-72 0 -138.5 -71t-115.5 -226l-359 -1116 l-344 -37l-407 1290q-30 97 -64.5 128.5t-103.5 31.5z" />
<glyph unicode="W" horiz-adv-x="2217" d="M23 1413v21q223 -7 397 -7q79 0 170 1.5t142 3.5l52 2v-21q-84 0 -84 -86q0 -32 17 -94l223 -795l133 480l-108 370q-21 68 -48 96.5t-86 28.5v21q216 -7 357 -7q87 0 154.5 1.5t91.5 3.5l24 2q0 -88 31 -201l209 -811l205 694q24 81 24 152q0 76 -46.5 110.5 t-139.5 34.5v21q150 -7 252 -7q49 0 97 1.5t72 3.5l23 2v-21q-81 0 -144.5 -68t-111.5 -229l-336 -1114l-266 -39l-242 903l-245 -866l-240 -37l-418 1327q-19 62 -56.5 92.5t-102.5 30.5z" />
<glyph unicode="X" horiz-adv-x="1656" d="M47 0v20q63 0 123.5 29.5t116.5 86.5t100 115.5t96 139.5l179 283l-396 606q-49 77 -82.5 105t-97.5 28v21q147 -7 397 -7q107 0 213.5 1.5t159.5 3.5l53 2v-21q-45 0 -69.5 -25.5t-24.5 -68.5q0 -67 51 -150l170 -274l131 209q58 91 58 164q0 68 -53.5 106.5 t-155.5 38.5v21q241 -7 321 -7l273 7v-21q-94 0 -194 -65.5t-177 -182.5l-190 -288l450 -705q31 -48 57.5 -77.5t72 -52t102.5 -22.5v-20q-322 6 -431 6l-452 -6v20q129 0 129 89q0 51 -45 124l-256 420l-109 -182q-50 -84 -74 -141.5t-24 -114.5q0 -88 58.5 -141.5 t177.5 -53.5v-20q-281 6 -375 6z" />
<glyph unicode="Y" horiz-adv-x="1540" d="M33 1413v21q167 -7 409 -7q120 0 221 1.5t142 3.5l41 2v-21q-49 0 -79 -25.5t-30 -64.5q0 -52 49 -137l211 -385l144 256q88 159 88 233q0 59 -40.5 91t-139.5 32v21q94 -7 260 -7q54 0 103.5 1.5t71.5 3.5l23 2v-21q-63 0 -138 -64.5t-152 -201.5l-199 -350v-594 q0 -105 35.5 -144t117.5 -39v-20q-180 6 -393 6l-393 -6v20q77 0 115.5 67t38.5 189v476l-346 553q-41 65 -78 86.5t-82 21.5z" />
<glyph unicode="Z" horiz-adv-x="1470" d="M55 20l803 1393l-151 -6q-93 -4 -166 -18.5t-142.5 -47.5t-120.5 -84t-92 -131.5t-65 -187.5h-21l64 496h1222l9 -21l-789 -1393l135 9q273 17 432.5 156.5t221.5 392.5h20l-80 -578h-1272z" />
<glyph unicode="[" horiz-adv-x="737" d="M82 -344v1917h532v-21h-122v-1878h122v-18h-532z" />
<glyph unicode="\" horiz-adv-x="851" d="M115 1536h28l596 -1929h-28z" />
<glyph unicode="]" horiz-adv-x="737" d="M123 -326h123v1878h-123v21h532v-1917h-532v18z" />
<glyph unicode="^" horiz-adv-x="745" d="M0 848l365 688h16l364 -688h-22l-350 663l-350 -663h-23z" />
<glyph unicode="_" horiz-adv-x="1155" d="M0 -135h1155v-21h-1155v21z" />
<glyph unicode="`" horiz-adv-x="555" d="M70 1409q0 53 39 90t106 37l270 -422l-4 -6q-107 23 -198.5 66t-152 105.5t-60.5 129.5z" />
<glyph unicode="a" horiz-adv-x="1243" d="M47 180q0 158 160.5 246t456.5 88q12 139 12 295q0 106 -25 152.5t-82 46.5q-55 0 -84.5 -43t-29.5 -109q0 -98 59 -184q-40 -31 -103 -51.5t-114 -20.5q-83 0 -132.5 43t-49.5 113q0 82 81 145t199.5 93t247.5 30q258 0 362.5 -97.5t104.5 -314.5q0 -104 -10 -235.5 t-10 -196.5q0 -133 77 -133q34 0 60 33l8 -6q-29 -51 -100 -80t-164 -29q-192 0 -266 115q-30 -8 -94 -40.5t-136 -56.5t-151 -24q-120 0 -198.5 55.5t-78.5 165.5zM504 221q0 -153 92 -153q12 0 25.5 2.5t22.5 5.5t26.5 10t27.5 10q-5 6 -12 20.5t-19 74.5t-12 139 q0 49 2.5 90.5t4.5 58.5l2 17q-80 -16 -120 -92t-40 -183z" />
<glyph unicode="b" horiz-adv-x="1359" d="M37 1434q138 0 281 25.5t216 50.5l74 26v-672q28 15 71 46t75.5 54t83.5 41.5t106 18.5q111 0 198 -62t134 -167t47 -234t-45.5 -240t-127.5 -191t-203.5 -125.5t-266.5 -45.5q-193 0 -354 100l-224 -73l-8 14q36 35 48 90.5t12 140.5v1080q0 58 -26 81t-83 23zM608 186 q0 -103 28 -157t75 -54q129 0 129 500q0 97 -8 173t-20 121.5t-29 74.5t-33.5 40t-34.5 11q-17 0 -31.5 -6t-36.5 -19.5t-39 -21.5v-662z" />
<glyph unicode="c" horiz-adv-x="1169" d="M37 467q0 150 82.5 277.5t231.5 203.5t331 76q205 0 328 -69t123 -185q0 -72 -57 -121t-156 -49q-49 0 -99.5 17t-81.5 45q56 83 56 194q0 68 -24.5 110t-74.5 42q-75 0 -127.5 -133.5t-52.5 -362.5q0 -194 77.5 -316t223.5 -122q152 0 283 88l8 -8q-84 -99 -198.5 -147 t-274.5 -48q-283 0 -440.5 138t-157.5 370z" />
<glyph unicode="d" horiz-adv-x="1347" d="M37 420q0 130 45 241t127 191.5t203 126t266 45.5q11 0 23.5 -1t27.5 -2.5t23 -2.5v301q0 53 -27 74.5t-84 21.5l-8 19q88 0 179 10.5t158 25.5t122 30t84 26l28 10v-1354q0 -58 26 -82t83 -24l10 -17q-88 0 -177 -10.5t-154 -25t-117.5 -29t-79.5 -24.5l-27 -11l-16 160 q-27 -15 -70.5 -46.5t-75.5 -54t-83.5 -41t-106.5 -18.5q-169 0 -274 132t-105 329zM516 508q0 -98 8 -174t21 -121.5t30.5 -75t34 -40.5t33.5 -11q16 0 31 6.5t37 20.5t41 22v455q0 418 -121 418q-115 0 -115 -500z" />
<glyph unicode="e" horiz-adv-x="1200" d="M37 467q0 112 49 214.5t133 178t202 120t249 44.5q217 0 350 -101t143 -296l-26 -27h-619q-2 -31 -2 -88q0 -128 29 -223.5t96.5 -155t167.5 -59.5q150 0 278 88l11 -8q-84 -99 -199.5 -147t-275.5 -48q-282 0 -434 137t-152 371zM520 616l230 25q8 55 8 117 q0 116 -30 183t-77 67q-50 0 -82 -96t-49 -296z" />
<glyph unicode="f" horiz-adv-x="823" d="M35 0v18q59 0 89 38t30 106v803h-86v18h86q0 176 81.5 309t225 203t327.5 70q149 0 251 -62.5t102 -156.5q0 -87 -55.5 -140t-153.5 -53q-59 0 -116 23.5t-87 58.5q27 38 46.5 96.5t19.5 106.5q0 106 -64 106q-123 0 -123 -350v-211h197v-18h-197v-861q0 -45 27.5 -65.5 t85.5 -20.5v-18q-147 6 -340 6q-87 0 -173.5 -1.5t-129.5 -2.5z" />
<glyph unicode="g" horiz-adv-x="1277" d="M-2 -317q0 75 51 117t113 42q86 0 129 -43q-55 -40 -55 -116q0 -108 93.5 -161.5t252.5 -53.5q145 0 224 58.5t79 149.5q0 76 -70 120t-188 44h-121q-83 0 -158 12t-139.5 37.5t-102.5 70t-38 103.5q0 107 96 165t266 69q-169 21 -278 113.5t-109 228.5q0 74 37 142.5 t103.5 123t170.5 87t228 32.5q132 0 241 -45q47 -8 127 -8q91 0 146.5 22t97.5 62q59 -11 90 -48t31 -81q0 -59 -35.5 -92t-93.5 -33q-38 0 -72.5 17.5t-59 40t-66.5 49.5t-89 42l-4 -6q174 -102 174 -272q0 -74 -37 -142t-104 -121.5t-171 -85.5t-229 -32 q-87 0 -129.5 -16.5t-42.5 -43.5q0 -25 29 -33t121 -8h156q259 0 398.5 -83t139.5 -234q0 -88 -42.5 -161t-111.5 -121t-160.5 -81.5t-187 -48t-192.5 -14.5q-240 0 -374 60.5t-134 175.5zM475 668q0 -169 24.5 -266t65.5 -97q37 0 53.5 76.5t16.5 265.5q0 165 -25 263 t-65 98q-36 0 -53 -76.5t-17 -263.5z" />
<glyph unicode="h" horiz-adv-x="1411" d="M37 0v18q58 0 87.5 38t29.5 106v1149q0 58 -26 81t-83 23l-8 19q138 0 281 25.5t216 50.5l74 26v-672q45 15 118 58t143 72.5t141 29.5q123 0 190.5 -74.5t67.5 -214.5v-608q0 -66 24.5 -87.5t87.5 -21.5v-18q-143 6 -342 6q-88 0 -164 -1.5t-108 -2.5l-31 -2v18 q42 0 60 22.5t18 74.5v673q0 43 -22 67t-54 24q-27 0 -68.5 -13.5t-60.5 -17.5v-752q0 -78 80 -78v-18q-106 6 -307 6q-90 0 -176 -1.5t-127 -2.5z" />
<glyph unicode="i" horiz-adv-x="751" d="M37 0v18q58 0 87.5 38t29.5 106v637q0 59 -26 83.5t-83 24.5l-8 17q138 0 281 25t216 50l74 25v-928q0 -78 80 -78v-18q-98 6 -305 6q-91 0 -177.5 -1.5t-127.5 -2.5zM143 1288q0 90 60 146.5t174 56.5t174.5 -56.5t60.5 -146.5q0 -88 -60 -142t-175 -54q-114 0 -174 54 t-60 142z" />
<glyph unicode="j" horiz-adv-x="761" d="M-111 -487q20 18 69.5 52.5t86 68t61.5 75.5q38 66 48 141t10 209v740q0 59 -26 83.5t-83 24.5l-8 17q138 0 281 25t216 50l74 25v-903q0 -151 -46.5 -259.5t-157.5 -178.5q-64 -40 -167.5 -66.5t-197 -52.5t-145.5 -66zM154 1288q0 91 59.5 147t173.5 56t175 -56.5 t61 -146.5q0 -88 -60.5 -142t-175.5 -54q-114 0 -173.5 53.5t-59.5 142.5z" />
<glyph unicode="k" horiz-adv-x="1454" d="M37 0v18q58 0 87.5 38t29.5 106v1149q0 58 -26 81t-83 23l-8 19q138 0 281 26t216 52l74 26v-1020h119l180 232q56 71 56 122q0 44 -41.5 68.5t-122.5 24.5v18h540v-18q-97 0 -175 -29t-124 -67.5t-96 -98.5l365 -592q45 -72 76 -101.5t79 -29.5v-16q-13 -8 -36 -20 t-98 -32t-152 -20q-280 0 -383 234l-113 253q-10 23 -29.5 39t-44.5 17v-406q0 -78 80 -78v-18q-98 6 -305 6q-91 0 -177.5 -1.5t-127.5 -2.5z" />
<glyph unicode="l" horiz-adv-x="751" d="M37 0v18q58 0 87.5 38t29.5 106v1149q0 58 -26 81t-83 23l-8 19q138 0 281 25.5t216 50.5l74 26v-1440q0 -78 80 -78v-18q-98 6 -305 6q-91 0 -177.5 -1.5t-127.5 -2.5z" />
<glyph unicode="m" horiz-adv-x="2048" d="M37 0v18q58 0 87.5 38t29.5 106v637q0 59 -26 83.5t-83 24.5l-8 17q138 0 281 25t216 50l74 25v-160q37 14 89 43.5t91.5 54t96.5 43.5t112 19q95 0 159.5 -47t88.5 -125q44 14 95.5 45.5t89 58t96 47.5t121.5 21q123 0 190.5 -74.5t67.5 -214.5v-608q0 -66 24.5 -87.5 t87.5 -21.5v-18q-137 6 -340 6q-84 0 -160 -1.5t-111 -2.5l-34 -2v18q43 0 60.5 22t17.5 75v673q0 91 -76 91q-19 0 -67 -20.5t-58 -22.5q6 -24 6 -66v-674q0 -78 78 -78v-18q-100 6 -303 6q-89 0 -165.5 -1.5t-108.5 -2.5l-31 -2v18q41 0 58.5 22t17.5 75v673q0 43 -21 67 t-53 24q-18 0 -33.5 -3.5t-43 -13t-42.5 -14.5v-752q0 -78 80 -78v-18q-98 6 -305 6q-91 0 -177.5 -1.5t-127.5 -2.5z" />
<glyph unicode="n" horiz-adv-x="1398" d="M37 0v18q58 0 87.5 38t29.5 106v637q0 59 -26 83.5t-83 24.5l-8 17q138 0 281 25t216 50l74 25v-160q37 14 89 43.5t91.5 54t96.5 43.5t112 19q124 0 191 -74.5t67 -214.5v-608q0 -66 25 -87.5t88 -21.5v-18q-135 6 -338 6q-84 0 -160.5 -1.5t-110.5 -2.5l-34 -2v18 q41 0 58.5 22t17.5 75v673q0 43 -21 67t-53 24q-18 0 -33.5 -3.5t-43 -13t-42.5 -14.5v-752q0 -78 80 -78v-18q-98 6 -305 6q-91 0 -177.5 -1.5t-127.5 -2.5z" />
<glyph unicode="o" horiz-adv-x="1290" d="M37 467q0 107 43.5 206.5t123 178t203 125.5t271.5 47q158 0 288 -61t208.5 -178.5t78.5 -268.5q0 -107 -43 -206.5t-122 -178t-202 -125.5t-272 -47q-158 0 -288.5 61t-209.5 178.5t-79 268.5zM516 508q0 -241 42 -387t104 -146q55 0 83.5 116t28.5 384q0 241 -41 387 t-102 146q-115 0 -115 -500z" />
<glyph unicode="p" horiz-adv-x="1355" d="M35 -494q119 0 119 146v1147q0 59 -26.5 83.5t-84.5 24.5l-8 17q87 0 176 10.5t154.5 25t118 29t79.5 25.5l27 10l16 -160q28 15 70.5 46t75 54t84 41.5t106.5 18.5q167 0 272 -133t105 -330q0 -288 -167.5 -445t-473.5 -157q-26 0 -72 4v-311q0 -69 29 -107.5t88 -38.5 v-18h-688v18zM606 186q0 -103 29 -157t76 -54q129 0 129 500q0 97 -8 173t-20.5 121.5t-29.5 74.5t-33.5 40t-33.5 11t-32 -6t-37 -19.5t-40 -21.5v-662z" />
<glyph unicode="q" horiz-adv-x="1347" d="M37 420q0 130 45 241t127 191.5t203 126t266 45.5q195 0 352 -98l225 73l11 -12q-62 -67 -62 -231v-1172q0 -78 80 -78v-18h-651v18q59 0 89 38.5t30 107.5v467q-27 -15 -70.5 -46.5t-75.5 -54t-83.5 -41t-106.5 -18.5q-169 0 -274 132t-105 329zM516 508q0 -98 8 -174 t21 -121.5t30.5 -75t34 -40.5t33.5 -11q16 0 31 6.5t37 20.5t41 22v660q0 103 -28 158t-75 55q-133 0 -133 -500z" />
<glyph unicode="r" horiz-adv-x="1136" d="M37 0v18q58 0 87.5 38t29.5 106v637q0 59 -26 83.5t-83 24.5l-8 17q138 0 281 25t216 50l74 25v-186q26 9 53.5 32.5t52.5 48.5t53.5 49.5t67 40t83.5 15.5q86 0 140 -56.5t54 -140.5q0 -89 -55.5 -153t-153.5 -64q-35 0 -74 12t-59 29q25 50 25 94q0 42 -22 68.5 t-64 26.5q-23 0 -59 -10t-42 -11v-715q0 -48 27 -67t82 -19v-18q-127 6 -334 6q-91 0 -177.5 -1.5t-127.5 -2.5z" />
<glyph unicode="s" horiz-adv-x="1060" d="M70 694q0 156 129 243t346 87q69 0 185 -23.5t198 -23.5l-13 -311h-18q-12 62 -40 121t-69.5 109.5t-100.5 81t-126 30.5q-45 0 -73.5 -24t-28.5 -71q0 -46 30.5 -86t78.5 -72t107 -63.5t117.5 -68.5t106.5 -79t78.5 -102t30.5 -131q0 -164 -131 -258t-373 -94 q-58 0 -166 22.5t-246 22.5l-18 367h16q35 -157 146 -274t243 -117q61 0 94 28t33 76t-29.5 90t-77 75.5t-104.5 67t-114 70.5t-104.5 79t-77 100.5t-29.5 127.5z" />
<glyph unicode="t" horiz-adv-x="790" d="M45 965v18q145 0 288 83t226 204l16 -6v-281h125v-18h-125v-785q0 -47 23.5 -70.5t58.5 -23.5q59 0 105 37l8 -8q-52 -73 -146 -114.5t-204 -41.5q-142 0 -219.5 65.5t-77.5 221.5v719h-78z" />
<glyph unicode="u" horiz-adv-x="1390" d="M33 965v18l549 18l16 -16v-790q0 -43 22 -68t54 -25q18 0 34.5 4.5t41 13.5t43.5 15v752q0 78 -78 78v18l516 18l16 -16v-803q0 -59 25 -82.5t82 -23.5l10 -17q-87 0 -176 -10.5t-154 -25t-117 -29t-79 -24.5l-27 -11l-18 160q-42 -14 -94.5 -43.5t-91.5 -54t-94.5 -43.5 t-111.5 -19q-122 0 -190 74.5t-68 212.5v608q0 68 -23.5 89.5t-86.5 21.5z" />
<glyph unicode="v" horiz-adv-x="1320" d="M23 965v18q186 -8 395 -8q93 0 170.5 2t109.5 4l31 2v-18q-40 0 -60 -21.5t-20 -54.5t25 -103l205 -563l133 387q43 118 43 201q0 72 -39 113t-123 41v18q92 -8 217 -8q51 0 98.5 2t69.5 4l22 2v-18q-74 0 -134 -75.5t-103 -199.5l-244 -690h-319l-346 864 q-21 54 -47.5 77.5t-83.5 23.5z" />
<glyph unicode="w" horiz-adv-x="2019" d="M23 965v18q176 -8 385 -8q93 0 170.5 2t109.5 4l31 2v-18q-76 0 -76 -72q0 -44 16 -107l160 -563l172 490l-33 96q-50 156 -157 156v18q120 -8 282 -8l347 8q-1 -13 -1 -28q0 -65 25 -154l145 -578l113 387q35 129 35 199q0 148 -158 156v18q90 -8 219 -8q49 0 96 2t69 4 l22 2v-18q-77 0 -137 -68t-93 -184l-211 -713h-333l-217 678l-240 -678h-307l-303 864q-20 56 -46.5 78.5t-84.5 22.5z" />
<glyph unicode="x" horiz-adv-x="1286" d="M-16 0v18q110 0 210 82.5t203 231.5l70 100l-260 428q-36 61 -66.5 83t-91.5 22v18q194 -8 393 -8q84 0 168 2t126 4l42 2v-18q-67 0 -67 -64q0 -36 24 -82l103 -176l59 88q64 98 64 158q0 76 -101 76v18q82 -8 178 -8q40 0 83.5 2t66.5 4l24 2v-18q-129 0 -278 -213 l-86 -123l297 -498q68 -113 164 -113v-18q-189 8 -379 8q-68 0 -154.5 -2t-139.5 -4l-52 -2v18q80 0 80 54q0 32 -33 86l-154 256l-53 -82q-86 -132 -86 -211q0 -103 160 -103v-18q-158 8 -295 8z" />
<glyph unicode="y" horiz-adv-x="1323" d="M23 965v18q186 -8 395 -8q93 0 170.5 2t109.5 4l31 2v-18q-40 0 -60 -21.5t-20 -54.5t25 -103l205 -563l133 387q43 118 43 201q0 72 -39 113t-123 41v18q92 -8 217 -8q51 0 98.5 2t69.5 4l22 2v-18q-74 0 -134 -75.5t-103 -199.5l-262 -741q-65 -181 -110 -256 q-104 -176 -269 -176q-128 0 -201.5 64t-73.5 163q0 88 61.5 147.5t164.5 59.5q97 0 151 -57t54 -123q-62 -13 -98 -50.5t-36 -82.5q0 -31 18 -50.5t48 -19.5q43 0 86 37.5t77 99.5t57.5 116.5t43.5 112.5l23 66h-297l-346 864q-21 54 -47.5 77.5t-83.5 23.5z" />
<glyph unicode="z" horiz-adv-x="1130" d="M43 18l530 947l-57 -7q-169 -18 -264.5 -108t-147.5 -268h-18l64 401h913l8 -18l-532 -947l75 7q340 26 453 454h18l-73 -479h-957z" />
<glyph unicode="{" horiz-adv-x="874" d="M41 604v21q160 0 160 168q0 51 -24.5 189.5t-24.5 215.5q0 56 10 103t27 83t45 64t58 48t71.5 34t80 22t90 13t95.5 6.5t100 1.5v-21q-77 0 -112 -39t-35 -133q0 -71 15 -202t15 -199q0 -100 -30.5 -170t-92.5 -110.5t-144.5 -59.5t-197.5 -21v-8q115 -2 197 -20.5 t144.5 -59.5t93 -110.5t30.5 -169.5q0 -68 -15 -199.5t-15 -202.5q0 -94 35 -133t112 -39v-20q-56 0 -100 1.5t-95.5 6.5t-90 13t-80 22t-71.5 34t-58 48t-45 64t-27 83t-10 103q0 77 24.5 215.5t24.5 189.5q0 168 -160 168z" />
<glyph unicode="|" horiz-adv-x="327" d="M154 -549v2257h20v-2257h-20z" />
<glyph unicode="}" horiz-adv-x="874" d="M145 -324q77 0 112.5 39t35.5 133q0 71 -15.5 202.5t-15.5 199.5q0 100 30.5 169.5t93 110.5t144.5 59.5t197 20.5v8q-115 2 -197.5 21t-144.5 59.5t-92.5 110.5t-30.5 170q0 68 15.5 199t15.5 202q0 94 -35.5 133t-112.5 39v21q74 0 129 -2.5t118.5 -11.5t108.5 -25 t89.5 -44t72 -67t44 -96t16.5 -129q0 -77 -24.5 -215.5t-24.5 -189.5q0 -168 160 -168v-21q-160 0 -160 -168q0 -51 24.5 -189.5t24.5 -215.5q0 -72 -16.5 -129t-44 -96t-72 -67t-89.5 -44t-108.5 -25t-118.5 -11.5t-129 -2.5v20z" />
<glyph unicode="~" horiz-adv-x="931" d="M55 575q46 168 193 168q57 0 118 -28t105.5 -61t104 -61t112.5 -28q128 0 174 154l19 -6q-46 -168 -193 -168q-57 0 -118 28t-105.5 61t-104 61t-112.5 28q-128 0 -174 -154z" />
<glyph unicode="&#xa1;" horiz-adv-x="614" d="M41 -197q0 63 19 121.5t47 101t61 90t61 88.5t47 96t19 112q0 31 -1.5 57.5t-3.5 37.5l-1 11h20h21q-6 -36 -6 -106q0 -57 19 -112t47 -96t61 -88.5t61 -90t47 -101t19 -121.5q0 -112 -76 -190t-193 -78t-192.5 78t-75.5 190zM84 831q0 96 57 156t162 60t163 -60t58 -156 q0 -95 -58 -156t-163 -61t-162 61t-57 156z" />
<glyph unicode="&#xa2;" horiz-adv-x="1169" d="M37 467q0 169 91 297t246 194t349 66l33 197h20l-33 -199q180 -10 285 -78t105 -174q0 -72 -57 -121t-156 -49q-49 0 -99.5 17t-81.5 45q56 83 56 194q0 108 -56 141l-135 -817q79 -106 213 -106q152 0 283 88l8 -8q-84 -99 -198.5 -147t-274.5 -48l-68 2l-32 -199h-21 l33 201q-244 23 -377 157t-133 347zM516 512q0 -186 72 -305l131 797q-12 4 -23 4q-75 0 -127.5 -133.5t-52.5 -362.5z" />
<glyph unicode="&#xa3;" horiz-adv-x="1316" d="M47 727v21h105q-50 112 -50 225q0 143 85.5 257.5t227.5 177t310 62.5q238 0 363.5 -80t125.5 -198q0 -85 -56.5 -139t-151.5 -54q-130 0 -215 88q36 45 57.5 106.5t21.5 117.5q0 64 -29.5 103.5t-90.5 39.5q-45 0 -81 -20.5t-61 -54t-43 -87.5t-28 -109.5t-16 -133 t-7.5 -145t-1.5 -156.5h342v-21h-342q-1 -86 -8 -145.5t-27.5 -128t-64 -131.5t-111.5 -125l12 -13q91 91 189 133.5t184 42.5q76 0 195 -32.5t161 -32.5q87 0 138.5 40.5t74.5 133.5h17q0 -248 -118 -378t-325 -130q-82 0 -160 23.5t-127.5 51.5t-106.5 51.5t-103 23.5 q-52 0 -101.5 -27t-132.5 -104l-18 20q91 80 135.5 153.5t44.5 180.5q0 160 -100 393h-113z" />
<glyph unicode="&#xa4;" horiz-adv-x="1161" d="M98 147l138 138q-134 137 -134 327q0 182 134 330l-138 139l15 15l137 -140q67 65 153 99.5t177 34.5t176.5 -34.5t152.5 -99.5l138 140l14 -15l-137 -139q133 -147 133 -330q0 -191 -133 -327l137 -138l-14 -14l-138 137q-66 -65 -152 -99t-177 -34t-177.5 34t-152.5 99 l-137 -137zM125 612q0 -89 35.5 -172.5t96 -144.5t145.5 -98t178 -37q124 0 229 62t165 166t60 224q0 189 -134 322t-320 133q-121 0 -226 -60t-167 -165.5t-62 -229.5z" />
<glyph unicode="&#xa5;" horiz-adv-x="1540" d="M33 1413v21q167 -7 409 -7q120 0 221 1.5t142 3.5l41 2v-21q-49 0 -79 -25.5t-30 -64.5q0 -52 49 -137l211 -385l144 256q88 159 88 233q0 59 -40.5 91t-139.5 32v21q94 -7 260 -7q54 0 103.5 1.5t71.5 3.5l23 2v-21q-63 0 -138 -64.5t-152 -201.5l-199 -350v-111h231 v-22h-231v-183h231v-22h-231v-256q0 -105 35.5 -144t117.5 -39v-20q-180 6 -393 6l-393 -6v20q77 0 115.5 67t38.5 189v183h-232v22h232v183h-232v22h232v66l-346 553q-41 65 -78 86.5t-82 21.5z" />
<glyph unicode="&#xa7;" horiz-adv-x="1157" d="M47 938q0 158 93.5 282t244 188.5t326.5 64.5q141 0 217 -48t76 -116q0 -58 -42.5 -102t-115.5 -44q-46 0 -87.5 13t-60.5 26q9 18 18.5 45.5t14.5 63.5t1 66.5t-27 51.5t-64 21q-73 0 -134 -59.5t-61 -176.5q0 -68 36.5 -140t95 -137t129.5 -133.5t142 -141.5 t129.5 -148t95 -165t36.5 -181q0 -158 -93.5 -282t-244 -188.5t-326.5 -64.5q-139 0 -215.5 53.5t-76.5 123.5q0 57 41.5 95t115.5 38q46 0 87.5 -13t60.5 -26q-9 -18 -18.5 -45.5t-14.5 -63.5t-1 -66.5t27 -51.5t64 -21q73 0 134 59t61 176q0 68 -36.5 137t-95 131 t-129.5 127t-142 136.5t-129.5 147t-95 171t-36.5 197.5zM272 1034q0 -77 31.5 -156.5t81.5 -149t110.5 -140l121 -141t110.5 -141t81.5 -151t31.5 -159.5q0 -81 -35.5 -150.5t-91.5 -117.5q74 46 123 138t49 206q0 88 -31.5 173.5t-81.5 156.5t-110.5 141t-121 138 t-110.5 134.5t-81.5 142.5t-31.5 152q0 81 35.5 150.5t91.5 117.5q-74 -46 -123 -138t-49 -206z" />
<glyph unicode="&#xa8;" horiz-adv-x="1193" d="M190 1286q0 76 46 126t131 50t131.5 -50t46.5 -126q0 -77 -46 -125.5t-132 -48.5t-131.5 48.5t-45.5 125.5zM649 1286q0 76 45.5 126t128.5 50q88 0 134.5 -50t46.5 -126q0 -77 -46 -125.5t-135 -48.5q-83 0 -128.5 48.5t-45.5 125.5z" />
<glyph unicode="&#xa9;" horiz-adv-x="1705" d="M117 717q0 207 96 380t265.5 274.5t375.5 101.5q153 0 289.5 -59.5t233.5 -161t153.5 -241t56.5 -294.5q0 -154 -56.5 -293.5t-153.5 -241t-233.5 -161.5t-289.5 -60q-154 0 -291.5 60t-235 161.5t-154 241t-56.5 293.5zM154 717q0 -200 92.5 -366.5t253.5 -262.5 t354 -96q190 0 350 96t253 263t93 366q0 150 -54.5 285t-148 231t-222 152.5t-271.5 56.5q-194 0 -354.5 -95.5t-253 -262t-92.5 -367.5zM389 702q0 128 56 235t165.5 173t251.5 66q75 0 176 -19.5t183 -19.5v-250h-17q-19 90 -70.5 153.5t-112.5 90t-126 26.5 q-30 0 -52.5 -7.5t-46.5 -33.5t-39.5 -70.5t-25.5 -124t-10 -188.5q0 -452 182 -452q61 0 122 31.5t115 104t79 173.5h18l-35 -277q-72 0 -169.5 -27.5t-186.5 -27.5q-214 0 -335.5 123t-121.5 321z" />
<glyph unicode="&#xaa;" horiz-adv-x="966" d="M47 621v20h871v-20h-871zM78 897q0 108 109.5 168.5t310.5 60.5q8 95 8 201q0 71 -17 100t-57 29q-37 0 -57.5 -27t-20.5 -71q0 -66 41 -125q-29 -21 -71 -35t-76 -14q-56 0 -90.5 30t-34.5 76q0 56 55.5 99t136.5 63.5t170 20.5q174 0 245 -66t71 -213 q0 -72 -6.5 -160.5t-6.5 -132.5q0 -90 52 -90q22 0 41 23l8 -9q-20 -34 -69.5 -53.5t-112.5 -19.5q-131 0 -181 77q-23 -5 -66 -26.5t-92 -38t-102 -16.5q-81 0 -134.5 37.5t-53.5 111.5zM387 928q0 -101 64 -101q10 0 20.5 3t25.5 8t25 8q-3 4 -7.5 12.5t-12.5 47.5t-8 93 l4 111q-56 -11 -83.5 -60.5t-27.5 -121.5z" />
<glyph unicode="&#xab;" horiz-adv-x="901" d="M57 526v41l502 471l12 -12l-221 -479l221 -479l-12 -13zM428 526v41l403 381l13 -12l-158 -389l158 -395l-13 -13z" />
<glyph unicode="&#xac;" horiz-adv-x="903" d="M0 711v20h903v-455h-22v435h-881z" />
<glyph unicode="&#xad;" horiz-adv-x="735" d="M49 578v22h637v-22h-637z" />
<glyph unicode="&#xae;" horiz-adv-x="581" d="M51 1233q0 103 68 171.5t172 68.5t171.5 -68.5t67.5 -171.5t-67.5 -171.5t-171.5 -68.5t-172 68.5t-68 171.5zM68 1233q0 -97 62.5 -161t160.5 -64t160.5 64t62.5 161t-62.5 161t-160.5 64t-160.5 -64t-62.5 -161zM152 1096v10q28 0 28 49v172q0 35 -28 35v10 q34 -2 75 -2q13 0 39 1t39 1q47 0 78 -16.5t31 -52.5q0 -70 -99 -70v-4q77 0 93 -60l10 -36q6 -25 28 -25l3 -6q-24 -12 -62 -12q-65 0 -74 63l-6 41q-3 18 -10 24.5t-25 6.5v-84q0 -35 31 -35v-10q-35 2 -76 2zM272 1235q47 0 47 68q0 61 -36 61q-7 0 -11 -2v-127z" />
<glyph unicode="&#xaf;" horiz-adv-x="768" d="M66 1239v21h636v-21h-636z" />
<glyph unicode="&#xb0;" horiz-adv-x="643" d="M63 1225q0 104 76 176t185 72t184.5 -72t75.5 -176q0 -101 -75.5 -172.5t-184.5 -71.5t-185 71.5t-76 172.5zM88 1225q0 -92 69 -156.5t167 -64.5t166.5 64.5t68.5 156.5q0 95 -68 160t-167 65t-167.5 -65t-68.5 -160z" />
<glyph unicode="&#xb1;" horiz-adv-x="903" d="M0 66v20h903v-20h-903zM0 545v20h440v432h23v-432h440v-20h-440v-426h-23v426h-440z" />
<glyph unicode="&#xb2;" horiz-adv-x="761" d="M37 877q0 57 20.5 106t53 85.5t72 70.5t79.5 70t72.5 74.5t53 92.5t20.5 117q0 73 -33.5 109t-85.5 36q-43 0 -68.5 -25.5t-25.5 -62.5q0 -79 88 -86q4 -16 4 -26q0 -43 -28.5 -74t-84.5 -31q-61 0 -92 37t-31 92q0 81 79.5 138t234.5 57q147 0 242 -59.5t95 -157.5 q0 -62 -26 -106.5t-69.5 -71t-97.5 -45t-114.5 -35t-115 -34.5t-104 -50t-77.5 -76l6 -4q48 55 109 72.5t135 17.5q49 0 145.5 -15.5t139.5 -15.5q67 0 76 60h16q0 -160 -60 -235t-194 -75q-80 0 -184 37t-146 37q-44 0 -65 -22t-21 -52h-12q-6 30 -6 50z" />
<glyph unicode="&#xb3;" horiz-adv-x="743" d="M31 1022q0 51 30.5 91t94.5 40q51 0 79.5 -30.5t28.5 -71.5q0 -19 -4 -31q-39 -2 -63.5 -22.5t-24.5 -63.5q0 -38 25.5 -63t72.5 -25q69 0 125 70.5t56 181.5q0 71 -38.5 116.5t-103.5 45.5q-30 0 -57 -9l-4 15q73 27 120.5 92.5t47.5 150.5q0 61 -32 95t-85 34 q-45 0 -71.5 -25.5t-26.5 -62.5q0 -79 88 -86q4 -12 4 -26q0 -43 -28 -74t-81 -31q-63 0 -94 39.5t-31 89.5q0 82 76.5 138.5t229.5 56.5q152 0 233.5 -48.5t81.5 -129.5q0 -78 -60.5 -121.5t-177.5 -63.5l2 -10q31 8 72 8q87 0 142 -48.5t55 -123.5q0 -122 -99 -207.5 t-278 -85.5q-154 0 -229.5 56.5t-75.5 138.5z" />
<glyph unicode="&#xb4;" horiz-adv-x="555" d="M70 1114l270 422q67 0 106 -37t39 -90q0 -67 -60.5 -129.5t-152 -105.5t-198.5 -66z" />
<glyph unicode="&#xb6;" horiz-adv-x="1124" d="M39 -190q0 69 47.5 104t112.5 35q31 0 63 -9t47 -22q-30 -62 -30 -133q0 -61 26 -101t76 -40q69 0 121.5 44t81.5 118t43 159.5t14 179.5v437h-106q-486 0 -486 424q0 99 27 174t72 122.5t111.5 77.5t138.5 42t159 12q33 0 118 -3.5t150 -3.5q77 0 141.5 1.5t90.5 3.5 l26 2v-21q-76 0 -114.5 -66.5t-38.5 -189.5v-827q0 -709 -549 -709q-99 0 -173 18t-121.5 61.5t-47.5 109.5zM506 -338q124 46 198 185.5t74 377.5v1184h-114v-1227q0 -397 -158 -520z" />
<glyph unicode="&#xb7;" horiz-adv-x="591" d="M76 627q0 95 57 156t162 61t163 -61t58 -156q0 -96 -58 -155.5t-163 -59.5t-162 59.5t-57 155.5z" />
<glyph unicode="&#xb8;" horiz-adv-x="681" d="M104 -406q0 38 30.5 63.5t74.5 25.5q41 0 76 -21q-10 -11 -17.5 -38t-7.5 -42q0 -78 62 -78q31 0 50 24t19 62q0 28 -15.5 51.5t-37.5 40.5t-44.5 35.5t-38 46t-15.5 62.5q0 30 17.5 58.5t42 48t49 35t41.5 22.5l18 8h20q-3 0 -21.5 -13.5t-38.5 -38.5t-20 -48 q0 -24 23.5 -44t56.5 -35.5t66.5 -34t57 -49t23.5 -71.5q0 -74 -83 -125t-191 -51q-84 0 -140.5 27.5t-56.5 78.5z" />
<glyph unicode="&#xb9;" horiz-adv-x="495" d="M33 848v16q84 0 84 140v460q0 77 -18.5 103t-65.5 26v17q89 0 186 12t160 35v-694q0 -58 19.5 -78.5t64.5 -20.5v-16q-98 4 -215 4z" />
<glyph unicode="&#xba;" horiz-adv-x="966" d="M47 621v20h871v-20h-871zM68 1092q0 74 30 142t84 121.5t138 85.5t184 32q108 0 197 -42t142.5 -122t53.5 -183q0 -73 -29.5 -140.5t-83.5 -120.5t-137.5 -85t-183.5 -32q-167 0 -281 95.5t-114 248.5zM395 1120q0 -161 28.5 -258.5t68.5 -97.5q77 0 77 334 q0 163 -27.5 260.5t-68.5 97.5q-78 0 -78 -336z" />
<glyph unicode="&#xbb;" horiz-adv-x="903" d="M57 152l158 395l-158 389l13 12l403 -381v-41l-403 -387zM330 68l221 479l-221 479l12 12l502 -471v-41l-502 -471z" />
<glyph unicode="&#xbc;" horiz-adv-x="1341" d="M33 664v16q84 0 84 139v461q0 77 -18.5 103t-65.5 26v16q87 0 185 12.5t161 35.5v-695q0 -57 19.5 -77.5t64.5 -20.5v-16q-98 4 -215 4zM377 -20l559 1474h29l-557 -1474h-31zM631 190l172 230q80 106 80 205q0 80 -43 131q49 53 125 53q66 0 106.5 -40.5t40.5 -94.5 q0 -58 -33 -108.5t-110 -114.5l-314 -252h289v180l262 137v-317h97v-17h-97v-67q0 -58 19.5 -78.5t64.5 -20.5v-16q-98 4 -215 4l-215 -4v16q84 0 84 140v26h-307z" />
<glyph unicode="&#xbd;" horiz-adv-x="1507" d="M33 664v16q84 0 84 139v461q0 77 -18.5 103t-65.5 26v16q87 0 185 12.5t161 35.5v-695q0 -57 19.5 -77.5t64.5 -20.5v-16q-98 4 -215 4zM377 -20l559 1474h29l-557 -1474h-31zM782 10q0 57 20.5 106t53 85.5t72.5 71t79.5 70t72 74.5t53 93t20.5 117q0 73 -33.5 109 t-85.5 36q-43 0 -68.5 -25.5t-25.5 -62.5q0 -79 88 -86q4 -16 4 -27q0 -43 -28 -73.5t-84 -30.5q-61 0 -92 37t-31 92q0 81 79 138t234 57q147 0 242.5 -60t95.5 -158q0 -85 -48.5 -137.5t-124.5 -78t-156.5 -46t-158.5 -58.5t-116 -97l6 -4q48 55 109 72.5t135 17.5 q49 0 145 -15.5t139 -15.5q67 0 76 59h16q0 -160 -59.5 -234.5t-193.5 -74.5q-80 0 -184 37t-146 37q-44 0 -65 -22t-21 -52h-13q-6 30 -6 49z" />
<glyph unicode="&#xbe;" horiz-adv-x="1474" d="M31 838q0 51 30.5 91t94.5 40q51 0 79.5 -30.5t28.5 -72.5q0 -18 -4 -30q-39 -2 -63.5 -22.5t-24.5 -63.5q0 -38 25.5 -63t72.5 -25q69 0 125 70t56 181q0 71 -38.5 116.5t-103.5 45.5q-33 0 -57 -8l-4 14q73 27 120.5 93t47.5 151q0 61 -32 95t-85 34q-45 0 -71.5 -25.5 t-26.5 -62.5q0 -79 88 -86q4 -12 4 -27q0 -42 -28 -73t-81 -31q-63 0 -94 39.5t-31 89.5q0 82 76.5 138.5t229.5 56.5q152 0 233.5 -49t81.5 -130q0 -78 -60.5 -121t-177.5 -63l2 -10q31 8 72 8q87 0 142 -48.5t55 -123.5q0 -122 -99 -207.5t-278 -85.5q-154 0 -229.5 56.5 t-75.5 138.5zM512 -20l559 1474h29l-557 -1474h-31zM766 190l172 230q80 106 80 205q0 80 -43 131q49 53 125 53q66 0 106.5 -40.5t40.5 -94.5q0 -58 -33 -108.5t-110 -114.5l-313 -252h288v180l262 137v-317h97v-17h-97v-67q0 -58 19.5 -78.5t64.5 -20.5v-16q-98 4 -215 4 l-215 -4v16q84 0 84 140v26h-307z" />
<glyph unicode="&#xbf;" horiz-adv-x="1042" d="M61 -66q0 84 29.5 150t76 106.5t103 71.5t113.5 52t103.5 41t76 45.5t29.5 58.5q0 25 -21 63l13 13q55 -36 100 -104.5t45 -143.5q0 -55 -18 -100.5t-46.5 -78.5t-63.5 -63l-70 -60t-63.5 -63t-46.5 -78.5t-18 -99.5q0 -88 64 -138t147 -50q56 0 83.5 27t27.5 67 q0 37 -21 70t-53 42q-4 20 -4 31q0 55 41 96t109 41q86 0 136 -50t50 -113q0 -103 -86 -167.5t-250 -64.5q-126 0 -237.5 34t-186.5 90t-118.5 128t-43.5 147zM352 831q0 96 58 156t163 60t162.5 -60t57.5 -156q0 -95 -57.5 -156t-162.5 -61t-163 61t-58 156z" />
<glyph unicode="&#xc0;" horiz-adv-x="1615" d="M18 0v20q160 0 256 285l365 1065l352 107l445 -1315q49 -142 161 -142v-20q-113 6 -395 6q-122 0 -217.5 -1.5t-130.5 -2.5l-35 -2v20q113 0 113 101q0 12 -1.5 25.5t-6 31.5t-7.5 29.5t-10 37t-10 36.5l-90 305h-414l-92 -285q-31 -102 -31 -147q0 -75 45 -104.5 t140 -29.5v-20q-111 6 -248 6zM401 610h400l-187 623zM565 1837q0 53 39.5 90t106.5 37l270 -422l-4 -6q-107 23 -198.5 66t-152.5 105.5t-61 129.5z" />
<glyph unicode="&#xc1;" horiz-adv-x="1615" d="M18 0v20q160 0 256 285l365 1065l352 107l445 -1315q49 -142 161 -142v-20q-113 6 -395 6q-122 0 -217.5 -1.5t-130.5 -2.5l-35 -2v20q113 0 113 101q0 12 -1.5 25.5t-6 31.5t-7.5 29.5t-10 37t-10 36.5l-90 305h-414l-92 -285q-31 -102 -31 -147q0 -75 45 -104.5 t140 -29.5v-20q-111 6 -248 6zM401 610h400l-187 623zM645 1542l270 422q67 0 106.5 -37t39.5 -90q0 -67 -61 -129.5t-152.5 -105.5t-198.5 -66z" />
<glyph unicode="&#xc2;" horiz-adv-x="1615" d="M18 0v20q160 0 256 285l365 1065l352 107l445 -1315q49 -142 161 -142v-20q-113 6 -395 6q-122 0 -217.5 -1.5t-130.5 -2.5l-35 -2v20q113 0 113 101q0 12 -1.5 25.5t-6 31.5t-7.5 29.5t-10 37t-10 36.5l-90 305h-414l-92 -285q-31 -102 -31 -147q0 -75 45 -104.5 t140 -29.5v-20q-111 6 -248 6zM401 610h400l-187 623zM467 1526l297 301h127l297 -301l-6 -10l-355 106l-354 -106z" />
<glyph unicode="&#xc3;" horiz-adv-x="1615" d="M18 0v20q160 0 256 285l365 1065l352 107l445 -1315q49 -142 161 -142v-20q-113 6 -395 6q-122 0 -217.5 -1.5t-130.5 -2.5l-35 -2v20q113 0 113 101q0 12 -1.5 25.5t-6 31.5t-7.5 29.5t-10 37t-10 36.5l-90 305h-414l-92 -285q-31 -102 -31 -147q0 -75 45 -104.5 t140 -29.5v-20q-111 6 -248 6zM401 610h400l-187 623zM449 1540q15 303 243 303q60 0 116 -16.5t92.5 -36.5t84 -36.5t92.5 -16.5q100 0 119 112l16 -10q-15 -303 -243 -303q-60 0 -116 16.5t-92 36.5t-84 36.5t-93 16.5q-43 0 -76 -27t-43 -85z" />
<glyph unicode="&#xc4;" horiz-adv-x="1615" d="M18 0v20q160 0 256 285l365 1065l352 107l445 -1315q49 -142 161 -142v-20q-113 6 -395 6q-122 0 -217.5 -1.5t-130.5 -2.5l-35 -2v20q113 0 113 101q0 12 -1.5 25.5t-6 31.5t-7.5 29.5t-10 37t-10 36.5l-90 305h-414l-92 -285q-31 -102 -31 -147q0 -75 45 -104.5 t140 -29.5v-20q-111 6 -248 6zM401 610h400l-187 623zM401 1710q0 76 46 126t131 50t131.5 -50t46.5 -126q0 -77 -46 -125.5t-132 -48.5t-131.5 48.5t-45.5 125.5zM860 1710q0 76 45.5 126t128.5 50q88 0 134 -49.5t46 -126.5t-46 -125.5t-134 -48.5q-83 0 -128.5 48.5 t-45.5 125.5z" />
<glyph unicode="&#xc5;" horiz-adv-x="1615" d="M18 0v20q160 0 256 285l365 1065l352 107l445 -1315q49 -142 161 -142v-20q-113 6 -395 6q-122 0 -217.5 -1.5t-130.5 -2.5l-35 -2v20q113 0 113 101q0 12 -1.5 25.5t-6 31.5t-7.5 29.5t-10 37t-10 36.5l-90 305h-414l-92 -285q-31 -102 -31 -147q0 -75 45 -104.5 t140 -29.5v-20q-111 6 -248 6zM401 610h400l-187 623zM582 1724q0 87 62 145t173 58q87 0 147 -50t60 -138q0 -87 -62.5 -145t-173.5 -58q-87 0 -146.5 50t-59.5 138zM715 1739q0 -83 26.5 -134t69.5 -51q41 0 60.5 47.5t19.5 122.5q0 83 -26.5 134t-69.5 51 q-41 0 -60.5 -47.5t-19.5 -122.5z" />
<glyph unicode="&#xc6;" horiz-adv-x="2172" d="M4 0v20q158 0 344 285l629 969q-7 79 -43 109t-109 30v21q181 -7 394 -7q94 0 379.5 3t453.5 4v-439h-20q-23 197 -149 305.5t-316 108.5q-67 0 -109 -12v-625h107q111 0 185.5 74t74.5 213h20v-656h-20q0 64 -18 124t-52.5 110.5t-93 80.5t-133.5 30h-70v-545 q0 -105 36 -144t118 -39q81 0 160.5 37.5t148 105t120 171t73.5 227.5h22l-94 -561q-166 1 -449 3.5t-397 2.5l-405 -6v20q95 0 141.5 66.5t46.5 189.5v310h-420l-156 -246q-43 -69 -62 -112t-19 -83q0 -56 38.5 -90.5t118.5 -34.5v-20q-151 6 -286 6zM573 610h406v621z" />
<glyph unicode="&#xc7;" horiz-adv-x="1519" d="M49 684q0 159 54.5 302t153 251.5t246 172t322.5 63.5q128 0 296.5 -33t305.5 -33v-412h-20q-19 91 -60 167.5t-93.5 129t-115 89.5t-126 54t-125.5 17q-41 0 -73 -10t-67 -36t-61 -77.5t-47 -127.5t-32 -193.5t-11 -268.5q0 -757 305 -757q73 0 153 39t154 109 t135.5 178t94.5 235h20l-63 -498q-118 0 -268.5 -38.5t-262.5 -43.5q-61 -18 -61 -65q0 -24 23.5 -44t56.5 -35.5t66.5 -34t57 -49t23.5 -71.5q0 -74 -83 -125t-191 -51q-84 0 -140.5 27.5t-56.5 78.5q0 38 30.5 63.5t74.5 25.5q40 0 75 -21q-10 -11 -17 -37.5t-7 -42.5 q0 -78 61 -78q31 0 50.5 24t19.5 62q0 28 -15.5 51.5t-38 40.5t-45 35.5t-38 46t-15.5 62.5q0 32 16.5 58t43 41.5t45 23.5t35.5 12q-193 0 -343.5 53t-246.5 149.5t-145.5 228.5t-49.5 292z" />
<glyph unicode="&#xc8;" horiz-adv-x="1388" d="M41 0v20q77 0 115.5 67t38.5 189v955q0 105 -36 143.5t-118 38.5v21q180 -7 393 -7q94 0 380.5 3t453.5 4v-439h-21q-23 197 -149 305.5t-316 108.5q-66 0 -108 -12v-625h106q111 0 185.5 74t74.5 213h21v-656h-21q0 64 -18 124t-52.5 110.5t-93 80.5t-133.5 30h-69v-545 q0 -105 35.5 -144t117.5 -39q81 0 160.5 37.5t148 105t120 171t73.5 227.5h23l-95 -561q-175 1 -449 3.5t-374 2.5zM485 1837q0 53 39.5 90t106.5 37l270 -422l-4 -6q-107 23 -198.5 66t-152.5 105.5t-61 129.5z" />
<glyph unicode="&#xc9;" horiz-adv-x="1388" d="M41 0v20q77 0 115.5 67t38.5 189v955q0 105 -36 143.5t-118 38.5v21q180 -7 393 -7q94 0 380.5 3t453.5 4v-439h-21q-23 197 -149 305.5t-316 108.5q-66 0 -108 -12v-625h106q111 0 185.5 74t74.5 213h21v-656h-21q0 64 -18 124t-52.5 110.5t-93 80.5t-133.5 30h-69v-545 q0 -105 35.5 -144t117.5 -39q81 0 160.5 37.5t148 105t120 171t73.5 227.5h23l-95 -561q-175 1 -449 3.5t-374 2.5zM563 1542l271 422q67 0 106 -37t39 -90q0 -67 -61 -129.5t-152.5 -105.5t-198.5 -66z" />
<glyph unicode="&#xca;" horiz-adv-x="1388" d="M41 0v20q77 0 115.5 67t38.5 189v955q0 105 -36 143.5t-118 38.5v21q180 -7 393 -7q94 0 380.5 3t453.5 4v-439h-21q-23 197 -149 305.5t-316 108.5q-66 0 -108 -12v-625h106q111 0 185.5 74t74.5 213h21v-656h-21q0 64 -18 124t-52.5 110.5t-93 80.5t-133.5 30h-69v-545 q0 -105 35.5 -144t117.5 -39q81 0 160.5 37.5t148 105t120 171t73.5 227.5h23l-95 -561q-175 1 -449 3.5t-374 2.5zM342 1526l297 301h127l297 -301l-6 -10l-355 106l-354 -106z" />
<glyph unicode="&#xcb;" horiz-adv-x="1388" d="M41 0v20q77 0 115.5 67t38.5 189v955q0 105 -36 143.5t-118 38.5v21q180 -7 393 -7q94 0 380.5 3t453.5 4v-439h-21q-23 197 -149 305.5t-316 108.5q-66 0 -108 -12v-625h106q111 0 185.5 74t74.5 213h21v-656h-21q0 64 -18 124t-52.5 110.5t-93 80.5t-133.5 30h-69v-545 q0 -105 35.5 -144t117.5 -39q81 0 160.5 37.5t148 105t120 171t73.5 227.5h23l-95 -561q-175 1 -449 3.5t-374 2.5zM287 1710q0 76 45.5 126t130.5 50t131.5 -50t46.5 -126q0 -77 -46 -125.5t-132 -48.5t-131 48.5t-45 125.5zM745 1710q0 76 46 126t129 50q88 0 134 -49.5 t46 -126.5t-46 -125.5t-134 -48.5q-83 0 -129 48.5t-46 125.5z" />
<glyph unicode="&#xcc;" horiz-adv-x="868" d="M41 0v20q77 0 115.5 67t38.5 189v955q0 105 -36 143.5t-118 38.5v21q180 -7 393 -7q95 0 193 1.5t149 3.5l51 2v-21q-76 0 -114.5 -66.5t-38.5 -189.5v-954q0 -105 35.5 -144t117.5 -39v-20q-180 6 -393 6zM225 1837q0 53 39.5 90t106.5 37l270 -422l-4 -6 q-107 23 -198.5 66t-152.5 105.5t-61 129.5z" />
<glyph unicode="&#xcd;" horiz-adv-x="868" d="M41 0v20q77 0 115.5 67t38.5 189v955q0 105 -36 143.5t-118 38.5v21q180 -7 393 -7q95 0 193 1.5t149 3.5l51 2v-21q-76 0 -114.5 -66.5t-38.5 -189.5v-954q0 -105 35.5 -144t117.5 -39v-20q-180 6 -393 6zM250 1542l270 422q67 0 106.5 -37t39.5 -90q0 -67 -61 -129.5 t-152.5 -105.5t-198.5 -66z" />
<glyph unicode="&#xce;" horiz-adv-x="868" d="M41 0v20q77 0 115.5 67t38.5 189v955q0 105 -36 143.5t-118 38.5v21q180 -7 393 -7q95 0 193 1.5t149 3.5l51 2v-21q-76 0 -114.5 -66.5t-38.5 -189.5v-954q0 -105 35.5 -144t117.5 -39v-20q-180 6 -393 6zM82 1526l297 301h127l297 -301l-6 -10l-355 106l-354 -106z" />
<glyph unicode="&#xcf;" horiz-adv-x="868" d="M29 1710q0 76 45.5 126t130.5 50t131.5 -50t46.5 -126q0 -77 -46 -125.5t-132 -48.5t-131 48.5t-45 125.5zM41 0v20q77 0 115.5 67t38.5 189v955q0 105 -36 143.5t-118 38.5v21q180 -7 393 -7q95 0 193 1.5t149 3.5l51 2v-21q-76 0 -114.5 -66.5t-38.5 -189.5v-954 q0 -105 35.5 -144t117.5 -39v-20q-180 6 -393 6zM487 1710q0 76 46 126t129 50q88 0 134 -49.5t46 -126.5t-46 -125.5t-134 -48.5q-83 0 -129 48.5t-46 125.5z" />
<glyph unicode="&#xd0;" horiz-adv-x="1675" d="M41 0v20q77 0 115.5 67t38.5 189v441h-146v24h146v490q0 105 -36 143.5t-118 38.5v21q180 -7 393 -7q49 0 180 3.5t197 3.5q239 0 422.5 -81t288 -236.5t104.5 -364.5q0 -176 -56 -318t-157.5 -237t-244.5 -146t-316 -51q-101 0 -234 3t-184 3zM674 203q0 -103 33.5 -143 t101.5 -40q301 0 301 674q0 715 -377 715q-31 0 -59 -8v-660h252v-24h-252v-514z" />
<glyph unicode="&#xd1;" horiz-adv-x="1533" d="M31 0v20q153 0 153 297v914q0 105 -35.5 143.5t-117.5 38.5v21q314 -7 694 -7q7 -67 94 -198l518 -783v670q0 154 -72.5 225.5t-195.5 71.5v21q213 -7 285 -7l184 7v-21q-76 0 -127 -72.5t-51 -224.5v-1116l-316 -37l-839 1297v-943q0 -159 71 -228t222 -69v-20 q-221 6 -293 6zM432 1540q7 152 70 227.5t174 75.5q60 0 116 -16.5t92.5 -36.5t84 -36.5t92.5 -16.5q100 0 119 112l16 -10q-7 -152 -70 -227.5t-174 -75.5q-60 0 -116 16.5t-92 36.5t-84 36.5t-93 16.5q-43 0 -75.5 -26.5t-42.5 -85.5z" />
<glyph unicode="&#xd2;" d="M49 684q0 164 54 308t152 251t245 168.5t323 61.5q237 0 408.5 -90.5t259.5 -252.5t88 -378q0 -220 -92 -398.5t-270.5 -285.5t-413.5 -107q-355 0 -554.5 197t-199.5 526zM594 739q0 -171 20 -314.5t54.5 -239.5t79.5 -149.5t96 -53.5q47 0 81.5 37t59.5 119.5t38 221 t13 334.5q0 171 -19.5 314.5t-53 240t-79 150t-96.5 53.5q-47 0 -81.5 -38t-60.5 -120.5t-39 -221.5t-13 -333zM606 1837q0 53 39.5 90t106.5 37l270 -422l-4 -6q-107 23 -198.5 66t-152.5 105.5t-61 129.5z" />
<glyph unicode="&#xd3;" d="M49 684q0 164 54 308t152 251t245 168.5t323 61.5q237 0 408.5 -90.5t259.5 -252.5t88 -378q0 -220 -92 -398.5t-270.5 -285.5t-413.5 -107q-355 0 -554.5 197t-199.5 526zM590 1542l270 422q67 0 106.5 -37t39.5 -90q0 -67 -61 -129.5t-152.5 -105.5t-198.5 -66z M594 739q0 -171 20 -314.5t54.5 -239.5t79.5 -149.5t96 -53.5q47 0 81.5 37t59.5 119.5t38 221t13 334.5q0 171 -19.5 314.5t-53 240t-79 150t-96.5 53.5q-47 0 -81.5 -38t-60.5 -120.5t-39 -221.5t-13 -333z" />
<glyph unicode="&#xd4;" d="M49 684q0 164 54 308t152 251t245 168.5t323 61.5q237 0 408.5 -90.5t259.5 -252.5t88 -378q0 -220 -92 -398.5t-270.5 -285.5t-413.5 -107q-355 0 -554.5 197t-199.5 526zM451 1526l297 301h126l297 -301l-6 -10l-354 106l-354 -106zM594 739q0 -171 20 -314.5 t54.5 -239.5t79.5 -149.5t96 -53.5q47 0 81.5 37t59.5 119.5t38 221t13 334.5q0 171 -19.5 314.5t-53 240t-79 150t-96.5 53.5q-47 0 -81.5 -38t-60.5 -120.5t-39 -221.5t-13 -333z" />
<glyph unicode="&#xd5;" d="M49 684q0 164 54 308t152 251t245 168.5t323 61.5q237 0 408.5 -90.5t259.5 -252.5t88 -378q0 -220 -92 -398.5t-270.5 -285.5t-413.5 -107q-355 0 -554.5 197t-199.5 526zM432 1540q7 152 70 227.5t174 75.5q60 0 116 -16.5t92.5 -36.5t84 -36.5t92.5 -16.5 q100 0 119 112l16 -10q-7 -152 -70 -227.5t-174 -75.5q-60 0 -116 16.5t-92 36.5t-84 36.5t-93 16.5q-43 0 -75.5 -26.5t-42.5 -85.5zM594 739q0 -171 20 -314.5t54.5 -239.5t79.5 -149.5t96 -53.5q47 0 81.5 37t59.5 119.5t38 221t13 334.5q0 171 -19.5 314.5t-53 240 t-79 150t-96.5 53.5q-47 0 -81.5 -38t-60.5 -120.5t-39 -221.5t-13 -333z" />
<glyph unicode="&#xd6;" d="M49 684q0 164 54 308t152 251t245 168.5t323 61.5q237 0 408.5 -90.5t259.5 -252.5t88 -378q0 -220 -92 -398.5t-270.5 -285.5t-413.5 -107q-355 0 -554.5 197t-199.5 526zM408 1710q0 76 45.5 126t130.5 50t131.5 -50t46.5 -126q0 -77 -46 -125.5t-132 -48.5t-131 48.5 t-45 125.5zM594 739q0 -171 20 -314.5t54.5 -239.5t79.5 -149.5t96 -53.5q47 0 81.5 37t59.5 119.5t38 221t13 334.5q0 171 -19.5 314.5t-53 240t-79 150t-96.5 53.5q-47 0 -81.5 -38t-60.5 -120.5t-39 -221.5t-13 -333zM866 1710q0 76 45.5 126t128.5 50q88 0 134.5 -50 t46.5 -126q0 -77 -46 -125.5t-135 -48.5q-83 0 -128.5 48.5t-45.5 125.5z" />
<glyph unicode="&#xd7;" horiz-adv-x="651" d="M0 246l311 311l-311 311l14 15l312 -312l311 312l14 -15l-311 -311l311 -311l-14 -15l-311 312l-312 -312z" />
<glyph unicode="&#xd8;" d="M49 684q0 164 54 308t152 251t245 168.5t323 61.5q229 0 402 -89l98 152h33l-109 -164q161 -91 246.5 -250.5t85.5 -369.5q0 -221 -92 -399.5t-270.5 -285t-413.5 -106.5q-240 0 -418 96l-80 -120h-33l88 135q-152 92 -231.5 249.5t-79.5 362.5zM594 739q0 -161 16 -299 l400 629q-30 183 -89.5 283t-132.5 100q-47 0 -81.5 -38t-60.5 -120.5t-39 -221.5t-13 -333zM614 399q30 -199 92 -308t138 -109q47 0 81.5 37t59.5 119.5t38 221t13 334.5q0 174 -20 334z" />
<glyph unicode="&#xd9;" horiz-adv-x="1550" d="M45 1413v21q180 -7 393 -7q95 0 193 1.5t149 3.5l51 2v-21q-76 0 -114.5 -66.5t-38.5 -189.5v-692q0 -231 80 -332.5t252 -101.5q159 0 245 106.5t86 327.5v651q0 154 -72 225.5t-194 71.5v21q213 -7 285 -7l184 7v-21q-76 0 -127 -72.5t-51 -224.5v-647 q0 -95 -15 -169.5t-40.5 -127t-67 -89.5t-85.5 -59t-106.5 -34.5t-119.5 -16.5t-133 -4q-600 0 -600 500v762q0 105 -36 143.5t-118 38.5zM682 1837q0 53 39 90t106 37l271 -422l-4 -6q-107 23 -198.5 66t-152.5 105.5t-61 129.5z" />
<glyph unicode="&#xda;" horiz-adv-x="1550" d="M45 1413v21q180 -7 393 -7q95 0 193 1.5t149 3.5l51 2v-21q-76 0 -114.5 -66.5t-38.5 -189.5v-692q0 -231 80 -332.5t252 -101.5q159 0 245 106.5t86 327.5v651q0 154 -72 225.5t-194 71.5v21q213 -7 285 -7l184 7v-21q-76 0 -127 -72.5t-51 -224.5v-647 q0 -95 -15 -169.5t-40.5 -127t-67 -89.5t-85.5 -59t-106.5 -34.5t-119.5 -16.5t-133 -4q-600 0 -600 500v762q0 105 -36 143.5t-118 38.5zM786 1540l271 422q67 0 106 -37t39 -90q0 -67 -60.5 -129.5t-152 -105.5t-198.5 -66z" />
<glyph unicode="&#xdb;" horiz-adv-x="1550" d="M45 1413v21q180 -7 393 -7q95 0 193 1.5t149 3.5l51 2v-21q-76 0 -114.5 -66.5t-38.5 -189.5v-692q0 -231 80 -332.5t252 -101.5q159 0 245 106.5t86 327.5v651q0 154 -72 225.5t-194 71.5v21q213 -7 285 -7l184 7v-21q-76 0 -127 -72.5t-51 -224.5v-647 q0 -95 -15 -169.5t-40.5 -127t-67 -89.5t-85.5 -59t-106.5 -34.5t-119.5 -16.5t-133 -4q-600 0 -600 500v762q0 105 -36 143.5t-118 38.5zM555 1524l297 301h127l297 -301l-6 -11l-355 107l-354 -107z" />
<glyph unicode="&#xdc;" horiz-adv-x="1550" d="M45 1413v21q180 -7 393 -7q95 0 193 1.5t149 3.5l51 2v-21q-76 0 -114.5 -66.5t-38.5 -189.5v-692q0 -231 80 -332.5t252 -101.5q159 0 245 106.5t86 327.5v651q0 154 -72 225.5t-194 71.5v21q213 -7 285 -7l184 7v-21q-76 0 -127 -72.5t-51 -224.5v-647 q0 -95 -15 -169.5t-40.5 -127t-67 -89.5t-85.5 -59t-106.5 -34.5t-119.5 -16.5t-133 -4q-600 0 -600 500v762q0 105 -36 143.5t-118 38.5zM512 1710q0 76 45.5 126t130.5 50t131.5 -50t46.5 -126q0 -77 -46 -125.5t-132 -48.5t-131 48.5t-45 125.5zM971 1710q0 76 45.5 126 t128.5 50q88 0 134 -49.5t46 -126.5t-46 -125.5t-134 -48.5q-83 0 -128.5 48.5t-45.5 125.5z" />
<glyph unicode="&#xdd;" horiz-adv-x="1540" d="M33 1413v21q167 -7 409 -7q120 0 221 1.5t142 3.5l41 2v-21q-49 0 -79 -25.5t-30 -64.5q0 -52 49 -137l211 -385l144 256q88 159 88 233q0 59 -40.5 91t-139.5 32v21q94 -7 260 -7q54 0 103.5 1.5t71.5 3.5l23 2v-21q-63 0 -138 -64.5t-152 -201.5l-199 -350v-594 q0 -105 35.5 -144t117.5 -39v-20q-180 6 -393 6l-393 -6v20q77 0 115.5 67t38.5 189v476l-346 553q-41 65 -78 86.5t-82 21.5zM788 1542l271 422q67 0 106 -37t39 -90q0 -67 -60.5 -129.5t-152 -105.5t-198.5 -66z" />
<glyph unicode="&#xde;" horiz-adv-x="1454" d="M41 0v20q77 0 115.5 67t38.5 189v955q0 105 -36 143.5t-118 38.5v21q180 -7 393 -7q95 0 193 1.5t149 3.5l51 2v-21q-76 0 -114.5 -66.5t-38.5 -189.5v-14q23 0 81 1t95 1q264 0 412.5 -105.5t148.5 -302.5q0 -196 -157 -311t-463 -115h-117v-108q0 -105 35.5 -144 t117.5 -39v-20q-180 6 -393 6zM674 334q143 0 204.5 95t61.5 302q0 202 -62 295.5t-204 93.5v-786z" />
<glyph unicode="&#xdf;" horiz-adv-x="1675" d="M35 0v18q59 0 89 38t30 106v803h-86v18h86q0 176 80 309t222 203t326 70q179 0 284 -88t105 -226q0 -62 -44 -173t-44 -165q0 -40 29.5 -78t77.5 -70t105 -65t114.5 -72t105.5 -82.5t77.5 -104.5t29.5 -130q0 -164 -131 -258t-373 -94q-58 0 -160.5 22.5t-240.5 22.5 l-19 367h17q36 -159 142 -275t237 -116q61 0 94 28t33 76t-29 93.5t-75.5 84t-102.5 78t-112.5 82.5t-103 90.5t-75.5 109t-29 130.5q0 67 30 128t72 109t84.5 95t72.5 104.5t30 118.5q0 93 -60 165t-151 72q-164 0 -164 -301v-1243q-135 6 -262 6z" />
<glyph unicode="&#xe0;" horiz-adv-x="1243" d="M47 180q0 158 160.5 246t456.5 88q12 139 12 295q0 106 -25 152.5t-82 46.5q-55 0 -84.5 -43t-29.5 -109q0 -98 59 -184q-40 -31 -103 -51.5t-114 -20.5q-83 0 -132.5 43t-49.5 113q0 82 81 145t199.5 93t247.5 30q258 0 362.5 -97.5t104.5 -314.5q0 -104 -10 -235.5 t-10 -196.5q0 -133 77 -133q34 0 60 33l8 -6q-29 -51 -100 -80t-164 -29q-192 0 -266 115q-30 -8 -94 -40.5t-136 -56.5t-151 -24q-120 0 -198.5 55.5t-78.5 165.5zM412 1409q0 53 39 90t106 37l270 -422l-4 -6q-107 23 -198.5 66t-152 105.5t-60.5 129.5zM504 221 q0 -153 92 -153q12 0 25.5 2.5t22.5 5.5t26.5 10t27.5 10q-5 6 -12 20.5t-19 74.5t-12 139q0 49 2.5 90.5t4.5 58.5l2 17q-80 -16 -120 -92t-40 -183z" />
<glyph unicode="&#xe1;" horiz-adv-x="1243" d="M47 180q0 158 160.5 246t456.5 88q12 139 12 295q0 106 -25 152.5t-82 46.5q-55 0 -84.5 -43t-29.5 -109q0 -98 59 -184q-40 -31 -103 -51.5t-114 -20.5q-83 0 -132.5 43t-49.5 113q0 82 81 145t199.5 93t247.5 30q258 0 362.5 -97.5t104.5 -314.5q0 -104 -10 -235.5 t-10 -196.5q0 -133 77 -133q34 0 60 33l8 -6q-29 -51 -100 -80t-164 -29q-192 0 -266 115q-30 -8 -94 -40.5t-136 -56.5t-151 -24q-120 0 -198.5 55.5t-78.5 165.5zM416 1114l270 422q67 0 106 -37t39 -90q0 -67 -60.5 -129.5t-152 -105.5t-198.5 -66zM504 221 q0 -153 92 -153q12 0 25.5 2.5t22.5 5.5t26.5 10t27.5 10q-5 6 -12 20.5t-19 74.5t-12 139q0 49 2.5 90.5t4.5 58.5l2 17q-80 -16 -120 -92t-40 -183z" />
<glyph unicode="&#xe2;" horiz-adv-x="1243" d="M47 180q0 158 160.5 246t456.5 88q12 139 12 295q0 106 -25 152.5t-82 46.5q-55 0 -84.5 -43t-29.5 -109q0 -98 59 -184q-40 -31 -103 -51.5t-114 -20.5q-83 0 -132.5 43t-49.5 113q0 82 81 145t199.5 93t247.5 30q258 0 362.5 -97.5t104.5 -314.5q0 -104 -10 -235.5 t-10 -196.5q0 -133 77 -133q34 0 60 33l8 -6q-29 -51 -100 -80t-164 -29q-192 0 -266 115q-30 -8 -94 -40.5t-136 -56.5t-151 -24q-120 0 -198.5 55.5t-78.5 165.5zM283 1133l297 301h127l297 -301l-7 -11l-354 107l-354 -107zM504 221q0 -153 92 -153q12 0 25.5 2.5 t22.5 5.5t26.5 10t27.5 10q-5 6 -12 20.5t-19 74.5t-12 139q0 49 2.5 90.5t4.5 58.5l2 17q-80 -16 -120 -92t-40 -183z" />
<glyph unicode="&#xe3;" horiz-adv-x="1243" d="M47 180q0 158 160.5 246t456.5 88q12 139 12 295q0 106 -25 152.5t-82 46.5q-55 0 -84.5 -43t-29.5 -109q0 -98 59 -184q-40 -31 -103 -51.5t-114 -20.5q-83 0 -132.5 43t-49.5 113q0 82 81 145t199.5 93t247.5 30q258 0 362.5 -97.5t104.5 -314.5q0 -104 -10 -235.5 t-10 -196.5q0 -133 77 -133q34 0 60 33l8 -6q-29 -51 -100 -80t-164 -29q-192 0 -266 115q-30 -8 -94 -40.5t-136 -56.5t-151 -24q-120 0 -198.5 55.5t-78.5 165.5zM240 1149q15 303 243 303q60 0 116 -16.5t92.5 -36.5t84 -36.5t92.5 -16.5q100 0 119 112l17 -10 q-7 -152 -70 -227.5t-174 -75.5q-60 0 -116 16.5t-92 36.5t-84 36.5t-93 16.5q-43 0 -76 -27t-43 -85zM504 221q0 -153 92 -153q12 0 25.5 2.5t22.5 5.5t26.5 10t27.5 10q-5 6 -12 20.5t-19 74.5t-12 139q0 49 2.5 90.5t4.5 58.5l2 17q-80 -16 -120 -92t-40 -183z" />
<glyph unicode="&#xe4;" horiz-adv-x="1243" d="M47 180q0 158 160.5 246t456.5 88q12 139 12 295q0 106 -25 152.5t-82 46.5q-55 0 -84.5 -43t-29.5 -109q0 -98 59 -184q-40 -31 -103 -51.5t-114 -20.5q-83 0 -132.5 43t-49.5 113q0 82 81 145t199.5 93t247.5 30q258 0 362.5 -97.5t104.5 -314.5q0 -104 -10 -235.5 t-10 -196.5q0 -133 77 -133q34 0 60 33l8 -6q-29 -51 -100 -80t-164 -29q-192 0 -266 115q-30 -8 -94 -40.5t-136 -56.5t-151 -24q-120 0 -198.5 55.5t-78.5 165.5zM227 1286q0 76 45.5 126t130.5 50q86 0 132.5 -50t46.5 -126q0 -77 -46.5 -125.5t-132.5 -48.5t-131 48.5 t-45 125.5zM504 221q0 -153 92 -153q12 0 25.5 2.5t22.5 5.5t26.5 10t27.5 10q-5 6 -12 20.5t-19 74.5t-12 139q0 49 2.5 90.5t4.5 58.5l2 17q-80 -16 -120 -92t-40 -183zM686 1286q0 76 45.5 126t128.5 50q88 0 134 -49.5t46 -126.5t-46 -125.5t-134 -48.5 q-83 0 -128.5 48.5t-45.5 125.5z" />
<glyph unicode="&#xe5;" horiz-adv-x="1243" d="M47 180q0 158 160.5 246t456.5 88q12 139 12 295q0 106 -25 152.5t-82 46.5q-55 0 -84.5 -43t-29.5 -109q0 -98 59 -184q-40 -31 -103 -51.5t-114 -20.5q-83 0 -132.5 43t-49.5 113q0 82 81 145t199.5 93t247.5 30q258 0 362.5 -97.5t104.5 -314.5q0 -104 -10 -235.5 t-10 -196.5q0 -133 77 -133q34 0 60 33l8 -6q-29 -51 -100 -80t-164 -29q-192 0 -266 115q-30 -8 -94 -40.5t-136 -56.5t-151 -24q-120 0 -198.5 55.5t-78.5 165.5zM412 1280q0 87 62 145t173 58q87 0 147 -50.5t60 -138.5q0 -87 -62.5 -144.5t-173.5 -57.5q-87 0 -146.5 50 t-59.5 138zM504 221q0 -153 92 -153q12 0 25.5 2.5t22.5 5.5t26.5 10t27.5 10q-5 6 -12 20.5t-19 74.5t-12 139q0 49 2.5 90.5t4.5 58.5l2 17q-80 -16 -120 -92t-40 -183zM545 1294q0 -83 26.5 -133.5t69.5 -50.5q41 0 60.5 47.5t19.5 122.5q0 83 -26.5 133.5t-69.5 50.5 q-41 0 -60.5 -47.5t-19.5 -122.5z" />
<glyph unicode="&#xe6;" horiz-adv-x="1785" d="M47 180q0 158 159.5 246t455.5 88q1 37 7.5 135t6.5 160q0 106 -25 152.5t-82 46.5q-55 0 -84.5 -43t-29.5 -109q0 -98 59 -184q-40 -31 -103 -51.5t-114 -20.5q-83 0 -132.5 43t-49.5 113q0 82 81 145t199.5 93t247.5 30q209 0 318 -68q139 68 294 68q217 0 350.5 -101 t143.5 -296l-27 -27h-618q-2 -29 -2 -88q0 -128 29 -223.5t96.5 -155t167.5 -59.5q150 0 278 88l10 -8q-165 -195 -501 -195q-305 0 -422 137q-19 -8 -74.5 -37.5t-96 -47.5t-114 -35t-151.5 -17q-120 0 -198.5 55.5t-78.5 165.5zM504 223q0 -71 28.5 -113t79.5 -42 q21 0 42 6.5t51.5 20.5t42.5 18q-91 113 -91 313q0 45 2 68q-76 -18 -115.5 -92.5t-39.5 -178.5zM1106 616l229 25q8 55 8 117q0 116 -29.5 183t-76.5 67q-50 0 -82 -96t-49 -296z" />
<glyph unicode="&#xe7;" horiz-adv-x="1169" d="M37 467q0 150 82.5 277.5t231.5 203.5t331 76q205 0 328 -69t123 -185q0 -72 -57 -121t-156 -49q-49 0 -99.5 17t-81.5 45q56 83 56 194q0 68 -24.5 110t-74.5 42q-75 0 -127.5 -133.5t-52.5 -362.5q0 -194 77.5 -316t223.5 -122q152 0 283 88l8 -8 q-84 -100 -200.5 -147.5t-284.5 -47.5q-31 -27 -31 -61q0 -24 23.5 -44t57 -35.5t66.5 -34t56.5 -49t23.5 -71.5q0 -74 -83 -125t-191 -51q-84 0 -140.5 27.5t-56.5 78.5q0 38 30.5 63.5t74.5 25.5q40 0 75 -21q-10 -11 -17 -37.5t-7 -42.5q0 -78 61 -78q31 0 50.5 24 t19.5 62q0 28 -15.5 51t-38 39.5t-45 34t-38 45t-15.5 62.5q0 90 115 137q-266 9 -413.5 146t-147.5 362z" />
<glyph unicode="&#xe8;" horiz-adv-x="1200" d="M37 467q0 112 49 214.5t133 178t202 120t249 44.5q217 0 350 -101t143 -296l-26 -27h-619q-2 -31 -2 -88q0 -128 29 -223.5t96.5 -155t167.5 -59.5q150 0 278 88l11 -8q-84 -99 -199.5 -147t-275.5 -48q-282 0 -434 137t-152 371zM391 1409q0 53 39.5 90t106.5 37 l270 -422l-4 -6q-107 23 -198.5 66t-152.5 105.5t-61 129.5zM520 616l230 25q8 55 8 117q0 116 -30 183t-77 67q-50 0 -82 -96t-49 -296z" />
<glyph unicode="&#xe9;" horiz-adv-x="1200" d="M37 467q0 112 49 214.5t133 178t202 120t249 44.5q217 0 350 -101t143 -296l-26 -27h-619q-2 -31 -2 -88q0 -128 29 -223.5t96.5 -155t167.5 -59.5q150 0 278 88l11 -8q-84 -99 -199.5 -147t-275.5 -48q-282 0 -434 137t-152 371zM432 1114l270 422q67 0 106.5 -37 t39.5 -90q0 -67 -61 -129.5t-152.5 -105.5t-198.5 -66zM520 616l230 25q8 55 8 117q0 116 -30 183t-77 67q-50 0 -82 -96t-49 -296z" />
<glyph unicode="&#xea;" horiz-adv-x="1200" d="M37 467q0 112 49 214.5t133 178t202 120t249 44.5q217 0 350 -101t143 -296l-26 -27h-619q-2 -31 -2 -88q0 -128 29 -223.5t96.5 -155t167.5 -59.5q150 0 278 88l11 -8q-84 -99 -199.5 -147t-275.5 -48q-282 0 -434 137t-152 371zM287 1133l297 301h127l297 -301l-7 -11 l-354 107l-354 -107zM520 616l230 25q8 55 8 117q0 116 -30 183t-77 67q-50 0 -82 -96t-49 -296z" />
<glyph unicode="&#xeb;" horiz-adv-x="1200" d="M37 467q0 112 49 214.5t133 178t202 120t249 44.5q217 0 350 -101t143 -296l-26 -27h-619q-2 -31 -2 -88q0 -128 29 -223.5t96.5 -155t167.5 -59.5q150 0 278 88l11 -8q-84 -99 -199.5 -147t-275.5 -48q-282 0 -434 137t-152 371zM215 1286q0 76 45.5 126t130.5 50 t131.5 -50t46.5 -126q0 -77 -46 -125.5t-132 -48.5t-131 48.5t-45 125.5zM520 616l230 25q8 55 8 117q0 116 -30 183t-77 67q-50 0 -82 -96t-49 -296zM674 1286q0 76 45.5 126t128.5 50q88 0 134 -49.5t46 -126.5t-46 -125.5t-134 -48.5q-83 0 -128.5 48.5t-45.5 125.5z" />
<glyph unicode="&#xec;" horiz-adv-x="751" d="M37 0v18q58 0 87.5 38t29.5 106v637q0 59 -26 83.5t-83 24.5l-8 17q138 0 281 25t216 50l74 25v-928q0 -78 80 -78v-18q-98 6 -305 6q-91 0 -177.5 -1.5t-127.5 -2.5zM145 1409q0 53 39.5 90t106.5 37l270 -422l-4 -6q-107 23 -198.5 66t-152.5 105.5t-61 129.5z" />
<glyph unicode="&#xed;" horiz-adv-x="751" d="M37 0v18q58 0 87.5 38t29.5 106v637q0 59 -26 83.5t-83 24.5l-8 17q138 0 281 25t216 50l74 25v-928q0 -78 80 -78v-18q-98 6 -305 6q-91 0 -177.5 -1.5t-127.5 -2.5zM174 1114l270 422q67 0 106.5 -37t39.5 -90q0 -67 -61 -129.5t-152.5 -105.5t-198.5 -66z" />
<glyph unicode="&#xee;" horiz-adv-x="751" d="M14 1133l297 301h127l297 -301l-6 -11l-354 107l-355 -107zM37 0v18q58 0 87.5 38t29.5 106v637q0 59 -26 83.5t-83 24.5l-8 17q138 0 281 25t216 50l74 25v-928q0 -78 80 -78v-18q-98 6 -305 6q-91 0 -177.5 -1.5t-127.5 -2.5z" />
<glyph unicode="&#xef;" horiz-adv-x="751" d="M-31 1286q0 76 45.5 126t130.5 50q86 0 132.5 -50t46.5 -126q0 -77 -46.5 -125.5t-132.5 -48.5t-131 48.5t-45 125.5zM37 0v18q58 0 87.5 38t29.5 106v637q0 59 -26 83.5t-83 24.5l-8 17q138 0 281 25t216 50l74 25v-928q0 -78 80 -78v-18q-98 6 -305 6 q-91 0 -177.5 -1.5t-127.5 -2.5zM428 1286q0 76 45.5 126t128.5 50q88 0 134 -49.5t46 -126.5t-46 -125.5t-134 -48.5q-83 0 -128.5 48.5t-45.5 125.5z" />
<glyph unicode="&#xf0;" horiz-adv-x="1290" d="M37 487q0 128 42 233t112 171.5t159 102.5t185 36q110 0 188 -41q-33 146 -102 258l-289 -114v24l276 109q-84 140 -243 227l6 12q244 -56 417 -164l291 113v-24l-266 -103q451 -304 451 -762q0 -87 -23.5 -171.5t-75 -164t-125.5 -139t-184 -95.5t-242 -36 q-157 0 -288.5 66.5t-210 188t-78.5 273.5zM516 504q0 -241 42 -385t104 -144q54 0 79 114t25 386q0 242 -37 381t-98 139q-27 0 -47.5 -25.5t-36 -81.5t-23.5 -152t-8 -232z" />
<glyph unicode="&#xf1;" horiz-adv-x="1398" d="M37 0v18q58 0 87.5 38t29.5 106v637q0 59 -26 83.5t-83 24.5l-8 17q138 0 281 25t216 50l74 25v-160q37 14 89 43.5t91.5 54t96.5 43.5t112 19q124 0 191 -74.5t67 -214.5v-608q0 -66 25 -87.5t88 -21.5v-18q-135 6 -338 6q-84 0 -160.5 -1.5t-110.5 -2.5l-34 -2v18 q41 0 58.5 22t17.5 75v673q0 43 -21 67t-53 24q-18 0 -33.5 -3.5t-43 -13t-42.5 -14.5v-752q0 -78 80 -78v-18q-98 6 -305 6q-91 0 -177.5 -1.5t-127.5 -2.5zM367 1149q15 303 243 303q60 0 116 -16.5t92.5 -36.5t84 -36.5t92.5 -16.5q100 0 119 112l16 -10 q-15 -303 -243 -303q-60 0 -116 16.5t-92 36.5t-84 36.5t-93 16.5q-43 0 -76 -27t-43 -85z" />
<glyph unicode="&#xf2;" horiz-adv-x="1290" d="M37 467q0 107 43.5 206.5t123 178t203 125.5t271.5 47q158 0 288 -61t208.5 -178.5t78.5 -268.5q0 -107 -43 -206.5t-122 -178t-202 -125.5t-272 -47q-158 0 -288.5 61t-209.5 178.5t-79 268.5zM401 1409q0 53 39.5 90t106.5 37l270 -422l-4 -6q-107 23 -198.5 66 t-152.5 105.5t-61 129.5zM516 508q0 -241 42 -387t104 -146q55 0 83.5 116t28.5 384q0 241 -41 387t-102 146q-115 0 -115 -500z" />
<glyph unicode="&#xf3;" horiz-adv-x="1290" d="M37 467q0 107 43.5 206.5t123 178t203 125.5t271.5 47q158 0 288 -61t208.5 -178.5t78.5 -268.5q0 -107 -43 -206.5t-122 -178t-202 -125.5t-272 -47q-158 0 -288.5 61t-209.5 178.5t-79 268.5zM418 1114l270 422q67 0 106.5 -37t39.5 -90q0 -67 -61 -129.5 t-152.5 -105.5t-198.5 -66zM516 508q0 -241 42 -387t104 -146q55 0 83.5 116t28.5 384q0 241 -41 387t-102 146q-115 0 -115 -500z" />
<glyph unicode="&#xf4;" horiz-adv-x="1290" d="M37 467q0 107 43.5 206.5t123 178t203 125.5t271.5 47q158 0 288 -61t208.5 -178.5t78.5 -268.5q0 -107 -43 -206.5t-122 -178t-202 -125.5t-272 -47q-158 0 -288.5 61t-209.5 178.5t-79 268.5zM283 1133l297 301h127l297 -301l-7 -11l-354 107l-354 -107zM516 508 q0 -241 42 -387t104 -146q55 0 83.5 116t28.5 384q0 241 -41 387t-102 146q-115 0 -115 -500z" />
<glyph unicode="&#xf5;" horiz-adv-x="1290" d="M37 467q0 107 43.5 206.5t123 178t203 125.5t271.5 47q158 0 288 -61t208.5 -178.5t78.5 -268.5q0 -107 -43 -206.5t-122 -178t-202 -125.5t-272 -47q-158 0 -288.5 61t-209.5 178.5t-79 268.5zM262 1149q7 152 70 227.5t174 75.5q60 0 116 -16.5t92.5 -36.5t84 -36.5 t92.5 -16.5q100 0 119 112l16 -10q-7 -152 -70 -227.5t-174 -75.5q-60 0 -116 16.5t-92 36.5t-84 36.5t-93 16.5q-43 0 -75.5 -26.5t-42.5 -85.5zM516 508q0 -241 42 -387t104 -146q55 0 83.5 116t28.5 384q0 241 -41 387t-102 146q-115 0 -115 -500z" />
<glyph unicode="&#xf6;" horiz-adv-x="1290" d="M37 467q0 107 43.5 206.5t123 178t203 125.5t271.5 47q158 0 288 -61t208.5 -178.5t78.5 -268.5q0 -107 -43 -206.5t-122 -178t-202 -125.5t-272 -47q-158 0 -288.5 61t-209.5 178.5t-79 268.5zM238 1286q0 76 45.5 126t130.5 50t131.5 -50t46.5 -126q0 -77 -46 -125.5 t-132 -48.5t-131 48.5t-45 125.5zM516 508q0 -241 42 -387t104 -146q55 0 83.5 116t28.5 384q0 241 -41 387t-102 146q-115 0 -115 -500zM696 1286q0 76 45.5 126t128.5 50q88 0 134.5 -50t46.5 -126q0 -77 -46 -125.5t-135 -48.5q-83 0 -128.5 48.5t-45.5 125.5z" />
<glyph unicode="&#xf7;" horiz-adv-x="903" d="M-4 545v20h903v-20h-903zM360 254q0 41 30 70.5t73 29.5t72.5 -29.5t29.5 -70.5q0 -44 -29.5 -74t-72.5 -30t-73 30t-30 74zM360 860q0 41 30 71t73 30t72.5 -29.5t29.5 -71.5q0 -44 -29.5 -74t-72.5 -30t-73 30t-30 74z" />
<glyph unicode="&#xf8;" horiz-adv-x="1290" d="M37 467q0 107 43.5 206.5t123 178t203 125.5t271.5 47q145 0 266 -53l78 119h33l-86 -129q131 -63 207.5 -178.5t76.5 -266.5q0 -107 -43 -206.5t-122 -178t-202 -125.5t-272 -47q-147 0 -268 53l-78 -118h-32l83 129q-130 64 -206 178.5t-76 265.5zM516 508 q0 -108 6 -191l240 390q-15 144 -50 222.5t-81 78.5q-115 0 -115 -500zM526 274q17 -145 53 -222t83 -77q55 0 83.5 116t28.5 384q0 83 -8 189z" />
<glyph unicode="&#xf9;" horiz-adv-x="1390" d="M33 965v18l549 18l16 -16v-790q0 -43 22 -68t54 -25q18 0 34.5 4.5t41 13.5t43.5 15v752q0 78 -78 78v18l516 18l16 -16v-803q0 -59 25 -82.5t82 -23.5l10 -17q-87 0 -176 -10.5t-154 -25t-117 -29t-79 -24.5l-27 -11l-18 160q-42 -14 -94.5 -43.5t-91.5 -54t-94.5 -43.5 t-111.5 -19q-122 0 -190 74.5t-68 212.5v608q0 68 -23.5 89.5t-86.5 21.5zM440 1409q0 53 39.5 90t106.5 37l270 -422l-4 -6q-107 23 -198.5 66t-152.5 105.5t-61 129.5z" />
<glyph unicode="&#xfa;" horiz-adv-x="1390" d="M33 965v18l549 18l16 -16v-790q0 -43 22 -68t54 -25q18 0 34.5 4.5t41 13.5t43.5 15v752q0 78 -78 78v18l516 18l16 -16v-803q0 -59 25 -82.5t82 -23.5l10 -17q-87 0 -176 -10.5t-154 -25t-117 -29t-79 -24.5l-27 -11l-18 160q-42 -14 -94.5 -43.5t-91.5 -54t-94.5 -43.5 t-111.5 -19q-122 0 -190 74.5t-68 212.5v608q0 68 -23.5 89.5t-86.5 21.5zM541 1114l270 422q67 0 106 -37t39 -90q0 -67 -60.5 -129.5t-152 -105.5t-198.5 -66z" />
<glyph unicode="&#xfb;" horiz-adv-x="1390" d="M33 965v18l549 18l16 -16v-790q0 -43 22 -68t54 -25q18 0 34.5 4.5t41 13.5t43.5 15v752q0 78 -78 78v18l516 18l16 -16v-803q0 -59 25 -82.5t82 -23.5l10 -17q-87 0 -176 -10.5t-154 -25t-117 -29t-79 -24.5l-27 -11l-18 160q-42 -14 -94.5 -43.5t-91.5 -54t-94.5 -43.5 t-111.5 -19q-122 0 -190 74.5t-68 212.5v608q0 68 -23.5 89.5t-86.5 21.5zM332 1133l297 301h127l297 -301l-6 -11l-355 107l-354 -107z" />
<glyph unicode="&#xfc;" horiz-adv-x="1390" d="M33 965v18l549 18l16 -16v-790q0 -43 22 -68t54 -25q18 0 34.5 4.5t41 13.5t43.5 15v752q0 78 -78 78v18l516 18l16 -16v-803q0 -59 25 -82.5t82 -23.5l10 -17q-87 0 -176 -10.5t-154 -25t-117 -29t-79 -24.5l-27 -11l-18 160q-42 -14 -94.5 -43.5t-91.5 -54t-94.5 -43.5 t-111.5 -19q-122 0 -190 74.5t-68 212.5v608q0 68 -23.5 89.5t-86.5 21.5zM289 1286q0 76 45.5 126t130.5 50t131.5 -50t46.5 -126q0 -77 -46 -125.5t-132 -48.5t-131 48.5t-45 125.5zM748 1286q0 76 45.5 126t128.5 50q88 0 134 -49.5t46 -126.5t-46 -125.5t-134 -48.5 q-83 0 -128.5 48.5t-45.5 125.5z" />
<glyph unicode="&#xfd;" horiz-adv-x="1323" d="M23 965v18q186 -8 395 -8q93 0 170.5 2t109.5 4l31 2v-18q-40 0 -60 -21.5t-20 -54.5t25 -103l205 -563l133 387q43 118 43 201q0 72 -39 113t-123 41v18q92 -8 217 -8q51 0 98.5 2t69.5 4l22 2v-18q-74 0 -134 -75.5t-103 -199.5l-262 -741q-65 -181 -110 -256 q-104 -176 -269 -176q-128 0 -201.5 64t-73.5 163q0 88 61.5 147.5t164.5 59.5q97 0 151 -57t54 -123q-62 -13 -98 -50.5t-36 -82.5q0 -31 18 -50.5t48 -19.5q43 0 86 37.5t77 99.5t57.5 116.5t43.5 112.5l23 66h-297l-346 864q-21 54 -47.5 77.5t-83.5 23.5zM627 1114 l270 422q67 0 106 -37t39 -90q0 -67 -60.5 -129.5t-152 -105.5t-198.5 -66z" />
<glyph unicode="&#xfe;" horiz-adv-x="1355" d="M35 -494q119 0 119 146v1659q0 58 -26 81t-83 23l-8 19q138 0 280.5 25.5t215.5 50.5l73 26v-672q28 15 70.5 46t75 54t84 41.5t106.5 18.5q112 0 200 -67.5t132.5 -172.5t44.5 -223q0 -288 -167.5 -445t-473.5 -157q-26 0 -72 4v-311q0 -69 29 -107.5t88 -38.5v-18h-688 v18zM606 186q0 -103 29 -157t76 -54q129 0 129 500q0 97 -8 173t-20.5 121.5t-29.5 74.5t-33.5 40t-33.5 11t-32 -6t-37 -19.5t-40 -21.5v-662z" />
<glyph unicode="&#xff;" horiz-adv-x="1323" d="M23 965v18q186 -8 395 -8q93 0 170.5 2t109.5 4l31 2v-18q-40 0 -60 -21.5t-20 -54.5t25 -103l205 -563l133 387q43 118 43 201q0 72 -39 113t-123 41v18q92 -8 217 -8q51 0 98.5 2t69.5 4l22 2v-18q-74 0 -134 -75.5t-103 -199.5l-262 -741q-65 -181 -110 -256 q-104 -176 -269 -176q-128 0 -201.5 64t-73.5 163q0 88 61.5 147.5t164.5 59.5q97 0 151 -57t54 -123q-62 -13 -98 -50.5t-36 -82.5q0 -31 18 -50.5t48 -19.5q43 0 86 37.5t77 99.5t57.5 116.5t43.5 112.5l23 66h-297l-346 864q-21 54 -47.5 77.5t-83.5 23.5zM324 1286 q0 76 45.5 126t130.5 50t131.5 -50t46.5 -126q0 -77 -46 -125.5t-132 -48.5t-131 48.5t-45 125.5zM782 1286q0 76 45.5 126t128.5 50q88 0 134.5 -50t46.5 -126q0 -77 -46 -125.5t-135 -48.5q-83 0 -128.5 48.5t-45.5 125.5z" />
<glyph unicode="&#x152;" horiz-adv-x="2244" d="M49 684q0 164 54 308t152 251t245 168.5t323 61.5q155 0 283 -41q115 -2 270 -2q112 0 361 2t387 2v-439h-21q-23 197 -149 305.5t-316 108.5q-66 0 -108 -12v-625h106q111 0 185.5 74t74.5 213h21v-656h-21q0 64 -18 124t-52.5 110.5t-93 80.5t-133.5 30h-69v-545 q0 -105 35.5 -144t117.5 -39q81 0 160.5 37.5t148 105t120 171t73.5 227.5h23l-94 -561q-175 1 -449.5 3.5t-374.5 2.5q-49 0 -124.5 -1t-102.5 -1q-121 -43 -260 -43q-355 0 -554.5 197t-199.5 526zM594 739q0 -171 20 -314.5t54.5 -239.5t79.5 -149.5t96 -53.5 q47 0 81.5 37t59.5 119.5t38 221t13 334.5q0 171 -19.5 314.5t-53 240t-79 150t-96.5 53.5q-47 0 -81.5 -38t-60.5 -120.5t-39 -221.5t-13 -333z" />
<glyph unicode="&#x153;" horiz-adv-x="1931" d="M37 467q0 107 43.5 206.5t123 178t203 125.5t271.5 47q199 0 356 -111q168 111 367 111q217 0 350 -101t143 -296l-26 -27h-619q-2 -31 -2 -88q0 -128 29 -223.5t96.5 -155t167.5 -59.5q151 0 279 88l10 -8q-84 -99 -199.5 -147t-275.5 -48q-217 0 -373 100 q-168 -100 -367 -100q-158 0 -288.5 61t-209.5 178.5t-79 268.5zM516 508q0 -241 42 -387t104 -146q55 0 83.5 116t28.5 384q0 241 -41 387t-102 146q-115 0 -115 -500zM1251 616l230 25q8 55 8 117q0 116 -30 183t-77 67q-50 0 -82 -96t-49 -296z" />
<glyph unicode="&#x178;" horiz-adv-x="1540" d="M33 1413v21q167 -7 409 -7q120 0 221 1.5t142 3.5l41 2v-21q-49 0 -79 -25.5t-30 -64.5q0 -52 49 -137l211 -385l144 256q88 159 88 233q0 59 -40.5 91t-139.5 32v21q94 -7 260 -7q54 0 103.5 1.5t71.5 3.5l23 2v-21q-63 0 -138 -64.5t-152 -201.5l-199 -350v-594 q0 -105 35.5 -144t117.5 -39v-20q-180 6 -393 6l-393 -6v20q77 0 115.5 67t38.5 189v476l-346 553q-41 65 -78 86.5t-82 21.5zM469 1710q0 76 45.5 126t130.5 50t131.5 -50t46.5 -126q0 -77 -46 -125.5t-132 -48.5t-131 48.5t-45 125.5zM928 1710q0 76 45.5 126t128.5 50 q88 0 134 -49.5t46 -126.5t-46 -125.5t-134 -48.5q-83 0 -128.5 48.5t-45.5 125.5z" />
<glyph unicode="&#x2c6;" horiz-adv-x="944" d="M111 1133l297 301h127l296 -301l-6 -11l-354 107l-354 -107z" />
<glyph unicode="&#x2dc;" horiz-adv-x="1073" d="M156 1149q15 303 243 303q60 0 116 -16.5t92.5 -36.5t84 -36.5t92.5 -16.5q100 0 119 112l17 -10q-7 -152 -70 -227.5t-174 -75.5q-60 0 -116 16.5t-92 36.5t-84 36.5t-93 16.5q-43 0 -76 -27t-43 -85z" />
<glyph unicode="&#x2000;" horiz-adv-x="982" />
<glyph unicode="&#x2001;" horiz-adv-x="1964" />
<glyph unicode="&#x2002;" horiz-adv-x="982" />
<glyph unicode="&#x2003;" horiz-adv-x="1964" />
<glyph unicode="&#x2004;" horiz-adv-x="654" />
<glyph unicode="&#x2005;" horiz-adv-x="491" />
<glyph unicode="&#x2006;" horiz-adv-x="327" />
<glyph unicode="&#x2007;" horiz-adv-x="327" />
<glyph unicode="&#x2008;" horiz-adv-x="245" />
<glyph unicode="&#x2009;" horiz-adv-x="392" />
<glyph unicode="&#x200a;" horiz-adv-x="109" />
<glyph unicode="&#x2010;" horiz-adv-x="735" d="M49 578v22h637v-22h-637z" />
<glyph unicode="&#x2011;" horiz-adv-x="735" d="M49 578v22h637v-22h-637z" />
<glyph unicode="&#x2012;" horiz-adv-x="735" d="M49 578v22h637v-22h-637z" />
<glyph unicode="&#x2013;" horiz-adv-x="1171" d="M90 559v25h989v-25h-989z" />
<glyph unicode="&#x2014;" horiz-adv-x="1413" d="M90 559v25h1233v-25h-1233z" />
<glyph unicode="&#x2018;" horiz-adv-x="593" d="M76 1012q0 145 97 282.5t245 241.5l12 -12q-102 -102 -102 -217q0 -76 46.5 -139t133.5 -97q8 -40 8 -65q0 -95 -62.5 -153t-156.5 -58q-105 0 -163 61t-58 156z" />
<glyph unicode="&#x2019;" horiz-adv-x="593" d="M78 1325q0 95 62.5 153t156.5 58q105 0 163 -61t58 -156q0 -145 -97 -282.5t-245 -241.5l-12 12q102 102 102 217q0 76 -46.5 139t-133.5 97q-8 40 -8 65z" />
<glyph unicode="&#x201a;" horiz-adv-x="641" d="M76 182q0 95 62.5 153t156.5 58q105 0 163 -61t58 -156q0 -145 -97 -282.5t-245 -241.5l-12 12q102 102 102 217q0 76 -46.5 139t-133.5 97q-8 40 -8 65z" />
<glyph unicode="&#x201c;" horiz-adv-x="1124" d="M76 1012q0 145 97 282.5t245 241.5l12 -12q-102 -102 -102 -217q0 -76 46.5 -139t133.5 -97q8 -40 8 -65q0 -95 -62.5 -153t-156.5 -58q-105 0 -163 61t-58 156zM606 1012q0 145 97 282.5t245 241.5l13 -12q-103 -103 -103 -217q0 -76 46.5 -139t133.5 -97q9 -45 9 -65 q0 -95 -63 -153t-157 -58q-105 0 -163 61t-58 156z" />
<glyph unicode="&#x201d;" horiz-adv-x="1124" d="M78 1325q0 95 62.5 153t156.5 58q105 0 163 -61t58 -156q0 -145 -97 -282.5t-245 -241.5l-12 12q102 102 102 217q0 76 -46.5 139t-133.5 97q-8 40 -8 65zM608 1325q0 95 62.5 153t156.5 58q105 0 163.5 -61t58.5 -156q0 -145 -97 -282.5t-245 -241.5l-13 12 q103 103 103 217q0 75 -47 138.5t-134 97.5q-8 40 -8 65z" />
<glyph unicode="&#x201e;" horiz-adv-x="1171" d="M76 182q0 95 62.5 153t156.5 58q105 0 163 -61t58 -156q0 -145 -97 -282.5t-245 -241.5l-12 12q102 102 102 217q0 76 -46.5 139t-133.5 97q-8 40 -8 65zM606 182q0 95 62.5 153t156.5 58q105 0 163.5 -61t58.5 -156q0 -145 -97 -282.5t-245 -241.5l-13 12 q103 103 103 217q0 75 -47 138.5t-134 97.5q-8 40 -8 65z" />
<glyph unicode="&#x2022;" horiz-adv-x="819" d="M123 598q0 120 83.5 203.5t203.5 83.5t203 -83.5t83 -203.5q0 -119 -83 -203t-203 -84t-203.5 84t-83.5 203z" />
<glyph unicode="&#x202f;" horiz-adv-x="392" />
<glyph unicode="&#x2039;" horiz-adv-x="628" d="M57 526v41l502 471l12 -12l-221 -479l221 -479l-12 -13z" />
<glyph unicode="&#x203a;" horiz-adv-x="628" d="M57 68l222 479l-222 479l13 12l501 -471v-41l-501 -471z" />
<glyph unicode="&#x205f;" horiz-adv-x="491" />
<glyph unicode="&#x20ac;" horiz-adv-x="1529" d="M-10 610v21h71q-2 20 -2 53q0 30 2 59t5 43l2 13h-78v20h80q21 136 83.5 255t159 208t231.5 140t292 51q128 0 297 -33t305 -33v-412h-21q-19 91 -60 167.5t-93.5 129t-115 89.5t-126 54t-125.5 17q-47 0 -84 -12.5t-75.5 -52.5t-65 -107.5t-45 -184.5t-21.5 -276h412 v-20h-412q0 -117 2 -168h410v-21h-410q24 -628 303 -628q73 0 153 39t154 109t135.5 178t94.5 235h20l-63 -498q-82 0 -156.5 -13t-124.5 -29t-132 -29t-177 -13q-332 0 -531 177t-223 472h-71z" />
<glyph unicode="&#x2122;" horiz-adv-x="892" d="M39 1331l8 103q70 -2 160 -2l174 2l-8 -105l-8 2q0 90 -97 90v-264q0 -25 8.5 -33t28.5 -8v-12q-45 2 -92 2l-96 -2v12q37 0 37 58v247q-87 0 -105 -92zM381 1104v12q44 0 49 64l19 198q3 43 -37 43v13q69 -2 157 -2q0 -27 11 -60l51 -174l51 180q4 15 5 28.5t0 19.5 l-1 6l143 2v-13q-37 0 -34 -43l16 -221q1 -25 11 -33t30 -8v-12q-35 2 -86 2l-94 -2v12q20 0 29 8.5t8 32.5l-19 217l-74 -270l-59 -8l-98 288l-17 -188q-4 -46 11 -63t43 -17v-12q-33 2 -60 2z" />
<glyph unicode="&#x25fc;" horiz-adv-x="983" d="M0 0v983h983v-983h-983z" />
</font>
</defs>
</svg>
