<?xml version="1.0" standalone="no"?>
<!DOCTYPE svg PUBLIC "-//W3C//DTD SVG 1.1//EN" "http://www.w3.org/Graphics/SVG/1.1/DTD/svg11.dtd" >
<svg xmlns="http://www.w3.org/2000/svg">
<metadata></metadata>
<defs>
<font id="proximasansregularregular" horiz-adv-x="1193" >
<font-face units-per-em="2048" ascent="1638" descent="-410" />
<missing-glyph horiz-adv-x="425" />
<glyph horiz-adv-x="0" />
<glyph horiz-adv-x="682" />
<glyph horiz-adv-x="811" d="M43 1346q63 -84 156.5 -132.5t203.5 -48.5q111 0 204.5 48.5t154.5 132.5l-86 71q-47 -63 -117 -101t-156 -38t-156.5 38t-117.5 101z" />
<glyph horiz-adv-x="331" d="M33 1292q0 -55 39 -94t94 -39t94 39t39 94t-39 94t-94 39t-94 -38.5t-39 -94.5z" />
<glyph horiz-adv-x="436" d="M29 1337q0 -84 54 -142t140 -58t140.5 58t54.5 142q0 86 -54.5 144.5t-140.5 58.5t-140 -58.5t-54 -144.5zM94 1337q0 63 35 106.5t94 43.5t93 -43.5t34 -106.5q0 -61 -33.5 -104t-93.5 -43q-59 0 -94 43t-35 104z" />
<glyph unicode="&#xa;" horiz-adv-x="557" d="M0 1137h131l160 295h-131zM266 1137h131l160 295h-131z" />
<glyph horiz-adv-x="413" d="M39 29v-244q0 -90 56.5 -129t133.5 -39q33 0 64 12.5t54.5 30.5t40 38t22.5 34l-70 59q-27 -41 -48.5 -60.5t-62.5 -19.5t-64.5 20.5t-23.5 63.5v234h-102z" />
<glyph horiz-adv-x="436" d="M0 1432l164 -297h110l164 297h-133l-88 -187l-84 187h-133z" />
<glyph unicode="&#xd;" horiz-adv-x="1024" />
<glyph horiz-adv-x="114" d="M-436 0h119l874 1366h-119z" />
<glyph horiz-adv-x="921" d="M-12 854h164v-854h163v854h201v135h-201v107q0 86 51.5 127t122.5 41q137 0 209 -111l103 100q-59 80 -138 113t-174 33q-68 0 -129 -20.5t-107 -60.5t-73.5 -96.5t-27.5 -125.5v-107h-164v-135zM618 0h164v989h-164v-989z" />
<glyph horiz-adv-x="921" d="M-12 854h164v-854h163v854h201v135h-201v107q0 168 152 168q41 0 89 -20.5t62 -43.5v-1200h164v1366h-164v-55q-4 14 -21 29.5t-41 28.5t-51.5 21.5t-51.5 8.5q-133 0 -217 -81t-84 -222v-107h-164v-135z" />
<glyph horiz-adv-x="1001" d="M0 649h141v-649h815v158h-637v491h187v103h-187v614h-178v-614h-141v-103z" />
<glyph horiz-adv-x="440" d="M-35 649h174l-2 -649h166l-2 649h172v103h-172l2 614h-166l2 -614h-174v-103z" />
<glyph horiz-adv-x="1265" d="M96 0h1082v158h-869l854 1052v156h-1067v-158h840l-840 -1036v-172zM432 1790l164 -297h110l164 297h-133l-88 -187l-84 187h-133z" />
<glyph horiz-adv-x="960" d="M92 0h785v137h-619l610 719v133h-776v-135h600l-600 -707v-147zM272 1432l164 -297h110l164 297h-133l-88 -187l-84 187h-133z" />
<glyph unicode=" "  horiz-adv-x="425" />
<glyph unicode="&#x09;" horiz-adv-x="425" />
<glyph unicode="&#xa0;" horiz-adv-x="425" />
<glyph unicode="!" horiz-adv-x="450" d="M92 117q0 -55 39 -94t94 -39t94 39t39 94q0 53 -38.5 93t-94.5 40q-55 0 -94 -40t-39 -93zM119 1366l41 -991h131l41 991h-213z" />
<glyph unicode="&#x22;" horiz-adv-x="808" d="M92 1255q0 -10 4 -30l76 -330l107 2l75 328q4 20 4 30q0 55 -38.5 94.5t-94.5 39.5q-55 0 -94 -39t-39 -95zM451 1255q0 -10 4 -30l75 -330l107 2l76 328q4 20 4 30q0 55 -39 94.5t-94 39.5t-94 -39t-39 -95z" />
<glyph unicode="#" d="M55 381h217l-129 -381h113l129 381h225l-129 -381h113l129 381h229l37 111h-231l11 32q11 31 28.5 84.5t41 123t48.5 142.5h225l35 113h-221q25 74 47 142.5t39.5 121t27.5 83.5l11 32h-113l-10 -32q-10 -31 -27.5 -83.5t-40 -121t-47.5 -142.5h-225l125 379h-113 l-125 -379h-225l-35 -113h221l-127 -382h-221zM422 492l127 382h225q-25 -74 -48.5 -143t-40.5 -122.5t-29 -84.5l-11 -32h-223z" />
<glyph unicode="$" d="M61 188q37 -39 84.5 -76.5t104.5 -70.5t125.5 -54.5t150.5 -25.5v-166h113v168q82 6 166 31.5t151.5 76t110.5 126.5t43 182q0 90 -33 158.5t-93 119t-147 83t-198 51.5v454q94 -14 177 -59t130 -107l123 123q-63 70 -169.5 130.5t-260.5 72.5v168h-113v-168 q-86 -6 -164.5 -38t-139 -83t-95.5 -120.5t-35 -153.5q0 -68 22.5 -129.5t73 -110.5t133 -86t205.5 -55v-510q-63 8 -116.5 31.5t-95.5 54.5t-72.5 62.5t-46.5 54.5zM283 1014q0 53 21.5 94t55 70.5t77.5 46t89 22.5v-434v2q-131 31 -187 77t-56 122zM639 117v485 q135 -35 209 -92t74 -139q0 -59 -22.5 -103.5t-61.5 -75t-90.5 -50t-108.5 -25.5z" />
<glyph unicode="%" horiz-adv-x="1509" d="M68 1061q0 -72 24.5 -133.5t69.5 -108.5t105.5 -73.5t131.5 -26.5q72 0 132.5 26.5t105.5 73.5t69.5 108.5t24.5 133.5t-24.5 135.5t-69.5 110.5t-105.5 73.5t-132.5 26.5t-132 -26.5t-105 -73.5t-69.5 -110.5t-24.5 -135.5zM180 1061q0 106 58.5 180t160.5 74t160.5 -74 t58.5 -180q0 -53 -15 -98t-44 -80t-68.5 -54.5t-91.5 -19.5q-51 0 -91 19.5t-68.5 54.5t-44 80t-15.5 98zM260 0h119l874 1366h-118zM778 301q0 -72 24.5 -133.5t68.5 -108.5t105.5 -73.5t133.5 -26.5t132.5 26.5t104.5 73.5t68.5 109.5t24.5 134.5v-2q0 72 -24.5 135.5 t-68.5 110.5t-104.5 73.5t-132.5 26.5t-133.5 -26.5t-105.5 -73.5t-68.5 -110.5t-24.5 -135.5zM891 303q0 106 58.5 180t160.5 74q49 0 90 -19.5t68.5 -54t43 -82t15.5 -100.5t-15.5 -98t-43 -80t-68.5 -54.5t-90 -19.5q-102 0 -160.5 74t-58.5 180z" />
<glyph unicode="&#x26;" horiz-adv-x="1323" d="M92 354q0 -100 38 -174t99.5 -123t139 -73.5t157.5 -24.5q133 0 234.5 47t181.5 125q35 -37 64.5 -69.5t54.5 -61.5h233q-53 59 -115.5 128t-127.5 140q49 76 87 161t68 175l-155 53q-20 -61 -48 -129.5t-65 -134.5q-84 92 -152.5 170t-103.5 119q-10 14 -21.5 26.5 t-21.5 26.5q68 35 126 77t101 90t67.5 100.5t24.5 109.5q0 129 -80.5 212t-228.5 83q-92 0 -159.5 -28.5t-112.5 -77t-67.5 -108.5t-22.5 -124q0 -72 30.5 -143.5t83.5 -149.5q-172 -90 -240.5 -198.5t-68.5 -223.5zM283 373q0 92 44 156.5t158 129.5q16 -18 29.5 -36.5 t28.5 -34.5q66 -84 140.5 -169t150.5 -169q-57 -59 -132 -96t-176 -37q-43 0 -86 16.5t-77.5 48t-57 79.5t-22.5 112zM471 1071q0 86 48 139.5t126 53.5q61 0 104.5 -47t43.5 -115q0 -76 -69 -133.5t-173 -114.5q-35 55 -57.5 109.5t-22.5 107.5z" />
<glyph unicode="'" horiz-adv-x="450" d="M92 1255q0 -10 4 -30l76 -330l107 2l75 328q4 20 4 30q0 55 -38.5 94.5t-94.5 39.5q-55 0 -94 -39t-39 -95z" />
<glyph unicode="(" horiz-adv-x="468" d="M92 682q0 -252 73 -480.5t204 -422.5l100 37q-96 199 -147.5 416t-51.5 450q0 236 51.5 453t147.5 415l-100 37q-131 -197 -204 -424t-73 -481z" />
<glyph unicode=")" horiz-adv-x="468" d="M0 -184l100 -37q131 195 204 423t73 480q0 254 -73 481.5t-204 423.5l-100 -37q98 -199 148.5 -415.5t50.5 -452.5q0 -233 -51.5 -451.5t-147.5 -414.5z" />
<glyph unicode="*" horiz-adv-x="684" d="M61 1014l56 -99l180 117l-10 -213h112l-10 213l180 -117l58 99l-193 98l193 100l-58 95l-180 -115l10 215h-112l10 -215l-180 115l-56 -95l191 -100z" />
<glyph unicode="+" horiz-adv-x="1046" d="M59 444l402 2v-446h125v446l401 -2v2v113l-401 -2v432h-125v-432l-402 2v-115z" />
<glyph unicode="," horiz-adv-x="450" d="M92 117q0 -47 25.5 -82t66.5 -45q12 -4 27.5 -3t19.5 3q-6 -41 -40.5 -87t-75.5 -96l84 -69q68 88 113.5 174t45.5 190q0 66 -38.5 107t-94.5 41q-55 0 -94 -39t-39 -94z" />
<glyph unicode="-" horiz-adv-x="614" d="M61 414h492v164h-492v-164z" />
<glyph unicode="." horiz-adv-x="450" d="M92 117q0 -55 39 -94t94 -39t94 39t39 94q0 53 -38.5 93t-94.5 40q-55 0 -94 -40t-39 -93z" />
<glyph unicode="/" horiz-adv-x="598" d="M0 -41h113l485 1448h-113z" />
<glyph unicode="0" d="M57 682q0 -117 29 -245t93.5 -234.5t168 -175t252.5 -68.5q150 0 253 68.5t167.5 175t93.5 234.5t29 245q0 119 -29 247t-93.5 234.5t-167.5 175t-253 68.5t-253 -68.5t-167.5 -175t-93.5 -234.5t-29 -247zM242 682q0 92 17 191.5t58 183.5t110 138t173 54q102 0 171 -54 t111 -138t59 -183.5t17 -191.5q0 -90 -17 -190.5t-59 -183.5t-111 -137t-171 -54q-104 0 -173 54t-110 137t-58 183.5t-17 190.5z" />
<glyph unicode="1" d="M313 1044l125 -124l170 196v-1116h185v1366h-158z" />
<glyph unicode="2" d="M127 0h969v158h-717l38 36q38 35 100.5 93.5t142 129t163.5 142.5q39 33 86 80t87 105.5t67 125t27 140.5q0 106 -39 182t-104.5 124t-151.5 69.5t-181 21.5q-72 0 -142.5 -15.5t-135 -43t-116.5 -66.5t-83 -86l119 -117q23 35 61.5 66t86 54.5t101.5 36.5t109 13 t108.5 -14t94.5 -46t66.5 -81t25.5 -119q0 -37 -17.5 -79t-45 -84t-62 -79.5t-67.5 -66.5q-68 -59 -149 -133t-156.5 -143.5t-142 -132t-103.5 -97.5t-39 -37v-137z" />
<glyph unicode="3" d="M106 188q66 -98 197 -163.5t301 -65.5q113 0 204 29.5t155.5 82t100.5 125t36 160.5q0 68 -21.5 128.5t-62.5 106.5t-101.5 75.5t-138.5 38.5q72 8 128.5 38.5t95 76.5t59 100.5t20.5 109.5q0 98 -41 169t-107.5 117t-151.5 68.5t-175 22.5q-72 0 -143.5 -15.5t-136 -43 t-115.5 -66.5t-82 -86l125 -125q23 35 59.5 67.5t83.5 57.5t100.5 39t108.5 14q51 0 103.5 -14t95.5 -44t69.5 -74t26.5 -103q0 -82 -39 -130t-102.5 -73t-145.5 -30t-166 1v-153q35 2 83.5 4t100.5 -4t104 -20.5t93 -43t67 -76t26 -116.5q0 -53 -21.5 -99.5t-62.5 -81 t-99.5 -55t-132.5 -20.5q-137 0 -225 57t-143 143z" />
<glyph unicode="4" d="M92 324h656v-324h178v324h196v157h-196v885h-256l-578 -889v-153zM287 481l461 721v-721h-461z" />
<glyph unicode="5" d="M96 188q66 -98 197 -163.5t301 -65.5q113 0 204 38t155.5 100.5t100.5 144.5t36 170q0 109 -36 194.5t-97.5 145t-143.5 91t-174 31.5q-66 0 -119 -13t-93 -32.5t-66.5 -44t-38.5 -47.5v471h673v158h-854v-715l150 -67q47 70 121.5 102.5t167.5 32.5q63 0 123.5 -16.5 t105.5 -52.5t72.5 -94t27.5 -142q0 -55 -19.5 -109.5t-58 -95.5t-98 -66.5t-139.5 -25.5q-59 0 -115.5 17.5t-103.5 45t-86 63.5t-64 74z" />
<glyph unicode="6" d="M90 682q0 -131 26.5 -260t89 -232.5t165 -167t256.5 -63.5q113 0 204 38t155.5 100.5t100 144.5t35.5 170q0 109 -35.5 194.5t-97 145t-143.5 91t-176 31.5q-80 0 -144.5 -17t-114 -47t-84 -67.5t-59.5 -78.5q0 104 19.5 209.5t66.5 188.5t123 135t191 52 q82 0 150.5 -37.5t115.5 -95.5l119 119q-66 78 -164 125t-221 47q-150 0 -258.5 -64.5t-179 -167t-105.5 -232.5t-35 -261zM279 487q12 39 40.5 80t71.5 75t99.5 55.5t121.5 21.5q61 0 121 -16.5t107 -52.5t75.5 -94t28.5 -142q0 -55 -20.5 -109.5t-61.5 -95.5t-100.5 -66.5 t-134.5 -25.5q-94 0 -157.5 36.5t-102.5 92t-59.5 121t-28.5 120.5z" />
<glyph unicode="7" d="M106 1182h785l-608 -1182h215l577 1202v164h-969v-184z" />
<glyph unicode="8" d="M96 356q0 -94 42 -167.5t110.5 -125t158 -78t185.5 -26.5q94 0 183 26.5t159 78t111.5 125t41.5 167.5q0 47 -24.5 101.5t-67.5 103.5t-100 88t-123 56q61 14 114.5 48.5t93.5 81t63.5 97.5t23.5 98q0 98 -40 169t-106.5 117t-152.5 68.5t-176 22.5t-176 -22.5 t-152.5 -68.5t-106.5 -117t-40 -169q0 -47 22.5 -98t62.5 -97.5t94 -81t116 -48.5q-66 -16 -123.5 -55.5t-100.5 -88.5t-67.5 -103.5t-24.5 -101.5zM274 373q0 57 42 104t96.5 80t106.5 51.5t73 22.5q20 -4 72.5 -22.5t105.5 -51.5t95 -80t42 -104q0 -63 -25.5 -111.5 t-68.5 -80t-100.5 -48t-120.5 -16.5t-120.5 16.5t-101.5 48t-70 79.5t-26 112zM297 1014q0 63 23.5 107t64.5 73t94 42t113 13q59 0 112.5 -13t94.5 -42t64.5 -73t23.5 -107q0 -59 -40 -101.5t-91 -70t-99.5 -42t-64.5 -18.5q-16 4 -64.5 18.5t-99.5 42t-91 69.5t-40 102z " />
<glyph unicode="9" d="M70 954q0 -109 35.5 -194.5t97 -145t143.5 -91t176 -31.5q82 0 145.5 17t112.5 47t85 68t61 78q0 -104 -20.5 -208.5t-66.5 -188.5t-123 -136t-190 -52q-84 0 -151.5 36.5t-114.5 96.5l-121 -119q66 -78 165 -125t222 -47q147 0 256 63.5t179.5 167t105.5 232.5t35 260 t-26.5 261t-88 232.5t-164 167t-256.5 64.5q-113 0 -204 -38t-156.5 -101.5t-101 -144.5t-35.5 -169zM250 954q0 55 20.5 108.5t61.5 94.5t99 66.5t136 25.5q94 0 156.5 -36.5t102.5 -92t59.5 -120t29.5 -119.5q-12 -39 -40.5 -80t-72.5 -75t-100.5 -55.5t-121.5 -21.5 q-61 0 -120 15.5t-106 51.5t-75.5 94t-28.5 144z" />
<glyph unicode=":" horiz-adv-x="450" d="M92 117q0 -55 39 -94t94 -39t94 39t39 94q0 53 -38.5 93t-94.5 40q-55 0 -94 -40t-39 -93zM92 872q0 -55 39 -94t94 -39t94 39t39 94t-38.5 94.5t-94.5 39.5q-55 0 -94 -39t-39 -95z" />
<glyph unicode=";" horiz-adv-x="450" d="M92 117q0 -47 25.5 -82t66.5 -45q12 -4 27.5 -3t19.5 3q-6 -41 -40.5 -87t-75.5 -96l86 -69q66 88 111.5 174t45.5 190q0 66 -38.5 107t-94.5 41q-55 0 -94 -39t-39 -94zM92 872q0 -55 39 -94t94 -39t94 39t39 94t-38.5 94.5t-94.5 39.5q-55 0 -94 -39t-39 -95z" />
<glyph unicode="&#x3c;" horiz-adv-x="1046" d="M59 438l928 -465v131l-819 390l819 393v131l-928 -467v-113z" />
<glyph unicode="=" horiz-adv-x="1046" d="M59 207h928v112h-928v-112zM59 684h928v113h-928v-113z" />
<glyph unicode="&#x3e;" horiz-adv-x="1046" d="M59 -27l928 465v113l-928 467v-133l818 -391l-818 -390v-131z" />
<glyph unicode="?" horiz-adv-x="987" d="M45 1202l123 -123q29 39 59.5 71t69.5 53.5t87 33.5t114 12q47 0 92 -11t80 -33.5t56.5 -57.5t21.5 -82q0 -41 -9.5 -72.5t-37 -61.5t-75.5 -63.5t-128 -79.5q-51 -31 -86 -85t-44.5 -116.5t13 -126t86.5 -112.5l123 123q-37 31 -42 65.5t9 66.5t43 59.5t59 44.5 q72 37 124.5 71.5t87 75.5t51 91t16.5 116q0 78 -34 142.5t-93 109.5t-139 69.5t-174 24.5q-90 0 -160 -17.5t-123 -46t-94 -65.5t-76 -76zM344 117q0 -55 39 -94t94 -39q53 0 92 39t39 94q0 53 -39 93t-94 40q-53 0 -92 -40t-39 -93z" />
<glyph unicode="@" horiz-adv-x="1601" d="M76 684q-18 -152 24.5 -284t129.5 -230t213 -154.5t278 -56.5q115 0 222.5 34t203.5 95l-49 70q-84 -53 -176.5 -82t-190.5 -29q-133 0 -242.5 50t-186.5 136t-113.5 202t-20.5 249q14 131 77.5 247t160 202t217 136t254.5 50q131 0 240.5 -50t186 -136t112.5 -202 t22 -247q-12 -117 -45 -183.5t-69 -98t-65.5 -40t-37.5 -8.5q-35 0 -59.5 30t-12.5 91l129 617h-143l-17 -80q-14 68 -83.5 108.5t-168.5 40.5q-84 0 -164.5 -32.5t-148.5 -93t-118 -145.5t-73 -190q-23 -104 -8 -188t57 -144.5t109.5 -93t151.5 -32.5q100 0 186 42t129 109 q4 -76 57.5 -111.5t124.5 -35.5q70 0 132.5 33.5t110.5 93t79 139.5t37 172q10 150 -33 282t-128 230t-209 154.5t-273 56.5q-150 0 -289 -56.5t-248.5 -154.5t-182.5 -230t-89 -282zM507 571.5q-7 61.5 7 130.5q14 70 48 131.5t81 107.5t106.5 72.5t127.5 26.5 q90 0 145 -39.5t74 -95.5v2l-88 -409q-41 -55 -113 -94t-164 -39q-68 0 -115 26.5t-74.5 72.5t-34.5 107.5z" />
<glyph unicode="A" horiz-adv-x="1343" d="M4 0h211l133 342h639l135 -342h213l-581 1366h-170zM414 498l256 649l254 -649h-510z" />
<glyph unicode="B" horiz-adv-x="1263" d="M141 0h623q84 0 157.5 26.5t128 77t86 124t31.5 165.5q0 133 -62.5 208t-166.5 104q92 33 147.5 101t55.5 187q0 88 -32 157t-87 117t-129 73.5t-158 25.5h-594v-1366zM319 158v465h451q88 0 150.5 -60.5t62.5 -169.5q0 -111 -62.5 -173t-150.5 -62h-451zM319 780v428 h424q88 0 150.5 -58.5t62.5 -156.5t-62.5 -155.5t-152.5 -57.5h-422z" />
<glyph unicode="C" horiz-adv-x="1386" d="M96 682q0 -158 56.5 -290t155 -228t229.5 -150.5t282 -54.5q166 0 297 65.5t227 176.5l-131 123q-70 -92 -170 -149.5t-223 -57.5q-115 0 -213 41t-169.5 115.5t-113.5 179t-42 229.5t42 229.5t113.5 180t170 116.5t212.5 41q123 0 222.5 -56t166.5 -149l131 125 q-96 111 -225 174.5t-295 63.5q-152 0 -282.5 -54.5t-229 -150.5t-155 -229t-56.5 -291z" />
<glyph unicode="D" horiz-adv-x="1423" d="M141 0h494q150 0 276.5 53t219 145.5t144.5 217.5t52 266t-52 266t-144.5 217t-219.5 146.5t-276 54.5h-494v-1366zM319 158v1050h316q111 0 204 -41t160.5 -112.5t105.5 -166.5t38 -206q0 -109 -38 -205t-105.5 -166.5t-161 -111.5t-203.5 -41h-316z" />
<glyph unicode="E" horiz-adv-x="1155" d="M141 0h924v160h-746v463h732v157h-732v428h746v158h-924v-1366z" />
<glyph unicode="F" horiz-adv-x="1110" d="M141 0h178v623h732v157h-732v428h746v158h-924v-1366z" />
<glyph unicode="G" horiz-adv-x="1460" d="M96 682q0 -158 56.5 -290t153.5 -228t228.5 -150.5t280.5 -54.5q162 0 308.5 58t240.5 169v514h-588v-157h410v-293q-72 -63 -170 -98t-201 -35q-113 0 -210 41t-170 115.5t-113.5 179t-40.5 229.5t40.5 229.5t113.5 180t170 116.5t210 41q61 0 120.5 -15t115 -42 t101.5 -64.5t81 -83.5l131 125q-94 111 -234.5 174.5t-314.5 63.5q-150 0 -281 -54.5t-228 -150.5t-153.5 -229t-56.5 -291z" />
<glyph unicode="H" horiz-adv-x="1441" d="M141 0h178v625h803v-625h178v1366h-178v-586h-803v586h-178v-1366z" />
<glyph unicode="I" horiz-adv-x="460" d="M141 0h178v1366h-178v-1366z" />
<glyph unicode="J" horiz-adv-x="964" d="M4 127q63 -78 156.5 -123t204.5 -45q100 0 184 34t145.5 93t96 140t34.5 177v963h-176v-963q0 -61 -21.5 -113t-59.5 -91t-90 -60.5t-113 -21.5q-76 0 -142.5 36.5t-103.5 98.5z" />
<glyph unicode="K" horiz-adv-x="1210" d="M141 0h178v446l134 144l503 -590h248l-639 715l584 651h-246l-584 -680v680h-178v-1366z" />
<glyph unicode="L" horiz-adv-x="1001" d="M141 0h815v158h-637v1208h-178v-1366z" />
<glyph unicode="M" horiz-adv-x="1624" d="M141 0h178v1130l465 -1130h50l466 1130v-1130h179v1366h-271l-399 -991l-397 991h-271v-1366z" />
<glyph unicode="N" horiz-adv-x="1441" d="M141 0h178v1081l814 -1081h159v1366h-178v-1042l-784 1042h-189v-1366z" />
<glyph unicode="O" horiz-adv-x="1576" d="M96 682q0 -150 51.5 -282t143.5 -230t219 -154.5t278 -56.5q150 0 277 56.5t219 154.5t144.5 230t52.5 282t-52.5 282t-144.5 230t-219 155.5t-277 57.5q-152 0 -278.5 -57.5t-218.5 -155.5t-143.5 -230.5t-51.5 -281.5zM281 682q0 119 36.5 223.5t103 180t160 119.5 t207.5 44q113 0 206 -44t161 -119.5t104.5 -180t36.5 -223.5t-36.5 -222.5t-104.5 -179t-161 -119.5t-206 -44q-115 0 -208 44t-159.5 119.5t-103 179t-36.5 222.5z" />
<glyph unicode="P" horiz-adv-x="1175" d="M141 0h178v545h379q86 0 163 29.5t136.5 84t94 129t34.5 166.5t-35.5 169t-95 130.5t-136.5 83t-161 29.5h-557v-1366zM319 700v508h379q43 0 87 -19.5t79 -53t56.5 -81t21.5 -100.5q0 -55 -21.5 -101t-56.5 -80t-79 -52.5t-87 -18.5z" />
<glyph unicode="Q" horiz-adv-x="1576" d="M96 682q0 -150 51.5 -282t143.5 -230t219 -154.5t278 -56.5q113 0 215.5 34t184.5 95l153 -151l109 110l-147 146q86 98 132 223t46 266q0 150 -52.5 282t-144.5 230t-219 155.5t-277 57.5q-152 0 -278.5 -57.5t-218.5 -155.5t-143.5 -230.5t-51.5 -281.5zM281 682 q0 119 36.5 223.5t103 180t160 119.5t207.5 44q113 0 206 -44t161 -119.5t104.5 -180t36.5 -223.5q0 -102 -28.5 -198.5t-85.5 -172.5l-181 176l-106 -110l174 -174q-57 -43 -130 -64.5t-151 -21.5q-115 0 -208 44t-159.5 119.5t-103 179t-36.5 222.5z" />
<glyph unicode="R" horiz-adv-x="1220" d="M141 0h178v545h254l355 -545h219l-371 545q37 6 96.5 28.5t115.5 68.5t98 122t42 190q0 92 -35.5 169t-95 130.5t-137.5 83t-162 29.5h-557v-1366zM319 700v508h383q45 0 88.5 -19.5t77 -53t55 -81t21.5 -100.5q0 -55 -21.5 -101t-55 -80t-78 -52.5t-89.5 -18.5z" />
<glyph unicode="S" horiz-adv-x="1208" d="M66 188q39 -41 90 -81.5t113.5 -73.5t139 -53.5t169.5 -20.5q86 0 181 21.5t173 70.5t129 130t51 198q0 182 -125 278.5t-348 135.5q-190 33 -271 82t-81 139q0 59 26.5 103t68.5 74t94 44t102 14q55 0 110 -13t104.5 -36.5t89.5 -54.5t66 -66l123 123q-35 39 -82 76 t-108.5 65.5t-137 46t-165.5 17.5q-94 0 -181.5 -28.5t-154 -81t-106.5 -126t-40 -161.5q0 -68 21.5 -129.5t72 -110.5t133.5 -85t205 -56q193 -31 295.5 -94.5t102.5 -161.5q0 -66 -29 -114t-78 -80t-111.5 -47t-129.5 -15q-74 0 -135.5 22.5t-109.5 54t-82 67.5t-52 61z " />
<glyph unicode="T" horiz-adv-x="1077" d="M47 1208h406v-1208h176v1208h407v158h-989v-158z" />
<glyph unicode="U" horiz-adv-x="1409" d="M141 492q0 -104 38 -200.5t109.5 -170.5t177 -118t239.5 -44q133 0 237.5 44t177 118t110.5 170.5t38 200.5v874h-185v-874q0 -72 -25.5 -138.5t-74.5 -120t-119.5 -85t-158.5 -31.5t-159 31.5t-120 85t-74.5 120t-25.5 138.5v874h-185v-874z" />
<glyph unicode="V" horiz-adv-x="1337" d="M4 1366l580 -1366h170l581 1366h-213l-452 -1157l-455 1157h-211z" />
<glyph unicode="W" horiz-adv-x="1773" d="M4 1366l389 -1366h193l299 1051l295 -1051h192l391 1366h-196l-293 -1112l-297 1112h-189l-299 -1112l-290 1112h-195z" />
<glyph unicode="X" horiz-adv-x="1343" d="M4 0h246l420 567l420 -567h245l-555 702l525 664h-246l-389 -524l-389 524h-246l522 -666z" />
<glyph unicode="Y" horiz-adv-x="1290" d="M4 1366l549 -782v-584h178v584l549 782h-231l-408 -614l-405 614h-232z" />
<glyph unicode="Z" horiz-adv-x="1265" d="M96 0h1082v158h-869l854 1052v156h-1067v-158h840l-840 -1036v-172z" />
<glyph unicode="[" horiz-adv-x="468" d="M76 1573l2 -1778h358l-2 111h-246l2 1554h246l-2 113h-358z" />
<glyph unicode="\" horiz-adv-x="598" d="M0 1407l485 -1448h113l-485 1448h-113z" />
<glyph unicode="]" horiz-adv-x="468" d="M35 -94v-111h358v1778h-358v-113h246v-1554h-246z" />
<glyph unicode="^" horiz-adv-x="878" d="M39 682h133l266 573l269 -573h133l-344 684h-113z" />
<glyph unicode="_" d="M-6 -82v-113h1208v113h-1208z" />
<glyph unicode="`" horiz-adv-x="436" d="M0 1434l279 -297h159l-288 297h-150z" />
<glyph unicode="a" horiz-adv-x="1081" d="M92 317q0 -90 38 -155.5t96.5 -107.5t131 -61.5t140.5 -19.5q84 0 162.5 35t119.5 109v-117h164v686q0 70 -26.5 131.5t-78 106.5t-124 70.5t-164.5 25.5q-47 0 -97.5 -5t-102.5 -23.5t-106.5 -51.5t-109.5 -88l107 -109q72 78 150.5 110t158.5 32q45 0 87 -15.5 t73.5 -42t50 -62.5t18.5 -79v-166q-41 72 -119.5 107t-162.5 35q-68 0 -140.5 -17.5t-131 -57.5t-96.5 -105.5t-38 -164.5zM262 317q0 61 27.5 101.5t67.5 64t86 33.5t83 10q74 0 146.5 -31.5t107.5 -95.5v-161q-35 -63 -107.5 -96t-146.5 -33q-37 0 -83 10t-86 33.5 t-67.5 63.5t-27.5 101z" />
<glyph unicode="b" horiz-adv-x="1177" d="M137 1366l2 -1366h164l-2 143q33 -78 122 -124t202 -46q94 0 178 37t147.5 105.5t99 165t35.5 215.5t-35.5 215t-99 164.5t-147.5 105.5t-178 37q-113 0 -202 -46t-122 -124l2 518h-166zM301 264l2 463q35 63 106.5 108.5t174.5 45.5q76 0 137 -31t104 -83t66.5 -121.5 t23.5 -149.5t-23.5 -151t-66.5 -123t-104.5 -82.5t-136.5 -30.5q-102 0 -175 46t-108 109z" />
<glyph unicode="c" horiz-adv-x="1028" d="M92 496q0 -109 38 -204t104.5 -166t158.5 -112t201 -41q45 0 92 6.5t94 23.5t97.5 51t105.5 89l-109 109q-70 -78 -135 -110.5t-145 -32.5q-76 0 -137.5 30.5t-104.5 82.5t-66.5 123t-23.5 151t23.5 149.5t66.5 121.5t104.5 83t137.5 31q80 0 145.5 -31t134.5 -109 l109 107q-55 55 -105.5 89t-97.5 52.5t-94 23.5t-92 5q-109 0 -201 -41t-158.5 -112.5t-104.5 -167t-38 -201.5z" />
<glyph unicode="d" horiz-adv-x="1177" d="M92 496q0 -119 36 -215.5t99.5 -165t146.5 -105.5t179 -37q113 0 202 46.5t119 123.5v-143h164v1366h-164v-518q-31 78 -119.5 124t-201.5 46q-96 0 -179 -37t-146.5 -105.5t-99.5 -165t-36 -214.5zM262 496q0 80 22.5 149.5t65.5 121.5t104.5 83t139.5 31q102 0 174 -45 t106 -109v-463q-35 -63 -106.5 -109t-173.5 -46q-78 0 -139.5 30.5t-104.5 82.5t-65.5 123t-22.5 151z" />
<glyph unicode="e" horiz-adv-x="1187" d="M92 496q0 -109 40 -204t109.5 -166t164 -112t202.5 -41q45 0 98.5 6.5t108.5 23.5t111.5 51t111.5 89l-108 109q-72 -78 -157 -103.5t-165 -25.5q-135 0 -226 84t-112 225h826v64q0 109 -37 204t-103.5 165.5t-158.5 111.5t-203 41q-109 0 -201 -41t-158.5 -112.5 t-104.5 -167t-38 -201.5zM266 567q8 66 35 123.5t69 99t99 66.5t125 25q72 0 130 -26t100 -70t68 -100t32 -118v2z" />
<glyph unicode="f" horiz-adv-x="466" d="M-12 854h164v-854h163v854h203v135h-203v107q0 86 38 127t110 41q53 0 89 -16.5t58 -43.5l78 123q-47 41 -100 56.5t-125 15.5q-135 0 -223 -81t-88 -222v-107h-164v-135z" />
<glyph unicode="g" horiz-adv-x="1177" d="M92 496q0 -119 36 -215.5t99.5 -165t146.5 -105.5t179 -37q113 0 202 46.5t119 123.5v-139q0 -86 -26.5 -142.5t-69.5 -89t-99 -46t-114 -13.5q-82 0 -159.5 32t-149.5 110l-109 -107q55 -55 109.5 -89t108 -52.5t103.5 -24.5t97 -6q92 0 177 23.5t152 75t105.5 133 t38.5 196.5v985h-164v-141q-31 78 -119.5 124t-201.5 46q-96 0 -179 -37t-146.5 -105.5t-99.5 -165t-36 -214.5zM262 496q0 80 22.5 149.5t65.5 121.5t104.5 83t139.5 31q102 0 174 -45t106 -109v-463q-35 -63 -106.5 -109t-173.5 -46q-78 0 -139.5 30.5t-104.5 82.5 t-65.5 123t-22.5 151z" />
<glyph unicode="h" horiz-adv-x="1110" d="M137 1366l2 -1366h164l-2 733q59 72 123.5 110t161.5 38q45 0 85 -14.5t70.5 -44t48 -73.5t17.5 -104v-645h164v645q0 180 -93.5 276.5t-244.5 96.5q-66 0 -117 -13.5t-91 -35t-70.5 -49t-53.5 -54.5l2 500h-166z" />
<glyph unicode="i" horiz-adv-x="440" d="M111 1270q0 -45 31.5 -77t78.5 -32t78 32t31 77t-32 76.5t-79 31.5q-45 0 -76.5 -31.5t-31.5 -76.5zM137 989l2 -989h164h-2l2 989h-166z" />
<glyph unicode="j" horiz-adv-x="440" d="M-233 -348q49 -43 101 -59.5t124 -16.5q137 0 223 82t86 223l2 1108h-166l2 -1108q0 -86 -38 -127t-109 -41q-51 0 -87 16.5t-63 43.5zM111 1270q0 -45 31.5 -77t78.5 -32t78 32t31 77t-32 76.5t-79 31.5q-45 0 -76.5 -31.5t-31.5 -76.5z" />
<glyph unicode="k" horiz-adv-x="1038" d="M137 1366l2 -1366h164l-2 297l152 141l348 -438h235l-475 543l475 446h-245l-490 -493l2 870h-166z" />
<glyph unicode="l" horiz-adv-x="440" d="M137 1366l2 -1366h164l-2 1366h-164z" />
<glyph unicode="m" horiz-adv-x="1622" d="M137 0h164v733q20 25 46 50.5t55.5 47t63.5 36t75 14.5q92 0 140 -57.5t48 -178.5v-645h164v733q20 25 45 50.5t54.5 47t64.5 36t73 14.5q188 0 189 -236v-645h164v645q0 180 -76 276.5t-227 96.5q-61 0 -109.5 -17.5t-87.5 -44t-67.5 -60.5t-51.5 -65q-63 186 -276 187 q-59 0 -105.5 -16.5t-81 -39t-59.5 -49t-41 -47.5v123h-164v-989z" />
<glyph unicode="n" horiz-adv-x="1110" d="M137 0h164v733q59 72 123.5 110t161.5 38q45 0 85 -14.5t70.5 -44t48 -73.5t17.5 -104v-645h164v645q0 180 -93.5 276.5t-244.5 96.5q-66 0 -117 -13.5t-91 -35t-70.5 -49t-53.5 -54.5v123h-164v-989z" />
<glyph unicode="o" horiz-adv-x="1187" d="M92 496q0 -109 38 -204t104.5 -166t158.5 -112t201 -41q111 0 203 41t158.5 112t103.5 166t37 204q0 106 -37 201.5t-103.5 167t-158.5 112.5t-203 41q-109 0 -201 -41t-158.5 -112.5t-104.5 -167t-38 -201.5zM262 496q0 80 23.5 149.5t66.5 121.5t104.5 83t137.5 31 t137.5 -31t104.5 -83t66.5 -121.5t23.5 -149.5t-23.5 -151t-66.5 -123t-104.5 -82.5t-137.5 -30.5t-137.5 30.5t-104.5 82.5t-66.5 123t-23.5 151z" />
<glyph unicode="p" horiz-adv-x="1177" d="M137 989l2 -1384h164l-2 538q33 -78 122 -124t202 -46q94 0 178 37t147.5 105.5t99 165t35.5 215.5t-35.5 215t-99 164.5t-147.5 105.5t-178 37q-113 0 -202 -46t-122 -124l2 141h-166zM301 264l2 463q35 63 106.5 108.5t174.5 45.5q76 0 137 -31t104 -83t66.5 -121.5 t23.5 -149.5t-23.5 -151t-66.5 -123t-104.5 -82.5t-136.5 -30.5q-102 0 -175 46t-108 109z" />
<glyph unicode="q" horiz-adv-x="1177" d="M92 496q0 -119 36 -215.5t99.5 -165t146.5 -105.5t179 -37q113 0 202 46.5t119 123.5v-538h164v1384h-164v-141q-31 78 -119.5 124t-201.5 46q-96 0 -179 -37t-146.5 -105.5t-99.5 -165t-36 -214.5zM262 496q0 80 22.5 149.5t65.5 121.5t104.5 83t139.5 31q102 0 174 -45 t106 -109v-463q-35 -63 -106.5 -109t-173.5 -46q-78 0 -139.5 30.5t-104.5 82.5t-65.5 123t-22.5 151z" />
<glyph unicode="r" horiz-adv-x="681" d="M137 989l2 -989h164l-2 733q31 37 72 60.5t86 36t91 14.5h23q34 0 64 -4v178q-66 0 -118 -13.5t-93 -35t-71.5 -49t-53.5 -54.5l2 123h-166z" />
<glyph unicode="s" horiz-adv-x="970" d="M70 137q31 -31 67.5 -60.5t84.5 -53t109.5 -37t139.5 -13.5q90 0 165 19.5t129 57.5t84 94t30 130q0 143 -97.5 215t-267.5 101q-137 25 -195.5 56.5t-58.5 96.5q0 37 18.5 62.5t48 42t69.5 24t83 7.5q82 0 154 -32t112 -85l107 108q-51 53 -146.5 100.5t-226.5 47.5 q-72 0 -141.5 -17.5t-123.5 -53.5t-88 -89t-34 -127q0 -53 16.5 -99t55.5 -84t104.5 -65.5t163.5 -44.5q137 -23 210 -59.5t73 -108.5q0 -41 -19.5 -71.5t-52.5 -50t-77 -29.5t-91 -10q-53 0 -100 15t-85 37.5t-66.5 47t-41.5 43.5z" />
<glyph unicode="t" horiz-adv-x="585" d="M-12 854h164v-618q0 -49 11 -97.5t39.5 -86.5t78 -62.5t127.5 -24.5q59 0 96 10t76 39l-66 129q-14 -18 -39.5 -29.5t-66.5 -11.5q-49 0 -71 43t-22 91v618h203v135h-203v271h-163v-271h-164v-135z" />
<glyph unicode="u" horiz-adv-x="1110" d="M137 989l1 -67q1 -66 1 -164v-209v-205q0 -178 92.5 -274.5t245.5 -96.5q66 0 117 13.5t91 35t69.5 48t52.5 53.5v-123h164v989h-164v-733q-59 -72 -124 -109.5t-159 -37.5q-90 0 -155.5 58t-65.5 177v92v133v146v135q0 61 -1 100l-1 39h-164z" />
<glyph unicode="v" horiz-adv-x="1019" d="M0 989l416 -989h188l416 989h-184l-326 -831l-326 831h-184z" />
<glyph unicode="w" horiz-adv-x="1523" d="M14 989l322 -989h162l264 758l262 -758h164l321 989h-176l-233 -790l-277 790h-123l-276 -790l-236 790h-174z" />
<glyph unicode="x" horiz-adv-x="1077" d="M49 0h197l293 406l292 -406h197l-393 508l373 481h-199l-270 -375l-271 375h-198l372 -481z" />
<glyph unicode="y" horiz-adv-x="1019" d="M0 989l430 -1024l-12 -27q-12 -28 -29 -67q-14 -35 -33.5 -63.5t-48 -49t-73 -33t-107.5 -12.5l2 -137q150 0 243 51t150 185l498 1177h-184l-326 -831l-326 831h-184z" />
<glyph unicode="z" horiz-adv-x="960" d="M92 0h785v137h-619l610 719v133h-776v-135h600l-600 -707v-147z" />
<glyph unicode="{" horiz-adv-x="512" d="M14 629q53 0 79 -37t26 -94v-447q0 -55 19.5 -102t51 -81t73.5 -53.5t89 -19.5h125v111h-123q-51 0 -87 40t-36 105v447q0 66 -21.5 115t-72.5 71q51 23 72.5 72t21.5 114v447q0 68 36 105.5t87 37.5h123v113h-125q-47 0 -89 -18.5t-73.5 -52.5t-51 -81t-19.5 -104v-447 q0 -57 -25.5 -94t-79.5 -37v-110z" />
<glyph unicode="|" horiz-adv-x="395" d="M141 -41h113v1448h-113v-1448z" />
<glyph unicode="}" horiz-adv-x="512" d="M35 -94v-111h125q45 0 88 19.5t74.5 53.5t51 81t19.5 102v447q0 57 26 94t79 37v110q-53 0 -79 37t-26 94v447q0 57 -19.5 104t-51 81t-74.5 52.5t-88 18.5h-125v-113h123q51 0 87 -38t36 -105v-447q0 -66 21.5 -114.5t72.5 -71.5q-51 -23 -72.5 -72t-21.5 -114v-447 q0 -66 -36 -105.5t-87 -39.5h-123z" />
<glyph unicode="~" horiz-adv-x="1241" d="M55 909l115 -26q10 98 38 167.5t61.5 115.5t68.5 67.5t57 21.5q47 0 86 -38.5t92 -112.5q25 -35 50.5 -73t58.5 -71.5t77 -55t103 -21.5q57 0 112.5 43t100.5 108.5t75 146t36 156.5l-115 29q-10 -98 -37.5 -169t-61.5 -117t-69 -67.5t-57 -21.5q-47 0 -85 39t-91 113 q-25 33 -50.5 72.5t-59.5 72.5t-77 55.5t-102 22.5t-114.5 -43t-99.5 -109.5t-74 -147.5t-38 -157z" />
<glyph unicode="&#xa1;" horiz-adv-x="450" d="M92 883q0 53 39 93t94 40t94 -40t39 -93q0 -55 -38.5 -94t-94.5 -39q-55 0 -94 39t-39 94zM119 -367l41 990h129l41 -990h-211z" />
<glyph unicode="&#xa2;" horiz-adv-x="1028" d="M92 496q0 -102 33 -192.5t92 -160t142 -113.5t182 -55v-180h110v180q78 6 159 40t173 128l-106 107q-59 -61 -112.5 -94t-113.5 -43v764q59 -10 112.5 -42t113.5 -96l106 109q-92 94 -173 128t-159 40v143h-110v-145q-98 -10 -181.5 -54.5t-142.5 -114t-92 -159.5 t-33 -190zM262 496q0 72 19.5 137t55.5 115.5t87 84.5t117 44v-764q-66 10 -117 43.5t-87 85t-55.5 116t-19.5 138.5z" />
<glyph unicode="&#xa3;" horiz-adv-x="1034" d="M37 522h272q10 -47 10 -100q0 -49 -10 -88t-37.5 -72t-76 -62.5t-121.5 -56.5l69 -157q27 18 51.5 32.5t50 25.5t55.5 17.5t69 6.5q57 0 98 -15.5t81 -33t86 -33t116 -15.5q84 0 154.5 25t111.5 72l-88 143q-20 -31 -71.5 -53.5t-98.5 -22.5q-41 0 -74 12.5t-64.5 25.5 t-70.5 25.5t-92 12.5q-37 0 -52.5 -2t-52.5 -14q33 27 58.5 53t44 58t28 72t9.5 93q0 14 -1.5 26.5t-3.5 24.5h246v113h-276q-20 47 -49 86t-54.5 81t-43 91t-17.5 117t26.5 111.5t65.5 68t84 35t80 10.5q84 0 153.5 -21.5t96.5 -87.5l135 84q-18 49 -58 85t-92.5 59.5 t-114 34t-120.5 10.5q-96 0 -177 -34t-141.5 -89t-94.5 -128t-34 -149q0 -72 16.5 -122t40 -91t51.5 -76.5t52 -74.5h-225v-113z" />
<glyph unicode="&#xa4;" horiz-adv-x="1058" d="M57 287l74 -72l117 117q121 -98 278 -99q156 0 279 99l117 -117l71 72l-116 116q98 123 98 279q0 158 -98 279l116 116l-71 74l-117 -117q-59 47 -131 71.5t-148 24.5q-78 0 -148.5 -24.5t-129.5 -71.5l-117 117l-74 -74l117 -116q-47 -59 -71.5 -131t-24.5 -148 t24.5 -147.5t71.5 -131.5zM193 682q0 70 26.5 130t71.5 105.5t105.5 72t129.5 26.5q68 0 128.5 -26.5t105.5 -72t71.5 -105.5t26.5 -130q0 -68 -26.5 -128t-71.5 -105.5t-105.5 -72t-128.5 -26.5q-70 0 -130 26.5t-105 72t-71.5 105.5t-26.5 128z" />
<glyph unicode="&#xa5;" horiz-adv-x="1290" d="M4 1366l391 -557h-209v-113h287l80 -112v-99h-367v-112h367v-373h178v373h381v112h-381v99l78 112h303v113h-223l391 557h-231l-408 -614l-405 614h-232z" />
<glyph unicode="&#xa6;" horiz-adv-x="395" d="M141 -41h113v649h-113v-649zM141 758h113v649h-113v-649z" />
<glyph unicode="&#xa7;" horiz-adv-x="1024" d="M0 477q0 -80 35 -151.5t97.5 -129t147.5 -97.5t183 -56q137 -23 209.5 -59.5t72.5 -108.5q0 -41 -19 -71.5t-53 -51t-77 -31t-90 -10.5q-53 0 -100.5 15.5t-85 38t-66.5 47t-41 43.5l-113 -113q31 -31 68 -61.5t85 -53t109.5 -37t139.5 -14.5q90 0 164.5 19.5t129 57.5 t84 95t29.5 131q0 100 -47 162.5t-133 99.5q49 25 101.5 61t95.5 85t71.5 109t28.5 132q0 115 -38 195t-103.5 132t-153.5 83t-186 47q-137 23 -196.5 55.5t-59.5 98.5q0 37 18.5 62.5t49 42t70.5 23.5t83 7q82 0 153.5 -31t110.5 -84l107 107q-49 55 -144.5 101t-226.5 46 q-72 0 -141.5 -17.5t-124 -53t-88 -89t-33.5 -127.5q0 -84 42 -149.5t152 -106.5q-63 -18 -120.5 -53t-101.5 -84t-69.5 -113.5t-25.5 -142.5zM166 489q0 45 11 99.5t42 104.5t87 89t147 56l10 -2q80 -16 152.5 -42t128 -66t87 -97t31.5 -135q0 -59 -20.5 -109.5t-55 -90.5 t-79.5 -69.5t-93 -48.5q-16 4 -33.5 7t-35.5 8q-68 12 -136.5 37.5t-122 63.5t-87 87t-33.5 108z" />
<glyph unicode="&#xa8;" horiz-adv-x="573" d="M0 1337q0 -45 31.5 -76.5t77.5 -31.5q47 0 78.5 31.5t31.5 76.5q0 47 -31.5 79t-78.5 32q-45 0 -77 -32t-32 -79zM354 1337q0 -45 32 -76.5t79 -31.5q45 0 76.5 31.5t31.5 76.5q0 47 -31.5 79t-76.5 32q-47 0 -79 -32t-32 -79z" />
<glyph unicode="&#xa9;" horiz-adv-x="1593" d="M72 682q0 -150 57 -282t155.5 -230t230.5 -155.5t282 -57.5t281.5 57.5t230 155.5t156 230t57.5 282t-57.5 282t-156 230t-230.5 155.5t-281 57.5q-150 0 -282 -57.5t-230.5 -155.5t-155.5 -230.5t-57 -281.5zM162 682q0 131 50 246.5t136 202t202 136.5t247 50 t247.5 -50t202.5 -136.5t136.5 -202t50.5 -246.5t-50.5 -247t-136.5 -202t-202.5 -136t-247.5 -50t-247 50t-202 136t-136 202t-50 247zM358 682q0 -96 35 -177t94.5 -139.5t139.5 -91t170 -32.5q98 0 180 40.5t139 106.5l-80 76q-41 -55 -102.5 -88t-136.5 -33 q-68 0 -126.5 25.5t-101.5 69.5t-68.5 106.5t-25.5 136.5t25.5 136.5t68.5 107.5t101.5 70.5t126.5 25.5q74 0 135 -33t102 -88l78 78q-55 66 -136 103.5t-179 37.5q-90 0 -170 -32.5t-139.5 -91t-94.5 -138.5t-35 -176z" />
<glyph unicode="&#xaa;" horiz-adv-x="673" d="M92 999q0 53 20.5 90t53.5 58.5t73 31t76 9.5q47 0 89 -18.5t65 -59.5v92q0 47 -37 78t-88 31q-45 0 -88 -17.5t-82 -60.5l-59 59q59 61 118.5 76.5t110.5 15.5q102 0 158.5 -52t56.5 -130v-377h-90v64q-23 -41 -65 -59.5t-89 -18.5q-37 0 -76.5 10t-72.5 34t-53.5 59.5 t-20.5 84.5zM117 631h444v82h-444v-82zM186 999q0 -33 15.5 -55t37 -35.5t46 -18.5t45.5 -5q41 0 81 18t58 53v88q-18 35 -58 52.5t-81 17.5q-20 0 -45 -5t-46.5 -18.5t-37 -36t-15.5 -55.5z" />
<glyph unicode="&#xab;" horiz-adv-x="817" d="M0 498l328 -369h164l-328 369l328 362h-164zM328 498l327 -369h164l-327 369l327 362h-164z" />
<glyph unicode="&#xac;" horiz-adv-x="1191" d="M96 432h549l-24 -266l575 420l-575 418l24 -265h-549v-307z" />
<glyph unicode="&#xad;" horiz-adv-x="1046" d="M59 444l928 2v113l-928 -2v-113z" />
<glyph unicode="&#xae;" horiz-adv-x="1593" d="M72 682q0 -150 57 -282t155.5 -230t230.5 -155.5t282 -57.5t281.5 57.5t230 155.5t156 230t57.5 282t-57.5 282t-156 230t-230.5 155.5t-281 57.5q-150 0 -282 -57.5t-230.5 -155.5t-155.5 -230.5t-57 -281.5zM162 682q0 131 50 246.5t136 202t202 136.5t247 50 t247.5 -50t202.5 -136.5t136.5 -202t50.5 -246.5t-50.5 -247t-136.5 -202t-202.5 -136t-247.5 -50t-247 50t-202 136t-136 202t-50 247zM516 1098l2 -830h111v328h147l215 -328h142l-224 330q18 0 53 12.5t71 42t61.5 76.5t25.5 117q0 57 -21.5 103t-58 79t-85 51.5 t-99.5 18.5h-340zM629 696v303l227 -2q27 0 53.5 -11t47 -30.5t34 -48t13.5 -61.5t-13.5 -60.5t-34 -47t-47 -31t-53.5 -11.5h-227z" />
<glyph unicode="&#xaf;" horiz-adv-x="811" d="M33 1239h743v107h-743v-107z" />
<glyph unicode="&#xb0;" horiz-adv-x="575" d="M49 1167q0 -49 18.5 -93t51.5 -76.5t77 -51t93 -18.5t93 18.5t77 51t51 76.5t18 93t-18 93.5t-51 76t-77 51t-93 19.5t-93 -19.5t-77 -51t-51.5 -75.5t-18.5 -94zM139 1167q0 61 43 105.5t107 44.5q61 0 105 -44.5t44 -105.5q0 -63 -44 -106t-105 -43q-63 0 -106.5 43 t-43.5 106z" />
<glyph unicode="&#xb1;" horiz-adv-x="622" d="M-2 1044l321 322h158v-1366h-184v1116l-170 -196z" />
<glyph unicode="&#xb2;" horiz-adv-x="643" d="M45 582v80l35 32q35 33 86 80t109.5 100.5t107.5 96.5q39 35 75 84t36 92q0 80 -52.5 114.5t-117.5 34.5q-61 0 -119 -28.5t-86 -69.5l-66 68q18 27 47 49t66 37.5t77 23.5t81 8q53 0 102 -12t86 -38.5t59.5 -69.5t22.5 -105q0 -41 -15.5 -80t-38 -71.5t-49 -60 t-49.5 -46.5q-47 -41 -93 -81t-81 -73.5t-56 -54.5l-22 -20h408v-90h-553z" />
<glyph unicode="&#xb3;" horiz-adv-x="643" d="M29 696l71 72q31 -47 81 -81t128 -34q84 0 131 43t47 103q0 59 -30.5 91t-73.5 44t-88 13t-74 -1v86q47 -4 93 -1t82 17.5t58.5 41t22.5 73.5q0 33 -15.5 57.5t-40 42t-54 25.5t-58.5 8q-63 0 -118.5 -29.5t-79.5 -70.5l-72 70q18 27 47 49t65.5 37.5t76.5 23.5t81 8 q51 0 99.5 -12t86 -38.5t60.5 -65.5t23 -94q0 -63 -45.5 -120t-124.5 -67q88 -10 135 -64t47 -132q0 -100 -76 -163t-205 -63q-96 0 -169.5 38t-110.5 93z" />
<glyph unicode="&#xb4;" horiz-adv-x="436" d="M0 1137h160l278 297h-149z" />
<glyph unicode="&#xb5;" horiz-adv-x="1538" d="M-4 862l479 -350l-182 -563l479 348l481 -348l-184 563l481 350h-594l-184 565l-182 -565h-594z" />
<glyph unicode="&#xb6;" horiz-adv-x="919" d="M55 1221q0 -74 28 -137.5t76 -111.5t111.5 -76t137.5 -28v-1073h112v1667h150v-1667h112v1778h-374q-74 0 -137.5 -27.5t-111.5 -76t-76 -112t-28 -136.5z" />
<glyph unicode="&#xb7;" horiz-adv-x="450" d="M92 662q0 55 39 94t94 39t94 -39t39 -94t-38.5 -94.5t-94.5 -39.5q-55 0 -94 39t-39 95z" />
<glyph unicode="&#xb8;" horiz-adv-x="413" d="M0 -324q27 -18 82 -38.5t121 -20.5q102 0 156.5 50.5t54.5 111.5q0 47 -21.5 76.5t-53.5 44t-67.5 13.5t-64.5 -13l49 123h-84l-61 -164l67 -39q45 27 84 10.5t39 -53.5q0 -23 -23.5 -40.5t-78.5 -17.5q-35 0 -73 13.5t-79 46.5z" />
<glyph unicode="&#xb9;" horiz-adv-x="643" d="M133 1184l182 182h91v-778h-105v635l-96 -111z" />
<glyph unicode="&#xba;" horiz-adv-x="684" d="M72 1102q0 59 20.5 111.5t57 91t88 61.5t110.5 23t109.5 -23t87.5 -61.5t57.5 -91t20.5 -111.5t-20.5 -111.5t-57.5 -91.5t-87 -61.5t-110 -22.5q-59 0 -110.5 22.5t-88 61.5t-57 91t-20.5 112zM96 631h504v82h-504v-82zM166 1102q0 -90 48 -151.5t134 -61.5t134 61.5 t48 151.5q0 88 -48 149.5t-134 61.5t-134 -61.5t-48 -149.5z" />
<glyph unicode="&#xbb;" horiz-adv-x="817" d="M0 129h164l328 369l-328 362h-164l328 -362zM328 129h164l327 369l-327 362h-164l327 -362z" />
<glyph unicode="&#xbc;" horiz-adv-x="1308" d="M27 1184l182 182h90v-778h-106v635l-97 -111zM70 0l874 1366h117l-873 -1366h-118zM639 186v88l328 504h145v-502h113v-90h-113v-184h-100v184h-373zM750 276h262v410z" />
<glyph unicode="&#xbd;" horiz-adv-x="1388" d="M27 1184l182 182h90v-778h-106v635l-97 -111zM70 0l874 1366h117l-873 -1366h-118zM737 2v76l34 32q34 33 85 80.5t109.5 100.5t105.5 94q39 35 74 84t35 92q0 78 -51.5 113t-114.5 35q-61 0 -118.5 -29t-84.5 -70l-68 68q35 53 113 86t158 33q53 0 101 -12.5t85 -39 t59.5 -68.5t22.5 -104q0 -41 -15.5 -78.5t-38 -70.5t-49 -60.5t-49.5 -46.5q-47 -41 -92 -80.5t-79.5 -72.5t-56.5 -54l-21 -20h405v-88h-549z" />
<glyph unicode="&#xbe;" horiz-adv-x="1497" d="M35 696l74 72q31 -47 81 -81t127 -34q82 0 130.5 43t48.5 103q0 59 -31 91t-74 44t-89 13t-75 -1v86q47 -4 93.5 -1t82 17.5t58 41t22.5 73.5q0 33 -15 57.5t-38.5 42t-53.5 25.5t-59 8q-63 0 -118.5 -29.5t-81.5 -70.5l-72 70q18 27 47 49t66 37.5t77.5 23.5t81.5 8 q51 0 99.5 -12t86.5 -38.5t60.5 -65.5t22.5 -94q0 -63 -45 -120t-127 -67q88 -10 135 -64t47 -132q0 -100 -76 -163t-203 -63q-98 0 -171.5 38t-110.5 93zM297 0l872 1366h119l-874 -1366h-117zM864 186v88l328 504h147v-502h113v-90h-113v-184h-102v184h-373zM975 276h262 v410z" />
<glyph unicode="&#xbf;" horiz-adv-x="987" d="M45 -61q0 66 16.5 115.5t51 90.5t87 76t124.5 72q31 16 59.5 44t43.5 59.5t10 66.5t-42 65l123 123q63 -49 85 -112.5t12.5 -126t-44 -116.5t-86.5 -85q-80 -47 -128 -80t-75.5 -62.5t-36.5 -61.5t-9 -73q0 -47 21.5 -81.5t56 -57t79.5 -34t92 -11.5q66 0 115 12.5t87 35 t68.5 54t59.5 70.5l123 -123q-35 -39 -76 -75.5t-94 -65.5t-123 -46.5t-160 -17.5q-94 0 -174 25t-139 70t-93 108.5t-34 141.5zM375 885q0 53 39 93t94 40q53 0 93 -40t40 -93q0 -55 -40 -94t-93 -39q-55 0 -94 39t-39 94z" />
<glyph unicode="&#xc0;" horiz-adv-x="1343" d="M4 0h211l133 342h639l135 -342h213l-581 1366h-170zM414 498l256 649l254 -649h-510zM440 1790l279 -297h159l-288 297h-150z" />
<glyph unicode="&#xc1;" horiz-adv-x="1343" d="M4 0h211l133 342h639l135 -342h213l-581 1366h-170zM414 498l256 649l254 -649h-510zM446 1493h160l278 297h-149z" />
<glyph unicode="&#xc2;" horiz-adv-x="1343" d="M4 0h211l133 342h639l135 -342h213l-581 1366h-170zM414 498l256 649l254 -649h-510zM455 1491h133l84 186l88 -186h133l-164 297h-110z" />
<glyph unicode="&#xc3;" horiz-adv-x="1343" d="M4 0h211l133 342h639l135 -342h213l-581 1366h-170zM307 1483l119 -19q10 104 32.5 157.5t77.5 53.5q31 0 44.5 -19.5t48.5 -68.5q16 -23 31.5 -45t35 -39.5t46 -28t67.5 -10.5q53 0 94 29t70.5 74t46 99t22.5 105l-119 19q-10 -104 -32.5 -157.5t-77.5 -53.5 q-31 0 -45.5 19.5t-46.5 68.5q-16 23 -34 45.5t-40.5 39.5t-52 27.5t-70.5 10.5q-53 0 -92 -28.5t-64.5 -74t-41 -99.5t-19.5 -105zM414 498l256 649l254 -649h-510z" />
<glyph unicode="&#xc4;" horiz-adv-x="1343" d="M4 0h211l133 342h639l135 -342h213l-581 1366h-170zM387 1577q0 -45 31.5 -76.5t77.5 -31.5q47 0 78.5 31.5t31.5 76.5q0 47 -31.5 79t-78.5 32q-45 0 -77 -32t-32 -79zM414 498l256 649l254 -649h-510zM741 1577q0 -45 32 -76.5t79 -31.5q45 0 76.5 31.5t31.5 76.5 q0 47 -31.5 79t-76.5 32q-47 0 -79 -32t-32 -79z" />
<glyph unicode="&#xc5;" horiz-adv-x="1343" d="M4 0l580 1366h170l581 -1366h-213l-135 342h-639l-133 -342h-211zM414 498h510l-254 649zM477 1614q0 84 54.5 142.5t140.5 58.5t140 -58.5t54 -142.5q0 -86 -54 -144.5t-140 -58.5t-140.5 58.5t-54.5 144.5zM543 1614q0 -63 34.5 -106.5t94.5 -43.5q59 0 93 43.5 t34 106.5q0 61 -34 104t-93 43t-94 -43t-35 -104z" />
<glyph unicode="&#xc6;" horiz-adv-x="1945" d="M0 0h221l209 340h502v-340h921v160h-745v463h733v157h-733v428h745v158h-968zM530 498l402 649v-649h-402z" />
<glyph unicode="&#xc7;" horiz-adv-x="1386" d="M96 682q0 -158 56.5 -290t155 -228t229.5 -150.5t282 -54.5q166 0 297 65.5t227 176.5l-131 123q-70 -92 -170 -149.5t-223 -57.5q-115 0 -213 41t-169.5 115.5t-113.5 179t-42 229.5t42 229.5t113.5 180t170 116.5t212.5 41q123 0 222.5 -56t166.5 -149l131 125 q-96 111 -225 174.5t-295 63.5q-152 0 -282.5 -54.5t-229 -150.5t-155 -229t-56.5 -291zM588 -324q27 -18 82 -38.5t121 -20.5q102 0 156.5 50.5t54.5 111.5q0 47 -21.5 76.5t-53.5 44t-67.5 13.5t-64.5 -13l49 123h-84l-61 -164l67 -39q45 27 84 10.5t39 -53.5 q0 -23 -23.5 -40.5t-78.5 -17.5q-35 0 -73 13.5t-79 46.5z" />
<glyph unicode="&#xc8;" horiz-adv-x="1155" d="M141 0h924v160h-746v463h732v157h-732v428h746v158h-924v-1366zM381 1790l279 -297h159l-288 297h-150z" />
<glyph unicode="&#xc9;" horiz-adv-x="1155" d="M141 0h924v160h-746v463h732v157h-732v428h746v158h-924v-1366zM371 1493h160l278 297h-149z" />
<glyph unicode="&#xca;" horiz-adv-x="1155" d="M141 0h924v160h-746v463h732v157h-732v428h746v158h-924v-1366zM379 1491h133l84 186l88 -186h133l-164 297h-110z" />
<glyph unicode="&#xcb;" horiz-adv-x="1155" d="M141 0h924v160h-746v463h732v157h-732v428h746v158h-924v-1366zM313 1577q0 -45 31.5 -76.5t77.5 -31.5q47 0 78.5 31.5t31.5 76.5q0 47 -31.5 79t-78.5 32q-45 0 -77 -32t-32 -79zM667 1577q0 -45 32 -76.5t79 -31.5q45 0 76.5 31.5t31.5 76.5q0 47 -31.5 79t-76.5 32 q-47 0 -79 -32t-32 -79z" />
<glyph unicode="&#xcc;" horiz-adv-x="460" d="M141 0h178v1366h-178v-1366zM141 1790l279 -297h159l-288 297h-150z" />
<glyph unicode="&#xcd;" horiz-adv-x="460" d="M141 0h178v1366h-178v-1366zM141 1502h160l278 297h-149z" />
<glyph unicode="&#xce;" horiz-adv-x="460" d="M141 0h178v1366h-178v-1366zM141 1489h133l84 186l88 -186h133l-164 297h-110z" />
<glyph unicode="&#xcf;" horiz-adv-x="460" d="M141 0h178v1366h-178v-1366zM141 1577q0 -45 31.5 -76.5t77.5 -31.5q47 0 78.5 31.5t31.5 76.5q0 47 -31.5 79t-78.5 32q-45 0 -77 -32t-32 -79zM495 1577q0 -45 32 -76.5t79 -31.5q45 0 76.5 31.5t31.5 76.5q0 47 -31.5 79t-76.5 32q-47 0 -79 -32t-32 -79z" />
<glyph unicode="&#xd0;" horiz-adv-x="1423" d="M0 649h141v-649h494q150 0 276.5 53t219 145.5t144.5 217.5t52 266t-52 266t-144.5 217t-219.5 146.5t-276 54.5h-494v-614h-141v-103zM319 158v491h187v103h-187v456h316q111 0 204 -41t160.5 -112.5t105.5 -166.5t38 -206q0 -109 -38 -205t-105.5 -166.5t-161 -111.5 t-203.5 -41h-316z" />
<glyph unicode="&#xd1;" horiz-adv-x="1441" d="M141 0h178v1081l814 -1081h159v1366h-178v-1042l-784 1042h-189v-1366zM346 1489l119 -19q10 104 32.5 157.5t77.5 53.5q31 0 44.5 -19.5t48.5 -68.5q16 -23 31.5 -45t35 -39.5t46 -28t67.5 -10.5q53 0 94 29t70.5 74t46 99t22.5 105l-119 19q-10 -104 -32.5 -157.5 t-77.5 -53.5q-31 0 -45.5 19.5t-46.5 68.5q-16 23 -34 45.5t-40.5 39.5t-52 27.5t-70.5 10.5q-53 0 -92 -28.5t-64.5 -74t-41 -99.5t-19.5 -105z" />
<glyph unicode="&#xd2;" horiz-adv-x="1576" d="M96 682q0 -150 51.5 -282t143.5 -230t219 -154.5t278 -56.5q150 0 277 56.5t219 154.5t144.5 230t52.5 282t-52.5 282t-144.5 230t-219 155.5t-277 57.5q-152 0 -278.5 -57.5t-218.5 -155.5t-143.5 -230.5t-51.5 -281.5zM281 682q0 119 36.5 223.5t103 180t160 119.5 t207.5 44q113 0 206 -44t161 -119.5t104.5 -180t36.5 -223.5t-36.5 -222.5t-104.5 -179t-161 -119.5t-206 -44q-115 0 -208 44t-159.5 119.5t-103 179t-36.5 222.5zM571 1790l279 -297h159l-288 297h-150z" />
<glyph unicode="&#xd3;" horiz-adv-x="1576" d="M96 682q0 -150 51.5 -282t143.5 -230t219 -154.5t278 -56.5q150 0 277 56.5t219 154.5t144.5 230t52.5 282t-52.5 282t-144.5 230t-219 155.5t-277 57.5q-152 0 -278.5 -57.5t-218.5 -155.5t-143.5 -230.5t-51.5 -281.5zM281 682q0 119 36.5 223.5t103 180t160 119.5 t207.5 44q113 0 206 -44t161 -119.5t104.5 -180t36.5 -223.5t-36.5 -222.5t-104.5 -179t-161 -119.5t-206 -44q-115 0 -208 44t-159.5 119.5t-103 179t-36.5 222.5zM573 1495h160l278 297h-149z" />
<glyph unicode="&#xd4;" horiz-adv-x="1576" d="M96 682q0 -150 51.5 -282t143.5 -230t219 -154.5t278 -56.5q150 0 277 56.5t219 154.5t144.5 230t52.5 282t-52.5 282t-144.5 230t-219 155.5t-277 57.5q-152 0 -278.5 -57.5t-218.5 -155.5t-143.5 -230.5t-51.5 -281.5zM281 682q0 119 36.5 223.5t103 180t160 119.5 t207.5 44q113 0 206 -44t161 -119.5t104.5 -180t36.5 -223.5t-36.5 -222.5t-104.5 -179t-161 -119.5t-206 -44q-115 0 -208 44t-159.5 119.5t-103 179t-36.5 222.5zM573 1493h133l84 186l88 -186h133l-164 297h-110z" />
<glyph unicode="&#xd5;" horiz-adv-x="1576" d="M96 682q0 -150 51.5 -282t143.5 -230t219 -154.5t278 -56.5q150 0 277 56.5t219 154.5t144.5 230t52.5 282t-52.5 282t-144.5 230t-219 155.5t-277 57.5q-152 0 -278.5 -57.5t-218.5 -155.5t-143.5 -230.5t-51.5 -281.5zM281 682q0 119 36.5 223.5t103 180t160 119.5 t207.5 44q113 0 206 -44t161 -119.5t104.5 -180t36.5 -223.5t-36.5 -222.5t-104.5 -179t-161 -119.5t-206 -44q-115 0 -208 44t-159.5 119.5t-103 179t-36.5 222.5zM424 1504l119 -19q10 104 32.5 157.5t77.5 53.5q31 0 44.5 -19.5t48.5 -68.5q16 -23 31.5 -45t35 -39.5 t46 -28t67.5 -10.5q53 0 94 29t70.5 74t46 99t22.5 105l-119 19q-10 -104 -32.5 -157.5t-77.5 -53.5q-31 0 -45.5 19.5t-46.5 68.5q-16 23 -34 45.5t-40.5 39.5t-52 27.5t-70.5 10.5q-53 0 -92 -28.5t-64.5 -74t-41 -99.5t-19.5 -105z" />
<glyph unicode="&#xd6;" horiz-adv-x="1576" d="M96 682q0 -150 51.5 -282t143.5 -230t219 -154.5t278 -56.5q150 0 277 56.5t219 154.5t144.5 230t52.5 282t-52.5 282t-144.5 230t-219 155.5t-277 57.5q-152 0 -278.5 -57.5t-218.5 -155.5t-143.5 -230.5t-51.5 -281.5zM281 682q0 119 36.5 223.5t103 180t160 119.5 t207.5 44q113 0 206 -44t161 -119.5t104.5 -180t36.5 -223.5t-36.5 -222.5t-104.5 -179t-161 -119.5t-206 -44q-115 0 -208 44t-159.5 119.5t-103 179t-36.5 222.5zM498 1605q0 -45 31.5 -76.5t77.5 -31.5q47 0 78.5 31.5t31.5 76.5q0 47 -31.5 79t-78.5 32q-45 0 -77 -32 t-32 -79zM852 1605q0 -45 32 -76.5t79 -31.5q45 0 76.5 31.5t31.5 76.5q0 47 -31.5 79t-76.5 32q-47 0 -79 -32t-32 -79z" />
<glyph unicode="&#xd7;" horiz-adv-x="1046" d="M129 801l305 -305l-282 -285l79 -78l283 283l315 -316l89 88l-316 316l283 284l-78 78l-285 -282l-305 305z" />
<glyph unicode="&#xd8;" horiz-adv-x="1576" d="M96 682q0 -172 67.5 -317.5t184.5 -245.5l-76 -119h119l39 59q78 -47 168 -73.5t193 -26.5q150 0 276.5 56.5t218.5 154.5t144.5 230t52.5 282q0 182 -75 335.5t-206 252.5l62 96h-117l-27 -43q-72 41 -154.5 62.5t-174.5 21.5q-150 0 -277 -57.5t-220 -155.5 t-145.5 -230.5t-52.5 -281.5zM281 682q0 119 36.5 223.5t104 180t161 119.5t208.5 44q68 0 128 -16t113 -45l-592 -926q-76 78 -117.5 185.5t-41.5 234.5zM516 197l598 933q88 -78 136 -193.5t48 -254.5q0 -119 -36.5 -222.5t-103 -179t-161 -119.5t-206.5 -44 q-154 0 -275 80z" />
<glyph unicode="&#xd9;" horiz-adv-x="1409" d="M141 492q0 -104 38 -200.5t109.5 -170.5t177 -118t239.5 -44q133 0 237.5 44t177 118t110.5 170.5t38 200.5v874h-185v-874q0 -72 -25.5 -138.5t-74.5 -120t-119.5 -85t-158.5 -31.5t-159 31.5t-120 85t-74.5 120t-25.5 138.5v874h-185v-874zM498 1796l279 -297h159 l-288 297h-150z" />
<glyph unicode="&#xda;" horiz-adv-x="1409" d="M141 492q0 -104 38 -200.5t109.5 -170.5t177 -118t239.5 -44q133 0 237.5 44t177 118t110.5 170.5t38 200.5v874h-185v-874q0 -72 -25.5 -138.5t-74.5 -120t-119.5 -85t-158.5 -31.5t-159 31.5t-120 85t-74.5 120t-25.5 138.5v874h-185v-874zM483 1493h160l278 297h-149z " />
<glyph unicode="&#xdb;" horiz-adv-x="1409" d="M141 492q0 -104 38 -200.5t109.5 -170.5t177 -118t239.5 -44q133 0 237.5 44t177 118t110.5 170.5t38 200.5v874h-185v-874q0 -72 -25.5 -138.5t-74.5 -120t-119.5 -85t-158.5 -31.5t-159 31.5t-120 85t-74.5 120t-25.5 138.5v874h-185v-874zM477 1495h133l84 186 l88 -186h133l-164 297h-110z" />
<glyph unicode="&#xdc;" horiz-adv-x="1409" d="M141 492q0 -104 38 -200.5t109.5 -170.5t177 -118t239.5 -44q133 0 237.5 44t177 118t110.5 170.5t38 200.5v874h-185v-874q0 -72 -25.5 -138.5t-74.5 -120t-119.5 -85t-158.5 -31.5t-159 31.5t-120 85t-74.5 120t-25.5 138.5v874h-185v-874zM416 1577q0 -45 31.5 -76.5 t77.5 -31.5q47 0 78.5 31.5t31.5 76.5q0 47 -31.5 79t-78.5 32q-45 0 -77 -32t-32 -79zM770 1577q0 -45 32 -76.5t79 -31.5q45 0 76.5 31.5t31.5 76.5q0 47 -31.5 79t-76.5 32q-47 0 -79 -32t-32 -79z" />
<glyph unicode="&#xdd;" horiz-adv-x="1290" d="M4 1366l549 -782v-584h178v584l549 782h-231l-408 -614l-405 614h-232zM414 1493h160l278 297h-149z" />
<glyph unicode="&#xde;" horiz-adv-x="1175" d="M141 0h178v301h379q86 0 163 29.5t136.5 84t94 129.5t34.5 167t-35.5 168.5t-95 130t-136.5 83t-161 29.5h-379v244h-178v-1366zM319 459v508h379q43 0 87 -19.5t79 -54.5t56.5 -82t21.5 -100t-21.5 -99.5t-56.5 -80t-79 -53t-87 -19.5h-379z" />
<glyph unicode="&#xdf;" horiz-adv-x="1234" d="M137 0h164v1055q0 55 23.5 95t58.5 65.5t77 37t77 11.5q84 0 136 -36t52 -102q0 -53 -40 -85.5t-118 -67.5q-74 -35 -121 -94.5t-47 -147.5q0 -53 16.5 -99t55.5 -84t104.5 -65.5t163.5 -44.5q137 -23 210 -59.5t73 -108.5q0 -41 -19.5 -71.5t-52 -50t-77 -29.5 t-91.5 -10q-53 0 -100 15t-85 37.5t-66.5 46t-41.5 42.5l-112 -113q31 -31 67.5 -60.5t85 -53t109.5 -37t139 -13.5q90 0 165 19.5t129 57.5t84 94t30 130q0 143 -97.5 215t-267.5 101q-137 23 -196.5 54.5t-59.5 96.5q0 37 19.5 63.5t50.5 43.5q55 29 99 55.5t75 58 t48 72.5t17 103q0 117 -91 189.5t-246 72.5q-82 0 -155 -28t-127 -74t-86 -109.5t-32 -132.5v-1055z" />
<glyph unicode="&#xe0;" horiz-adv-x="1081" d="M92 317q0 -90 38 -155.5t96.5 -107.5t131 -61.5t140.5 -19.5q84 0 162.5 35t119.5 109v-117h164v686q0 70 -26.5 131.5t-78 106.5t-124 70.5t-164.5 25.5q-47 0 -97.5 -5t-102.5 -23.5t-106.5 -51.5t-109.5 -88l107 -109q72 78 150.5 110t158.5 32q45 0 87 -15.5 t73.5 -42t50 -62.5t18.5 -79v-166q-41 72 -119.5 107t-162.5 35q-68 0 -140.5 -17.5t-131 -57.5t-96.5 -105.5t-38 -164.5zM262 317q0 61 27.5 101.5t67.5 64t86 33.5t83 10q74 0 146.5 -31.5t107.5 -95.5v-161q-35 -63 -107.5 -96t-146.5 -33q-37 0 -83 10t-86 33.5 t-67.5 63.5t-27.5 101zM319 1434l279 -297h159l-288 297h-150z" />
<glyph unicode="&#xe1;" horiz-adv-x="1081" d="M92 317q0 -90 38 -155.5t96.5 -107.5t131 -61.5t140.5 -19.5q84 0 162.5 35t119.5 109v-117h164v686q0 70 -26.5 131.5t-78 106.5t-124 70.5t-164.5 25.5q-47 0 -97.5 -5t-102.5 -23.5t-106.5 -51.5t-109.5 -88l107 -109q72 78 150.5 110t158.5 32q45 0 87 -15.5 t73.5 -42t50 -62.5t18.5 -79v-166q-41 72 -119.5 107t-162.5 35q-68 0 -140.5 -17.5t-131 -57.5t-96.5 -105.5t-38 -164.5zM262 317q0 61 27.5 101.5t67.5 64t86 33.5t83 10q74 0 146.5 -31.5t107.5 -95.5v-161q-35 -63 -107.5 -96t-146.5 -33q-37 0 -83 10t-86 33.5 t-67.5 63.5t-27.5 101zM317 1137h160l278 297h-149z" />
<glyph unicode="&#xe2;" horiz-adv-x="1081" d="M92 317q0 -90 38 -155.5t96.5 -107.5t131 -61.5t140.5 -19.5q84 0 162.5 35t119.5 109v-117h164v686q0 70 -26.5 131.5t-78 106.5t-124 70.5t-164.5 25.5q-47 0 -97.5 -5t-102.5 -23.5t-106.5 -51.5t-109.5 -88l107 -109q72 78 150.5 110t158.5 32q45 0 87 -15.5 t73.5 -42t50 -62.5t18.5 -79v-166q-41 72 -119.5 107t-162.5 35q-68 0 -140.5 -17.5t-131 -57.5t-96.5 -105.5t-38 -164.5zM262 317q0 61 27.5 101.5t67.5 64t86 33.5t83 10q74 0 146.5 -31.5t107.5 -95.5v-161q-35 -63 -107.5 -96t-146.5 -33q-37 0 -83 10t-86 33.5 t-67.5 63.5t-27.5 101zM326 1137h133l84 186l88 -186h133l-164 297h-110z" />
<glyph unicode="&#xe3;" horiz-adv-x="1081" d="M92 317q0 -90 38 -155.5t96.5 -107.5t131 -61.5t140.5 -19.5q84 0 162.5 35t119.5 109v-117h164v686q0 70 -26.5 131.5t-78 106.5t-124 70.5t-164.5 25.5q-47 0 -97.5 -5t-102.5 -23.5t-106.5 -51.5t-109.5 -88l107 -109q72 78 150.5 110t158.5 32q45 0 87 -15.5 t73.5 -42t50 -62.5t18.5 -79v-166q-41 72 -119.5 107t-162.5 35q-68 0 -140.5 -17.5t-131 -57.5t-96.5 -105.5t-38 -164.5zM176 1139l119 -19q10 104 32.5 157.5t77.5 53.5q31 0 44.5 -19.5t48.5 -68.5q16 -23 31.5 -45t35 -39.5t46 -28t67.5 -10.5q53 0 94 29t70.5 74 t46 99t22.5 105l-119 19q-10 -104 -32.5 -157.5t-77.5 -53.5q-31 0 -45.5 19.5t-46.5 68.5q-16 23 -34 45.5t-40.5 39.5t-52 27.5t-70.5 10.5q-53 0 -92 -28.5t-64.5 -74t-41 -99.5t-19.5 -105zM262 317q0 61 27.5 101.5t67.5 64t86 33.5t83 10q74 0 146.5 -31.5 t107.5 -95.5v-161q-35 -63 -107.5 -96t-146.5 -33q-37 0 -83 10t-86 33.5t-67.5 63.5t-27.5 101z" />
<glyph unicode="&#xe4;" horiz-adv-x="1081" d="M92 317q0 -90 38 -155.5t96.5 -107.5t131 -61.5t140.5 -19.5q84 0 162.5 35t119.5 109v-117h164v686q0 70 -26.5 131.5t-78 106.5t-124 70.5t-164.5 25.5q-47 0 -97.5 -5t-102.5 -23.5t-106.5 -51.5t-109.5 -88l107 -109q72 78 150.5 110t158.5 32q45 0 87 -15.5 t73.5 -42t50 -62.5t18.5 -79v-166q-41 72 -119.5 107t-162.5 35q-68 0 -140.5 -17.5t-131 -57.5t-96.5 -105.5t-38 -164.5zM250 1337q0 -45 31.5 -76.5t77.5 -31.5q47 0 78.5 31.5t31.5 76.5q0 47 -31.5 79t-78.5 32q-45 0 -77 -32t-32 -79zM262 317q0 61 27.5 101.5 t67.5 64t86 33.5t83 10q74 0 146.5 -31.5t107.5 -95.5v-161q-35 -63 -107.5 -96t-146.5 -33q-37 0 -83 10t-86 33.5t-67.5 63.5t-27.5 101zM604 1337q0 -45 32 -76.5t79 -31.5q45 0 76.5 31.5t31.5 76.5q0 47 -31.5 79t-76.5 32q-47 0 -79 -32t-32 -79z" />
<glyph unicode="&#xe5;" horiz-adv-x="1081" d="M92 317q0 98 38 164t96.5 106t131 57.5t140.5 17.5q84 0 162.5 -35t119.5 -107v166q0 43 -18.5 79t-50 62.5t-73.5 42t-87 15.5q-80 0 -159 -32t-150 -110l-107 109q55 55 109.5 88t106.5 51.5t102.5 23.5t97.5 5q92 0 164.5 -25.5t124 -70.5t78 -106.5t26.5 -131.5v-686 h-164v117q-41 -74 -119.5 -109t-162.5 -35q-68 0 -140.5 19.5t-131 61.5t-96.5 107.5t-38 155.5zM262 317q0 -61 27.5 -101t67.5 -63.5t86 -33.5t83 -10q74 0 146.5 33t107.5 96v161q-35 63 -107.5 95t-146.5 32q-37 0 -83 -10t-86 -33.5t-67.5 -63.5t-27.5 -102zM342 1270 q0 86 54.5 144.5t140.5 58.5t139 -58.5t53 -144.5q0 -84 -53 -143.5t-139 -59.5t-140.5 59.5t-54.5 143.5zM408 1270q0 -61 34.5 -105.5t94.5 -44.5q59 0 93 44.5t34 105.5t-34 105t-93 44t-94 -44t-35 -105z" />
<glyph unicode="&#xe6;" horiz-adv-x="1865" d="M96 317q0 -92 38 -156.5t97.5 -106.5t131 -61.5t139.5 -19.5q80 0 147.5 17.5t120.5 44t89 57.5t52 58q61 -80 156.5 -128.5t218.5 -48.5q45 0 98.5 5.5t108.5 23.5t112.5 52t110.5 89l-106 107q-72 -78 -157 -102.5t-167 -24.5q-135 0 -226 84t-112 225h828v64 q0 109 -38 204t-104.5 165.5t-159 111.5t-200.5 41q-123 0 -218 -51.5t-159 -139.5q-47 84 -133 138.5t-209 54.5q-47 0 -97 -5t-102.5 -23.5t-106.5 -51.5t-110 -88l107 -109q72 78 150.5 110t158.5 32q45 0 87 -15.5t74 -42t50 -62.5t18 -79v-166q-41 72 -119.5 107 t-162.5 35q-68 0 -139.5 -17.5t-131 -57.5t-97.5 -105.5t-38 -164.5zM266 317q0 61 28 101.5t67.5 65t86 33.5t82.5 9q74 0 147 -31.5t107 -95.5v-161q-35 -63 -107.5 -96t-146.5 -33q-37 0 -83 10t-85.5 33.5t-67.5 63.5t-28 101zM946 567q8 63 34 120.5t69 100.5t99 68 t126 25q72 0 129 -26t99 -69t68 -100.5t32 -118.5h-656z" />
<glyph unicode="&#xe7;" horiz-adv-x="1028" d="M92 496q0 -109 38 -204t104.5 -166t158.5 -112t201 -41q45 0 92 6.5t94 23.5t97.5 51t105.5 89l-109 109q-70 -78 -135 -110.5t-145 -32.5q-76 0 -137.5 30.5t-104.5 82.5t-66.5 123t-23.5 151t23.5 149.5t66.5 121.5t104.5 83t137.5 31q80 0 145.5 -31t134.5 -109 l109 107q-55 55 -105.5 89t-97.5 52.5t-94 23.5t-92 5q-109 0 -201 -41t-158.5 -112.5t-104.5 -167t-38 -201.5zM381 -324q27 -18 82 -38.5t121 -20.5q102 0 156.5 50.5t54.5 111.5q0 47 -21.5 76.5t-53.5 44t-67.5 13.5t-64.5 -13l49 123h-84l-61 -164l67 -39 q45 27 84 10.5t39 -53.5q0 -23 -23.5 -40.5t-78.5 -17.5q-35 0 -73 13.5t-79 46.5z" />
<glyph unicode="&#xe8;" horiz-adv-x="1187" d="M92 496q0 -109 40 -204t109.5 -166t164 -112t202.5 -41q45 0 98.5 6.5t108.5 23.5t111.5 51t111.5 89l-108 109q-72 -78 -157 -103.5t-165 -25.5q-135 0 -226 84t-112 225h826v64q0 109 -37 204t-103.5 165.5t-158.5 111.5t-203 41q-109 0 -201 -41t-158.5 -112.5 t-104.5 -167t-38 -201.5zM266 567q8 66 35 123.5t69 99t99 66.5t125 25q72 0 130 -26t100 -70t68 -100t32 -118v2zM373 1434l279 -297h159l-288 297h-150z" />
<glyph unicode="&#xe9;" horiz-adv-x="1187" d="M92 496q0 -109 40 -204t109.5 -166t164 -112t202.5 -41q45 0 98.5 6.5t108.5 23.5t111.5 51t111.5 89l-108 109q-72 -78 -157 -103.5t-165 -25.5q-135 0 -226 84t-112 225h826v64q0 109 -37 204t-103.5 165.5t-158.5 111.5t-203 41q-109 0 -201 -41t-158.5 -112.5 t-104.5 -167t-38 -201.5zM266 567q8 66 35 123.5t69 99t99 66.5t125 25q72 0 130 -26t100 -70t68 -100t32 -118v2zM365 1137h160l278 297h-149z" />
<glyph unicode="&#xea;" horiz-adv-x="1187" d="M92 496q0 -109 40 -204t109.5 -166t164 -112t202.5 -41q45 0 98.5 6.5t108.5 23.5t111.5 51t111.5 89l-108 109q-72 -78 -157 -103.5t-165 -25.5q-135 0 -226 84t-112 225h826v64q0 109 -37 204t-103.5 165.5t-158.5 111.5t-203 41q-109 0 -201 -41t-158.5 -112.5 t-104.5 -167t-38 -201.5zM266 567q8 66 35 123.5t69 99t99 66.5t125 25q72 0 130 -26t100 -70t68 -100t32 -118v2zM379 1137h133l84 186l88 -186h133l-164 297h-110z" />
<glyph unicode="&#xeb;" horiz-adv-x="1187" d="M92 496q0 -109 40 -204t109.5 -166t164 -112t202.5 -41q45 0 98.5 6.5t108.5 23.5t111.5 51t111.5 89l-108 109q-72 -78 -157 -103.5t-165 -25.5q-135 0 -226 84t-112 225h826v64q0 109 -37 204t-103.5 165.5t-158.5 111.5t-203 41q-109 0 -201 -41t-158.5 -112.5 t-104.5 -167t-38 -201.5zM266 567q8 66 35 123.5t69 99t99 66.5t125 25q72 0 130 -26t100 -70t68 -100t32 -118v2zM303 1337q0 -45 31.5 -76.5t77.5 -31.5q47 0 78.5 31.5t31.5 76.5q0 47 -31.5 79t-78.5 32q-45 0 -77 -32t-32 -79zM657 1337q0 -45 32 -76.5t79 -31.5 q45 0 76.5 31.5t31.5 76.5q0 47 -31.5 79t-76.5 32q-47 0 -79 -32t-32 -79z" />
<glyph unicode="&#xec;" horiz-adv-x="1024" d="M137 1434l279 -297h159l-288 297h-150z" />
<glyph unicode="&#xed;" horiz-adv-x="1024" d="M137 1137h160l278 297h-149z" />
<glyph unicode="&#xee;" horiz-adv-x="1024" d="M137 1137h133l84 186l88 -186h133l-164 297h-110z" />
<glyph unicode="&#xef;" horiz-adv-x="1024" d="M137 1337q0 -45 31.5 -76.5t77.5 -31.5q47 0 78.5 31.5t31.5 76.5q0 47 -31.5 79t-78.5 32q-45 0 -77 -32t-32 -79zM491 1337q0 -45 32 -76.5t79 -31.5q45 0 76.5 31.5t31.5 76.5q0 47 -31.5 79t-76.5 32q-47 0 -79 -32t-32 -79z" />
<glyph unicode="&#xf0;" horiz-adv-x="1177" d="M92 496q0 -119 36 -215.5t99.5 -165t146.5 -105.5t179 -37q113 0 202 46.5t119 123.5v-143h164v1071h166v103h-166v192h-164v-192h-176v-103h176v-223q-31 78 -119.5 124t-201.5 46q-96 0 -179 -37t-146.5 -105.5t-99.5 -165t-36 -214.5zM262 496q0 80 22.5 149.5 t65.5 121.5t104.5 83t139.5 31q102 0 174 -45t106 -109v-463q-35 -63 -106.5 -109t-173.5 -46q-78 0 -139.5 30.5t-104.5 82.5t-65.5 123t-22.5 151z" />
<glyph unicode="&#xf1;" horiz-adv-x="1110" d="M137 0h164v733q59 72 123.5 110t161.5 38q45 0 85 -14.5t70.5 -44t48 -73.5t17.5 -104v-645h164v645q0 180 -93.5 276.5t-244.5 96.5q-66 0 -117 -13.5t-91 -35t-70.5 -49t-53.5 -54.5v123h-164v-989zM186 1139l119 -19q10 104 32.5 157.5t77.5 53.5q31 0 44.5 -19.5 t48.5 -68.5q16 -23 31.5 -45t35 -39.5t46 -28t67.5 -10.5q53 0 94 29t70.5 74t46 99t22.5 105l-119 19q-10 -104 -32.5 -157.5t-77.5 -53.5q-31 0 -45.5 19.5t-46.5 68.5q-16 23 -34 45.5t-40.5 39.5t-52 27.5t-70.5 10.5q-53 0 -92 -28.5t-64.5 -74t-41 -99.5t-19.5 -105z " />
<glyph unicode="&#xf2;" horiz-adv-x="1187" d="M92 496q0 -109 38 -204t104.5 -166t158.5 -112t201 -41q111 0 203 41t158.5 112t103.5 166t37 204q0 106 -37 201.5t-103.5 167t-158.5 112.5t-203 41q-109 0 -201 -41t-158.5 -112.5t-104.5 -167t-38 -201.5zM262 496q0 80 23.5 149.5t66.5 121.5t104.5 83t137.5 31 t137.5 -31t104.5 -83t66.5 -121.5t23.5 -149.5t-23.5 -151t-66.5 -123t-104.5 -82.5t-137.5 -30.5t-137.5 30.5t-104.5 82.5t-66.5 123t-23.5 151zM367 1434l279 -297h159l-288 297h-150z" />
<glyph unicode="&#xf3;" horiz-adv-x="1187" d="M92 496q0 -109 38 -204t104.5 -166t158.5 -112t201 -41q111 0 203 41t158.5 112t103.5 166t37 204q0 106 -37 201.5t-103.5 167t-158.5 112.5t-203 41q-109 0 -201 -41t-158.5 -112.5t-104.5 -167t-38 -201.5zM262 496q0 80 23.5 149.5t66.5 121.5t104.5 83t137.5 31 t137.5 -31t104.5 -83t66.5 -121.5t23.5 -149.5t-23.5 -151t-66.5 -123t-104.5 -82.5t-137.5 -30.5t-137.5 30.5t-104.5 82.5t-66.5 123t-23.5 151zM365 1137h160l278 297h-149z" />
<glyph unicode="&#xf4;" horiz-adv-x="1187" d="M92 496q0 -109 38 -204t104.5 -166t158.5 -112t201 -41q111 0 203 41t158.5 112t103.5 166t37 204q0 106 -37 201.5t-103.5 167t-158.5 112.5t-203 41q-109 0 -201 -41t-158.5 -112.5t-104.5 -167t-38 -201.5zM262 496q0 80 23.5 149.5t66.5 121.5t104.5 83t137.5 31 t137.5 -31t104.5 -83t66.5 -121.5t23.5 -149.5t-23.5 -151t-66.5 -123t-104.5 -82.5t-137.5 -30.5t-137.5 30.5t-104.5 82.5t-66.5 123t-23.5 151zM379 1137h133l84 186l88 -186h133l-164 297h-110z" />
<glyph unicode="&#xf5;" horiz-adv-x="1187" d="M92 496q0 -109 38 -204t104.5 -166t158.5 -112t201 -41q111 0 203 41t158.5 112t103.5 166t37 204q0 106 -37 201.5t-103.5 167t-158.5 112.5t-203 41q-109 0 -201 -41t-158.5 -112.5t-104.5 -167t-38 -201.5zM217 1139l119 -19q10 104 32.5 157.5t77.5 53.5 q31 0 44.5 -19.5t48.5 -68.5q16 -23 31.5 -45t35 -39.5t46 -28t67.5 -10.5q53 0 94 29t70.5 74t46 99t22.5 105l-119 19q-10 -104 -32.5 -157.5t-77.5 -53.5q-31 0 -45.5 19.5t-46.5 68.5q-16 23 -34 45.5t-40.5 39.5t-52 27.5t-70.5 10.5q-53 0 -92 -28.5t-64.5 -74 t-41 -99.5t-19.5 -105zM262 496q0 80 23.5 149.5t66.5 121.5t104.5 83t137.5 31t137.5 -31t104.5 -83t66.5 -121.5t23.5 -149.5t-23.5 -151t-66.5 -123t-104.5 -82.5t-137.5 -30.5t-137.5 30.5t-104.5 82.5t-66.5 123t-23.5 151z" />
<glyph unicode="&#xf6;" horiz-adv-x="1187" d="M92 496q0 -109 38 -204t104.5 -166t158.5 -112t201 -41q111 0 203 41t158.5 112t103.5 166t37 204q0 106 -37 201.5t-103.5 167t-158.5 112.5t-203 41q-109 0 -201 -41t-158.5 -112.5t-104.5 -167t-38 -201.5zM262 496q0 80 23.5 149.5t66.5 121.5t104.5 83t137.5 31 t137.5 -31t104.5 -83t66.5 -121.5t23.5 -149.5t-23.5 -151t-66.5 -123t-104.5 -82.5t-137.5 -30.5t-137.5 30.5t-104.5 82.5t-66.5 123t-23.5 151zM299 1337q0 -45 31.5 -76.5t77.5 -31.5q47 0 78.5 31.5t31.5 76.5q0 47 -31.5 79t-78.5 32q-45 0 -77 -32t-32 -79zM653 1337 q0 -45 32 -76.5t79 -31.5q45 0 76.5 31.5t31.5 76.5q0 47 -31.5 79t-76.5 32q-47 0 -79 -32t-32 -79z" />
<glyph unicode="&#xf7;" horiz-adv-x="1046" d="M59 444l928 2v-2v115l-928 -2v-113zM416 78q0 -45 30.5 -77t77.5 -32q45 0 77 32t32 77q0 47 -32 78.5t-77 31.5q-47 0 -77.5 -32.5t-30.5 -77.5zM416 926q0 -47 30.5 -79t77.5 -32q45 0 77 33t32 78t-32 76.5t-77 31.5q-47 0 -77.5 -31.5t-30.5 -76.5z" />
<glyph unicode="&#xf8;" horiz-adv-x="1187" d="M94 496q0 -111 38 -206t106 -167l-95 -123h119l47 61q59 -41 132 -64.5t155 -23.5q109 0 201 41t158.5 112t104.5 166t38 204q0 115 -42 214t-116 171l86 108h-119l-39 -51q-121 80 -272 80q-109 0 -201 -41t-158.5 -111.5t-104.5 -166t-38 -203.5zM264 496 q0 80 23.5 149.5t66.5 121.5t104.5 83t137.5 31q106 -1 182 -58l-442 -575q-72 102 -72 248zM399 178l447 580q82 -106 82 -262q0 -80 -23.5 -151t-66.5 -123t-104.5 -82.5t-137.5 -30.5q-59 0 -108.5 18t-88.5 51z" />
<glyph unicode="&#xf9;" horiz-adv-x="1110" d="M137 989l1 -67q1 -66 1 -164v-209v-205q0 -178 92.5 -274.5t245.5 -96.5q66 0 117 13.5t91 35t69.5 48t52.5 53.5v-123h164v989h-164v-733q-59 -72 -124 -109.5t-159 -37.5q-90 0 -155.5 58t-65.5 177v92v133v146v135q0 61 -1 100l-1 39h-164zM338 1434l279 -297h159 l-288 297h-150z" />
<glyph unicode="&#xfa;" horiz-adv-x="1110" d="M137 989l1 -67q1 -66 1 -164v-209v-205q0 -178 92.5 -274.5t245.5 -96.5q66 0 117 13.5t91 35t69.5 48t52.5 53.5v-123h164v989h-164v-733q-59 -72 -124 -109.5t-159 -37.5q-90 0 -155.5 58t-65.5 177v92v133v146v135q0 61 -1 100l-1 39h-164zM340 1137h160l278 297h-149 z" />
<glyph unicode="&#xfb;" horiz-adv-x="1110" d="M137 989l1 -67q1 -66 1 -164v-209v-205q0 -178 92.5 -274.5t245.5 -96.5q66 0 117 13.5t91 35t69.5 48t52.5 53.5v-123h164v989h-164v-733q-59 -72 -124 -109.5t-159 -37.5q-90 0 -155.5 58t-65.5 177v92v133v146v135q0 61 -1 100l-1 39h-164zM338 1137h133l84 186 l88 -186h133l-164 297h-110z" />
<glyph unicode="&#xfc;" horiz-adv-x="1110" d="M137 989l1 -67q1 -66 1 -164v-209v-205q0 -178 92.5 -274.5t245.5 -96.5q66 0 117 13.5t91 35t69.5 48t52.5 53.5v-123h164v989h-164v-733q-59 -72 -124 -109.5t-159 -37.5q-90 0 -155.5 58t-65.5 177v92v133v146v135q0 61 -1 100l-1 39h-164zM264 1337q0 -45 31.5 -76.5 t77.5 -31.5q47 0 78.5 31.5t31.5 76.5q0 47 -31.5 79t-78.5 32q-45 0 -77 -32t-32 -79zM618 1337q0 -45 32 -76.5t79 -31.5q45 0 76.5 31.5t31.5 76.5q0 47 -31.5 79t-76.5 32q-47 0 -79 -32t-32 -79z" />
<glyph unicode="&#xfd;" horiz-adv-x="1019" d="M0 989l430 -1024l-12 -27q-12 -28 -29 -67q-14 -35 -33.5 -63.5t-48 -49t-73 -33t-107.5 -12.5l2 -137q150 0 243 51t150 185l498 1177h-184l-326 -831l-326 831h-184zM293 1137h160l278 297h-149z" />
<glyph unicode="&#xfe;" horiz-adv-x="1177" d="M137 1366l2 -1761h164l-2 538q33 -78 122 -124t202 -46q94 0 178 37t147.5 105.5t99 165t35.5 215.5t-35.5 215t-99 164.5t-147.5 105.5t-178 37q-113 0 -202 -46t-122 -124l2 518h-166zM301 264l2 463q35 63 106.5 108.5t174.5 45.5q76 0 137 -31t104 -83t66.5 -121.5 t23.5 -149.5t-23.5 -151t-66.5 -123t-104.5 -82.5t-136.5 -30.5q-102 0 -175 46t-108 109z" />
<glyph unicode="&#xff;" horiz-adv-x="1019" d="M0 989l430 -1024l-12 -27q-12 -28 -29 -67q-14 -35 -33.5 -63.5t-48 -49t-73 -33t-107.5 -12.5l2 -137q150 0 243 51t150 185l498 1177h-184l-326 -831l-326 831h-184zM236 1337q0 -45 31.5 -76.5t77.5 -31.5q47 0 78.5 31.5t31.5 76.5q0 47 -31.5 79t-78.5 32 q-45 0 -77 -32t-32 -79zM590 1337q0 -45 32 -76.5t79 -31.5q45 0 76.5 31.5t31.5 76.5q0 47 -31.5 79t-76.5 32q-47 0 -79 -32t-32 -79z" />
<glyph unicode="&#x152;" horiz-adv-x="2252" d="M96 682q0 -150 52.5 -282t144.5 -230t219 -154.5t276 -56.5q160 0 281 63.5t201 174.5v-197h923v160h-745v463h731v157h-731v428h745v158h-923v-197q-80 111 -201 174.5t-281 63.5q-150 0 -276.5 -57.5t-218.5 -155.5t-144.5 -230.5t-52.5 -281.5zM281 682 q0 119 36.5 223.5t103 180t160 119.5t207.5 44q170 0 293 -74.5t189 -201.5v-582q-66 -125 -189 -199.5t-293 -74.5q-115 0 -208 44t-159.5 119.5t-103 179t-36.5 222.5z" />
<glyph unicode="&#x153;" horiz-adv-x="2019" d="M92 496q0 -109 38 -204t104.5 -166t158.5 -112t201 -41q141 0 248.5 66.5t169.5 177.5q66 -111 176 -177.5t252 -66.5q45 0 98 5.5t108.5 23.5t112 52t111.5 89l-107 107q-72 -78 -156.5 -102.5t-166.5 -24.5q-135 0 -226.5 84t-111.5 225h827v64q0 109 -38 204 t-104.5 165.5t-158.5 111.5t-201 41q-141 0 -248.5 -65.5t-168.5 -176.5q-61 111 -168 176.5t-248 65.5q-109 0 -201 -41t-158.5 -111.5t-104.5 -166t-38 -203.5zM262 496q0 80 22.5 149.5t65.5 121.5t104.5 83t139.5 31q76 0 137.5 -31t104.5 -83t66.5 -121.5t23.5 -149.5 t-23.5 -151t-66.5 -123t-104.5 -82.5t-137.5 -30.5q-78 0 -139.5 30.5t-104.5 82.5t-65.5 123t-22.5 151zM1100 567q8 63 33.5 120.5t68.5 100.5t99.5 68t125.5 25q72 0 129.5 -26t99.5 -69t67.5 -100.5t31.5 -118.5h-655z" />
<glyph unicode="&#x178;" horiz-adv-x="1290" d="M4 1366l549 -782v-584h178v584l549 782h-231l-408 -614l-405 614h-232zM360 1577q0 -45 31.5 -76.5t77.5 -31.5q47 0 78.5 31.5t31.5 76.5q0 47 -31.5 79t-78.5 32q-45 0 -77 -32t-32 -79zM714 1577q0 -45 32 -76.5t79 -31.5q45 0 76.5 31.5t31.5 76.5q0 47 -31.5 79 t-76.5 32q-47 0 -79 -32t-32 -79z" />
<glyph unicode="&#x2c6;" horiz-adv-x="436" d="M0 1137h133l84 186l88 -186h133l-164 297h-110z" />
<glyph unicode="&#x2dc;" horiz-adv-x="733" d="M0 1139l119 -19q10 104 32.5 157.5t77.5 53.5q31 0 44.5 -19.5t48.5 -68.5q16 -23 31.5 -45t35 -39.5t46 -28t67.5 -10.5q53 0 94 29t70.5 74t46 99t22.5 105l-119 19q-10 -104 -32.5 -157.5t-77.5 -53.5q-31 0 -45.5 19.5t-46.5 68.5q-16 23 -34 45.5t-40.5 39.5 t-52 27.5t-70.5 10.5q-53 0 -92 -28.5t-64.5 -74t-41 -99.5t-19.5 -105z" />
<glyph unicode="&#x2000;" horiz-adv-x="907" />
<glyph unicode="&#x2001;" horiz-adv-x="1815" />
<glyph unicode="&#x2002;" horiz-adv-x="907" />
<glyph unicode="&#x2003;" horiz-adv-x="1815" />
<glyph unicode="&#x2004;" horiz-adv-x="605" />
<glyph unicode="&#x2005;" horiz-adv-x="453" />
<glyph unicode="&#x2006;" horiz-adv-x="302" />
<glyph unicode="&#x2007;" horiz-adv-x="302" />
<glyph unicode="&#x2008;" horiz-adv-x="226" />
<glyph unicode="&#x2009;" horiz-adv-x="363" />
<glyph unicode="&#x200a;" horiz-adv-x="100" />
<glyph unicode="&#x2010;" horiz-adv-x="614" d="M61 414h492v164h-492v-164z" />
<glyph unicode="&#x2011;" horiz-adv-x="614" d="M61 414h492v164h-492v-164z" />
<glyph unicode="&#x2012;" horiz-adv-x="614" d="M61 414h492v164h-492v-164z" />
<glyph unicode="&#x2013;" horiz-adv-x="1214" d="M61 414h1092v164h-1092v-164z" />
<glyph unicode="&#x2014;" horiz-adv-x="1705" d="M61 414h1584v164h-1584v-164z" />
<glyph unicode="&#x2018;" horiz-adv-x="450" d="M92 1042q0 -63 39 -104t94 -41t94 39t39 94q0 45 -26.5 80t-67.5 45q-12 4 -28 4q-14 0 -19 -4q6 41 42 87t77 95l-86 70q-68 -88 -113 -174t-45 -191z" />
<glyph unicode="&#x2019;" horiz-adv-x="450" d="M92 1255q0 -45 25.5 -80.5t66.5 -44.5q12 -4 27.5 -3t19.5 3q-6 -41 -40.5 -87t-75.5 -97l84 -67q68 88 113.5 174t45.5 190q0 63 -38.5 104.5t-94.5 41.5q-55 0 -94 -39t-39 -95z" />
<glyph unicode="&#x201a;" horiz-adv-x="450" d="M92 117q0 55 39 94t94 39t94 -41t39 -107q0 -104 -46 -190t-113 -174l-84 69q41 49 75.5 95.5t40.5 87.5q-4 -2 -19 -3t-28 3q-41 10 -66.5 45t-25.5 82z" />
<glyph unicode="&#x201c;" horiz-adv-x="808" d="M92 1042q0 -63 39 -104t94 -41t94 39t39 94v-2q0 47 -26.5 82t-67.5 45q-12 4 -28 4q-14 0 -19 -4q6 41 42 87t77 95l-86 70q-68 -88 -113 -174t-45 -191zM451 1042q0 -63 38.5 -104t94.5 -41q55 0 94 39t39 94q0 45 -26.5 80t-67.5 45q-12 4 -29 4q-14 0 -19 -4 q6 41 42 87t77 95l-86 70q-68 -88 -112.5 -174t-44.5 -191z" />
<glyph unicode="&#x201d;" horiz-adv-x="808" d="M92 1255q0 -45 25.5 -80.5t66.5 -44.5q12 -4 27.5 -3t19.5 3q-6 -41 -40.5 -87t-75.5 -97l84 -67q68 88 113.5 174t45.5 190q0 63 -38.5 104.5t-94.5 41.5q-55 0 -94 -39t-39 -95zM451 1255q0 -45 25.5 -80.5t66.5 -44.5q12 -4 27.5 -3t19.5 3q-6 -41 -41 -87t-76 -97 l84 -67q68 88 114 174t46 190q0 63 -39 104.5t-94 41.5t-94 -39t-39 -95z" />
<glyph unicode="&#x201e;" horiz-adv-x="815" d="M92 115q0 53 39 93t94 40t94 -41t39 -107q0 -104 -46 -190t-113 -174l-84 69q41 49 75.5 95.5t40.5 87.5q-4 -2 -19 -3t-28 3q-41 10 -66.5 45t-25.5 82zM451 115q0 53 38.5 93t94.5 40q55 0 94 -41t39 -107q0 -104 -46 -190t-114 -174l-84 69q41 49 76 95.5t41 87.5 q-4 -2 -19.5 -3t-27.5 3q-41 10 -66.5 45t-25.5 82z" />
<glyph unicode="&#x2022;" horiz-adv-x="733" d="M102 584q0 -55 20.5 -103.5t57.5 -84.5t85 -56.5t104 -20.5q55 0 103 20.5t85 56.5t57.5 84.5t20.5 103.5t-20.5 103t-57.5 85t-85 57.5t-103 20.5t-103.5 -20.5t-85.5 -57.5t-57.5 -85t-20.5 -103z" />
<glyph unicode="&#x2026;" horiz-adv-x="2017" d="M199 117q0 53 38.5 93t94.5 40q55 0 94 -40t39 -93q0 -55 -39 -94t-94 -39t-94 38.5t-39 94.5zM862 117q0 53 39 93t94 40t94 -40t39 -93q0 -55 -38.5 -94t-94.5 -39q-55 0 -94 38.5t-39 94.5zM1526 117q0 53 39 93t94 40t94 -40t39 -93q0 -55 -39 -94t-94 -39t-94 38.5 t-39 94.5z" />
<glyph unicode="&#x202f;" horiz-adv-x="363" />
<glyph unicode="&#x2039;" horiz-adv-x="491" d="M0 498l328 -369h164l-328 369l328 362h-164z" />
<glyph unicode="&#x203a;" horiz-adv-x="491" d="M0 129h164l328 369l-328 362h-164l328 -362z" />
<glyph unicode="&#x205f;" horiz-adv-x="453" />
<glyph unicode="&#x2122;" horiz-adv-x="933" d="M35 1313h127v-398h59v398h127v53h-313v-53zM422 915h59v373l154 -373h16l154 373v-373h57v451h-88l-131 -328l-131 328h-90v-451z" />
<glyph unicode="&#x25fc;" horiz-adv-x="993" d="M0 0v993h993v-993h-993z" />
</font>
</defs>
</svg>
